#TITLE:Level 1-1;
#SUBTITLE:;
#ARTIST:Kinetikai;
#TITLETRANSLIT:;
#SUBTITLETRANSLIT:;
#ARTISTTRANSLIT:;
#GENRE:;
#CREDIT:;
#BANNER:level bn.png;
#BACKGROUND:level bg.png;
#LYRICSPATH:;
#CDTITLE:;
#MUSIC:Level 1-1.ogg;
#OFFSET:-0.020;
#SAMPLESTART:1.260;
#SAMPLELENGTH:12.000;
#SELECTABLE:YES;
#BPMS:0.000=197.000;
#STOPS:;
#BGCHANGES:;
#KEYSOUNDS:;

//---------------dance-single - zimlord----------------
#NOTES:
     dance-single:
     zimlord:
     Challenge:
     14:
     1.000,1.000,0.510,0.100,1.000:
0000
0000
0000
0000
,
1000
0001
0000
1000
0100
0000
0010
0000
0011
0000
0000
0000
1001
0000
0000
0000
,
0001
0100
0001
0100
0010
1000
0010
1000
0100
0010
0001
1000
0100
0010
0100
1000
,
0001
0100
0010
0100
0001
1000
0100
0010
0001
0010
0100
1000
0001
0100
0001
0010
,
0100
1000
0100
1000
0001
0010
0001
0100
0010
1000
0010
1000
0001
0100
0001
1000
,
0100
0010
0001
1000
0010
0100
0001
1000
0010
0100
0001
0100
0010
1000
0100
0010
,
0001
0100
0001
0100
0010
1000
0010
1000
0001
1000
0001
1000
0100
0010
0100
1000
,
0001
0010
0001
0010
0100
1000
0100
0010
0001
0100
0001
0100
0010
1000
0010
0100
,
0001
1000
0100
0010
0001
1000
0100
0010
0100
1000
0001
0100
0010
1000
0001
0100
,
0010
1000
0000
0001
1000
0000
0010
0000
0101
0000
0000
0000
1002
0000
0000
0000
,
1003
0100
0010
0001
1000
0100
0010
0100
1000
0001
0100
0010
1000
0001
0100
0001
,
0010
0100
1000
0100
0010
0001
1000
0010
0100
0001
0100
0001
1000
0100
1000
0100
,
0010
0001
1000
0100
1000
0001
0100
0001
1000
0010
1000
0010
0100
0001
0100
0001
,
1000
0100
1000
0100
0010
0100
1000
0100
0010
0001
1000
0001
0100
0010
1000
0001
,
0100
0010
0100
0010
1000
0010
1000
0010
0100
0001
0100
0001
1000
0001
1000
0100
,
0010
0100
1000
0001
0100
0010
0100
0001
1000
0100
0010
0001
1000
0010
1000
0001
,
0010
0100
1000
0100
0010
0100
1000
0001
0100
0010
0100
0001
,
1000
0000
0010
0000
0100
0000
0010
0000
1000
0000
0001
0000
0010
0000
0000
0000
0000
0000
0010
0000
0000
0100
0000
0000
,
1100
0000
1000
0001
0100
0000
0010
0000
1010
0000
1000
0001
0010
0000
0100
0000
,
1000
0100
0010
0001
0010
0100
1000
0100
0010
0000
0001
0000
0100
0000
0001
0000
,
0101
0000
0100
0001
1000
0000
0100
0000
0011
0000
0010
0001
1000
0000
0001
0000
,
0100
0010
1000
0010
0100
0001
0100
0010
1000
0000
0100
0000
1000
0000
0100
0000
,
0010
0001
1000
0001
0100
0001
1000
0010
0200
0000
0000
0000
0300
0000
0000
0000
,
0010
1000
0001
1000
0100
1000
0001
0010
0200
0000
0000
0000
0300
0000
0000
0000
,
0011
0000
0010
0001
1000
0000
0010
0000
1000
0001
0010
0100
1000
0000
0001
0000
,
1000
0100
0010
0100
1000
0001
0100
0010
0100
0000
0001
0000
1000
0000
0100
0000
,
0011
0000
0001
0100
0010
0000
0100
0000
1001
0000
1000
0100
0010
0000
0100
0000
,
1000
0001
0010
0100
0010
0001
1000
0010
0100
0000
0010
0000
1000
0000
0001
0000
,
1010
0000
0010
0100
0001
0000
1000
0000
0011
0000
0001
0010
0100
0000
1000
0000
,
0100
0010
0001
0010
0100
1000
0001
1000
0001
0000
0100
0000
0010
0000
0100
0000
,
0001
1000
0100
0010
0100
1000
0001
0100
0020
0000
0000
0000
0030
0000
0000
0000
,
1000
0001
0010
0001
1000
0001
1000
0100
0020
0000
0000
0000
0030
0000
0000
0000
,
0011
0000
0001
0100
0010
0000
0100
0000
0001
0010
0100
0010
0001
0000
1000
0000
,
0100
0010
0001
1000
0100
1000
0001
0100
0002
0000
0000
0000
2013
0000
0000
0000
,
3001
0010
0000
0100
1000
0000
0100
0000
1001
0000
0000
0000
1100
0000
0000
0000
,
1000
0100
1000
0100
0010
0001
0010
0100
1000
0001
1000
0001
0100
0010
0100
0010
,
1000
0100
0010
0001
1000
0100
1000
0001
0100
0010
0100
0010
1000
0001
0010
0100
,
1000
0100
0010
0001
1000
0100
0010
0001
0100
0001
0100
0010
1000
0001
0100
0010
,
1000
0100
1000
0100
0010
0001
0010
0100
1000
0100
1000
0010
0100
0001
0100
0010
,
1000
0001
1000
0001
1000
0100
1000
0100
0010
0001
0010
0001
0010
0100
0010
0100
,
1000
0100
0010
0001
1000
0010
1000
0100
0010
0100
1000
0001
0100
0010
0100
0001
,
1000
0100
0010
0100
1000
0001
0010
0001
0100
0010
0100
0001
1000
0010
0100
0001
,
1000
0100
0000
0010
0100
0000
1000
0000
1100
0000
0000
0000
0011
0000
0000
0000
,
0001
0100
0001
0100
0010
1000
0010
0100
0001
1000
0100
0010
0100
1000
0100
1000
,
0001
0100
0001
0100
0010
1000
0001
0100
0010
1000
0100
0010
0001
1000
0100
0010
,
0100
1000
0100
1000
0001
0100
0001
0100
0010
1000
0001
0100
0010
1000
0100
0010
,
0001
1000
0100
1000
0001
0100
0001
0100
0010
1000
0100
0010
0001
1000
0100
0010
,
0100
1000
0100
1000
0100
0010
0100
0010
0001
1000
0001
1000
0001
0100
0001
0100
,
0010
1000
0001
0100
0010
1000
0100
0010
0001
1000
0100
1000
0001
0100
0001
1000
,
0010
0100
0001
1000
0100
0010
0001
1000
0010
1000
0001
0100
,
0010
1000
0100
1000
0001
1000
0200
0000
0000
0300
0000
0000
,
1100
0000
1000
0000
0011
0000
0001
0000
0100
0001
0100
0010
1000
0000
0001
0000
,
1000
0010
1000
0001
0100
0000
0001
0000
1010
0000
0000
0000
1100
0000
0000
0000
,
1001
0000
0001
0000
0011
0000
0010
0000
0100
1000
0100
0010
0001
0100
0001
0100
,
0010
1000
0010
0100
0001
1000
0100
0010
0100
1000
0001
0100
0001
1000
0001
1000
,
0100
0000
0010
0000
0011
0000
0001
0000
0100
0001
1000
0100
0010
0000
0100
0000
,
1000
0100
0010
0001
1000
0000
0010
0000
0101
0000
0000
0000
1001
0000
0000
0000
,
1000
0100
0010
0100
1000
0100
0010
0100
1000
0001
0100
0001
1000
0001
0100
0001
,
0010
0100
1000
0100
0010
0100
1000
0100
0010
0000
0000
0000
0201
0000
0000
0000
,
0301
1000
0100
0010
0001
1000
0100
0010
0001
0000
1000
0000
0001
0000
1000
0000
,
0001
0100
0010
1000
0001
0100
0010
1000
0010
0000
0100
0000
0010
0000
0100
0000
,
1010
0100
1010
0100
1010
0100
1010
0100
,
0011
0100
0011
0100
0011
0100
0011
0100
,
1000
0100
0010
0001
1000
0100
0010
0100
1000
0000
0001
0000
1000
0000
0001
0000
,
1000
0001
0100
0010
1000
0001
0100
0010
0100
0000
0010
0000
0100
0000
0010
0000
,
1000
0000
0000
0001
1000
0100
0010
0000
0000
0001
0000
0000
,
0101
0000
1010
0000
1001
0000
0110
0MM0
,
0000
0000
0000
0000
,
0000
0000
0000
0000
,
1001
0000
0001
1000
0100
0010
0001
0000
0100
0010
1000
0001
,
1000
0000
0001
0000
0100
0000
1010
0000
0000
0101
0000
0000
,
1001
0000
1000
0100
0010
0100
1000
0000
0001
0000
0100
0000
,
0040
4000
0000
0000
0000
0000
0000
0000
0000
0000
0000
0000
,
0000
0000
0000
0000
,
3131
0000
0000
0000
;
