#TITLE:Last Imouto;
#SUBTITLE:;
#ARTIST:Jerico;
#TITLETRANSLIT:;
#SUBTITLETRANSLIT:;
#ARTISTTRANSLIT:;
#GENRE:;
#CREDIT:;
#BANNER:LastImouto-BN.png;
#BACKGROUND:LastImouto-BG.png;
#LYRICSPATH:;
#CDTITLE:;
#MUSIC:Imouto.ogg;
#OFFSET:0.009;
#SAMPLESTART:56.240;
#SAMPLELENGTH:14.990;
#SELECTABLE:YES;
#DISPLAYBPM:128.000:145.000;
#BPMS:0.000=128.000,163.500=23.000,163.625=27.000,163.750=31.000,163.875=35.000,164.000=39.000,164.125=43.000,164.250=47.000,164.375=51.000,164.500=55.000,164.625=59.000,164.750=63.000,164.875=67.000,165.000=71.000,165.125=74.000,165.250=77.000,165.375=80.000,165.500=83.000,165.625=88.000,165.750=91.000,165.875=94.000,166.000=97.000,166.125=100.000,166.250=103.000,166.375=106.000,166.500=109.000,166.625=112.000,166.750=115.000,166.875=118.000,167.000=121.000,167.125=124.000,167.250=127.000,167.375=130.000,167.500=133.000,167.625=136.000,167.750=138.000,167.875=140.000,168.000=145.000,232.000=72.500,248.000=145.000;
#STOPS:;
#BGCHANGES:;
#KEYSOUNDS:;

//---------------dance-single - R. Uchima----------------
#NOTES:
     dance-single:
     R. Uchima:
     Challenge:
     12:
     0.876,0.000,0.210,0.225,1.000:
0000
0000
0000
0000
,
0000
0000
0000
0000
,
0000
0000
0000
0000
,
0000
0000
0000
0000
,
0000
0000
0000
0000
,
0000
0000
0000
1001
,
1100
0000
0100
0000
1000
0100
0000
1000
0100
0000
1000
0000
0102
0000
0203
0000
,
0310
0000
0000
0000
0000
0000
0010
0000
0000
0000
0000
0000
1000
0000
0000
0010
0000
0000
0000
0000
0000
1000
0000
0000
0010
0000
0000
0000
0000
0000
2000
0000
0000
0000
0000
0000
0001
0000
0000
0000
0001
0000
0000
0000
3001
0000
0000
0000
,
0010
0000
0010
0000
0100
0010
0000
0100
0010
0000
0001
0000
1020
0000
0230
0000
,
0301
0000
0001
0000
1000
0001
0000
1000
0002
0000
0000
0000
0023
0000
0000
0000
,
0130
1000
0100
1000
0001
0100
0010
1000
0010
0100
0001
1000
0100
1000
0001
0100
,
0010
0100
0001
1000
0100
0010
0001
1000
0010
0100
0010
1000
0001
1000
0010
1000
,
0100
0000
0010
0000
0100
0000
1000
0000
0001
0000
0010
0000
0001
0000
1000
0000
0010
0000
0100
0001
0100
0000
0010
0000
1000
0000
0001
0000
0010
0000
0001
0000
,
1000
0010
1000
0010
0001
0010
0001
0010
0100
0001
0100
0001
0010
0000
0000
0000
,
0210
1300
1020
0130
,
1002
0000
1000
0000
1000
0000
0103
0001
,
0021
0000
0000
0000
0130
0000
0000
0000
2100
0000
0000
0020
3000
0000
1030
0000
,
1002
0000
1000
0000
1000
0000
0013
0001
,
0201
0000
0310
1000
1200
0000
0310
0000
,
0012
0100
1000
0013
,
0001
0010
0001
1000
1000
0010
0100
0001
0001
0010
0100
1000
,
0010
0000
0000
0000
0000
0000
1000
0100
0010
0001
1000
0001
0100
0010
0100
0001
1000
0001
1000
0100
0010
0100
1000
0001
,
0100
0010
0100
0001
0001
0100
0001
1000
0100
0010
0001
0100
0010
0100
0001
0001
,
1000
0010
0100
0001
0001
1000
0010
0100
0100
0010
1000
0100
0010
0100
1000
1000
,
0001
1000
0100
0010
0010
0001
1000
0010
0010
0100
0001
0010
0100
0010
0001
0001
,
1000
0001
1000
0010
0010
0100
0001
1000
1000
0100
1000
0010
0100
0010
1000
1000
,
0010
0100
0001
0100
0100
0010
1000
0001
0001
0010
0001
0100
0010
0100
0001
0001
,
1000
0100
0010
0100
0100
1000
0001
0100
0100
0010
1000
0100
0010
0001
1000
1000
,
0001
1000
0001
0100
0100
0001
1000
0100
0100
0010
0100
1000
,
0010
0000
0000
0000
0000
0000
0100
0001
0100
0010
1000
0001
0010
0100
1000
0100
0010
0001
0100
0000
0000
0000
0000
0000
,
0001
0000
0001
0000
0001
0000
0010
0000
0000
0001
1000
0001
0100
0000
0100
0000
0100
0000
1000
0000
0000
1000
0000
0000
,
0100
0000
0000
0001
0100
0001
1000
0000
0000
0100
1000
0100
0020
0000
0000
0000
0000
0000
0031
0010
0001
1000
0010
1000
,
0002
0000
0000
0000
0000
0000
0013
0000
0000
0000
0000
0000
0001
0000
0000
0000
2000
0000
0000
0000
0000
0000
3010
0000
1000
0001
1000
0001
1000
0000
0000
0000
,
0200
0000
0000
0000
0000
0000
0000
0000
0310
0000
0000
0010
0000
0000
0010
0000
0001
0000
0010
0000
0001
0000
0010
0000
0100
1000
0100
0000
1000
0000
0001
0000
,
0100
0000
0100
0000
0100
0000
0001
0000
0000
1000
0001
1000
0100
0000
0100
0000
0100
0000
0001
0000
0000
0001
0000
0000
,
0100
0000
0000
1000
0100
1000
0001
0000
0000
0100
0001
0100
0020
0000
0000
0000
0000
0000
1030
0010
1000
0001
0010
0001
,
2000
0000
0000
0000
0000
0000
3001
0000
1000
0001
1000
0001
1000
0000
0000
0000
0200
0000
0000
0000
0000
0000
0310
0000
0002
0000
0000
0000
0000
0000
0000
0000
,
2003
0000
0000
0000
0000
0000
0000
0000
3010
0000
0000
0010
0000
0000
0010
0000
0110
0000
0000
0110
0000
0000
0110
0000
0000
0000
0000
0000
0000
0000
0000
0000
,
0101
0000
0000
0001
0100
0010
0100
0001
1000
0100
0000
0000
0010
0100
1000
0100
0010
0001
0100
0000
0000
0110
0000
0000
,
0010
0000
1000
0000
0010
0000
0100
0000
0001
0000
1000
0000
0100
0000
0000
0000
0000
0000
0010
0000
0001
0000
0010
0000
0100
0000
0010
0000
0001
0000
0100
0000
0000
0000
0000
0000
0000
0000
0000
MMMM
0000
0000
0000
0000
0000
0000
0000
0000
,
1001
0000
0000
0000
0000
0000
1000
0000
0100
0000
1000
0000
0001
0000
0010
0000
0001
0000
1000
0000
0000
0000
0000
0000
0010
0000
0100
0000
0010
0000
1000
0000
0001
0000
0010
0000
0100
0000
0000
0000
0000
0000
2100
0000
0000
00M0
0000
0000
,
000M
0000
00M0
0000
0M00
0000
00M0
0000
000M
0000
00M0
0000
0M00
0000
00M0
0000
000M
0000
00M0
0000
0M00
0000
00M0
0000
000M
0000
00M0
0000
0M00
0000
00M0
3000
,
1001
0000
0001
0100
0001
0000
1000
0010
1000
0000
0001
0010
0001
0000
0010
0100
,
0010
0000
0001
1000
0001
0000
1000
0010
1000
0000
0001
0100
0001
0000
1000
0100
,
1000
0000
0010
0100
0010
0000
1000
0010
1000
0000
0001
0010
0001
0000
0100
0010
,
0100
0000
0001
0100
0001
0000
1000
0100
1000
0000
0001
0100
0001
0000
0100
0010
,
1000
0001
1000
0000
0001
1000
0000
0001
0010
0001
0010
0000
0001
1000
0000
0010
,
0100
0010
0100
0000
0001
0100
0000
0010
1000
0010
1000
0000
0001
1000
0000
0001
,
0100
0001
0100
0000
0010
1000
0000
0001
1000
0001
1000
0000
0100
0010
0000
0001
,
0011
0000
0010
0000
0001
1000
0000
0001
0010
0100
0020
0000
0000
0031
0000
1000
,
1010
0000
0010
0000
0100
0010
0000
0100
0001
1000
0100
0000
0010
0100
0000
0010
,
0001
0010
0100
0000
1000
0001
0000
0100
0010
0100
0001
1000
0000
1000
0100
0010
,
0000
0001
0010
0000
0001
1000
0000
0010
0100
0001
0100
0000
0010
1000
0000
0001
,
1000
0100
1000
0000
0100
0010
0000
0001
1000
0010
0200
0000
0000
0301
0000
1000
,
0100
0010
0100
0010
0001
1000
0010
0100
0010
1000
0001
0010
0100
0010
0001
1000
,
0010
0100
0001
0100
0010
0100
0001
1000
0100
1000
0001
0010
0100
0010
0001
1000
,
0010
0100
0010
1000
0001
0010
0100
0010
0001
1000
0001
0100
0010
0100
0001
1000
,
1001
0000
0000
0000
0001
0000
1001
0000
0000
0000
1000
0000
1001
0000
0000
0000
1001
0000
0000
0000
0000
0000
0000
0000
1001
0000
0000
0000
0001
1000
0001
1000
,
0MM1
0000
0100
0000
0000
0000
0000
0000
0010
0000
0000
0010
0000
0000
0010
0000
0000
0000
1000
0000
0000
1000
0000
0000
1000
0000
1000
0000
0000
0100
0000
0010
,
0000
0000
0001
0000
0000
0000
0000
0000
0001
0000
0000
1000
0000
0000
0010
0000
0000
0000
0100
0000
0000
0100
0000
0000
0100
0000
0100
0000
0000
0001
0000
0010
,
0000
0000
0100
0000
0000
0000
0000
0000
0010
0000
0000
0010
0000
0000
0001
0000
0000
0000
0100
0000
0000
1000
0000
0000
0100
0000
0100
0000
0000
0010
0000
0010
,
0000
0000
1000
0000
0000
0000
0000
0000
1000
0000
0000
1000
0000
0000
1000
0000
0000
0001
0010
0100
0001
0100
0010
0001
1000
0000
1000
0000
0000
0010
0000
1000
,
0MM1
1000
0100
1000
0001
1000
0010
0100
0001
0100
0010
1000
0001
0010
0100
1000
,
0100
0000
0010
0000
0001
0000
1000
0000
0000
0010
0000
0000
0100
0000
0000
0010
0000
0000
1000
0000
0000
0001
0000
0000
0010
0000
0000
0001
0000
0000
1000
0000
0000
0010
0000
0000
0100
0000
0000
0001
0000
0000
0100
0000
0000
0010
0000
0000
,
1000
0000
0000
0001
0000
0000
0010
0000
0100
0000
1000
0000
0001
0000
0000
1000
0000
0000
0001
0000
0100
0000
0010
0000
1000
0000
0000
0010
0000
0000
0100
0000
0000
0010
0000
0000
1000
0000
0000
0001
0000
0000
0010
0000
0000
0100
0000
0000
,
0010
0001
1000
0010
0100
0010
1000
0001
0010
0100
0010
0001
1000
0010
0100
0001
,
M010
0100
0010
0001
1000
0010
0100
0010
1000
0001
0010
0001
1000
0100
0010
0001
,
M100
0000
0010
0000
1000
0000
0001
0000
0000
0100
0000
0000
0010
0000
0000
1000
0000
0000
0001
0000
0000
0010
0000
0000
0001
0000
0000
1000
0000
0000
0100
0000
0010
0000
0001
0000
1000
0000
0000
0010
0000
0000
0100
0000
0000
0001
0000
0000
,
M010
0000
0000
0000
0000
0000
0000
0000
0100
0000
0000
0000
0000
0000
0000
0000
1000
0000
0000
0000
0000
0000
0000
0000
0001
0000
0000
0000
0000
0000
0000
0000
0000
0000
0000
0000
0100
0000
0000
0000
0000
0000
0000
0000
0000
0000
0000
0000
0010
0000
0000
0000
0000
0000
0000
0000
0000
0000
0000
0000
0100
0000
0000
0000
0000
0000
0000
0000
0000
0000
0000
0000
0001
0000
0000
0000
0000
0000
0000
0000
0000
0000
0000
0000
1000
0000
0000
0000
0000
0000
0000
0000
0000
0000
0000
0000
0100
0000
0000
0000
0000
0000
0000
0000
0000
0000
0000
0000
0010
0000
0000
0000
0000
0000
0000
0000
0000
0000
0000
0000
0100
0000
0000
0000
0000
0000
0000
0000
0000
0000
0000
0000
1000
0000
0000
0000
0000
0000
0000
0000
0000
0000
0000
0000
0001
0000
0000
0000
0000
0000
0000
0000
0000
0000
0000
0000
0100
0000
0000
0000
0000
0000
0000
0000
0000
0000
0000
0000
0001
0000
0000
0000
0000
0000
1000
0000
0000
0000
0000
0000
0001
0000
0000
0000
0000
0000
1000
0000
0000
0000
0000
0000
,
0002
0000
0000
0000
,
2010
0000
0000
3003
;

//---------------dance-double - WinDEU----------------
#NOTES:
     dance-double:
     WinDEU:
     Challenge:
     12:
     0.921,0.000,0.159,0.449,1.000:
00000000
00000000
00000000
00000000
,
00000000
00000000
00000000
00000000
,
00000000
00000000
00000000
00000000
,
00010000
00001000
00010000
01000000
00010000
00001000
00000100
00000020
00000000
00000000
00000030
00000000
00010000
00001000
00000100
00001000
,
00010000
01000000
00010000
00002000
00000000
00000000
00003000
00000000
00010000
00001000
00000010
00001000
00010000
01000000
00010000
00002000
,
00000000
00000000
00003000
00000000
00010000
00001000
00000100
00001000
00010000
00100000
01000000
00100000
20000000
00000000
30000000
00000000
,
11000000
00000000
01000000
00000000
00100000
00010000
00000000
00010000
01000000
00000000
00000000
00000000
02002000
00000000
03003000
00000000
,
00001000
00000000
00000000
00000000
00000000
00000000
00010000
00000000
00000000
00000000
00000000
00000000
00000100
00000000
00000000
00000010
00000000
00000000
00000000
00000000
00000000
00000010
00000000
00000000
00000001
00000000
00000000
00000000
00000000
00000000
00002000
00000000
00000000
00000000
00000000
00000000
00000010
00000000
00000000
00000000
00000010
00000000
00000000
00000000
00003010
00000000
00000000
00000000
,
00000100
00000000
00000001
00000000
00001000
00000100
00000000
00000100
00010000
00000000
00000000
00000000
00202000
00000000
00303000
00000000
,
00100000
00000000
01000000
00000000
10000000
00100000
00000000
00100000
02200000
00000000
03300000
00000000
02002000
00000000
03003000
00000000
,
01000000
00010000
00100000
01000000
00010000
01000000
00100000
00010000
01000000
00001000
00010000
00001000
00000100
00000010
00001000
00000100
,
00000010
00000100
00010000
00001000
00000100
00000010
00001000
00000100
00010000
00001000
00100000
01000000
00010000
01000000
10000000
00100000
,
01000000
00000000
00001000
00000000
00010000
00000000
00001000
00000000
00000010
00000000
00000100
00000000
00001000
00000000
00000010
00000000
00000100
00000000
00000001
00001000
00000001
00000000
00000010
00000000
00001000
00000000
00000010
00000000
00000100
00000000
00010000
00000000
,
00001000
00100000
00010000
01000000
00100000
10000000
00010000
00100000
00202000
00000000
00003000
00000000
00300010
00000000
00000000
00000000
,
00000210
00001300
01002000
00103000
,
01200000
00000000
00001000
00000000
00300020
00000000
00000130
00000001
,
00000021
00000000
00000000
00000000
00001030
00000000
00000000
00000000
00102000
00000000
00000000
10000000
00000000
00000000
01003000
00000000
,
02010000
00000000
00100000
00000000
23000000
00000000
31000000
00010000
,
00200000
00000000
01300000
00020000
00000100
00000000
00030020
00000000
,
00000032
00000023
00020030
00032000
,
00103000
01000000
10000000
00010000
00010000
00100000
00001000
00010000
00010000
00000100
00000010
00000001
,
00001000
00000000
00000000
00000000
00000000
00000000
00000010
00001000
00000001
00001000
00000010
00010000
00000100
00010000
00001000
00100000
00010000
00100000
01000000
10000000
00010000
01000000
00001000
00010000
,
00001000
00100000
00001000
00010000
00010000
00000100
00001000
00000010
00000100
00000001
00000010
00000100
00010000
00001000
00010000
00010000
,
00000010
00001000
00000010
00000100
00000100
00000001
00001000
00000100
00010000
00001000
00100000
00010000
01000000
00100000
10000000
10000000
,
01000000
00010000
01000000
00100000
00100000
00010000
01000000
00001000
00010000
00000010
00000100
00001000
00000100
00000010
00001000
00001000
,
00000001
00000010
00000100
00001000
00001000
00000010
00000100
00001000
00000100
00000010
00010000
00001000
00100000
01000000
10000000
10000000
,
00100000
01000000
00010000
00100000
00100000
01000000
00010000
01000000
00100000
00001000
00010000
00000010
00001000
00000001
00000010
00000010
,
00000100
00001000
00000010
00010000
00010000
00001000
00100000
00010000
01000000
00100000
00010000
00100000
01000000
00010000
10000000
10000000
,
01000000
00100000
00010000
01000000
01000000
00001000
00010000
00000010
00000010
00000100
00000001
00000010
,
00000001
00000000
00000000
00000000
00000000
00000000
00000010
00000100
00001000
00000100
00010000
00001000
00010000
00000100
00010000
00001000
01000000
00010000
02000000
00000000
00000000
03000000
00000000
00000000
,
00100000
00000000
00000000
00000000
00010000
00000000
00000000
00000000
00001000
00000000
00000000
00000000
00000020
00000000
00000000
00000000
00000000
00000000
00000130
00000000
00001000
00000000
00000001
00000000
00000100
00000000
00000000
00000000
00001000
00000000
00000000
00000000
00010000
00000000
00000000
00000000
02000000
00000000
00000000
03000000
00000000
00000000
02000000
00000000
00000000
03000000
00000000
00000000
,
00200000
00000000
00000000
00310000
01000000
00001000
00020000
00000000
00000000
00030100
00001000
00000010
00000200
00000000
00000000
00000000
00000000
00000000
00000310
00000100
00000010
00001000
00000010
00010000
,
00000020
00000000
00000030
00100010
00000000
00000000
00100000
00000000
00000200
00000000
00000300
01000100
00000000
00000000
01000000
00000000
,
00020000
00000000
00000000
00000000
00000000
00000000
00000000
00000000
10030000
00000000
00000000
10000000
00000000
00000000
10000000
00000000
02000000
00000000
00000000
00000000
00000000
00000000
00000000
00000000
03100000
00010000
00100000
00000000
00001000
00000000
00010000
00000000
,
00001000
00000000
00000000
00000000
00000010
00000000
00000000
00000000
00000100
00000000
00000000
00000000
00001000
00000000
00000000
00000000
00000000
00000000
00000010
00000000
00010000
00000000
00001000
00000000
00010000
00000000
00000000
00000000
00100000
00000000
00000000
00000000
01000000
00000000
00000000
00000000
00020000
00000000
00000000
00030000
00000000
00000000
00020000
00000000
00000000
00030000
00000000
00000000
,
20000000
00000000
00000000
30010000
01000000
00001000
00020000
00000000
00000000
00030100
00001000
00000001
00000020
00000000
00000000
00000000
00000000
00000000
00000130
00000010
00000100
00001000
00000100
00010000
,
00000200
00000000
00000300
01000100
00000000
00000000
01000000
00000000
00000020
00000000
00000030
00100000
00002000
00000000
00000000
00000000
,
02003000
00000000
00000000
00000000
00000000
00000000
00000000
00000000
03010000
00000000
00000000
01000000
00000000
00000000
00001000
00000000
00011000
00000000
00000000
00010100
00000000
00000000
00001100
00000000
00000000
00000000
00000000
00000000
00000000
00000000
00000000
00000000
,
00001001
00000000
00000000
00000001
00000100
00000001
00000100
00000001
00000100
00002000
00000000
00000000
00013000
00001000
00010000
00001000
00010000
00001000
00000020
00000000
00000000
00002030
00000000
00000000
,
00013000
00001000
00010000
00001000
00010000
00001000
02000000
00000000
00000000
03100000
00010000
00100000
00010000
00100000
00010000
00002000
00000000
00000000
00000000
00000000
00000000
00003010
00000000
00000000
,
00000001
00000000
00000000
00000100
00001000
00000100
00001000
00000100
00001000
00020000
00000000
00000000
01030000
00010000
01000000
00010000
01000000
00010000
00001000
00000000
00000000
00200020
00000000
00000000
,
00000000
00000000
00000000
00000000
00000000
00000000
00000000
00300030
,
00011000
00000000
00010000
00001000
01000000
00000000
00100000
01000000
00010000
00000000
00100000
01000000
10000000
00000000
00100000
01000000
,
00010000
00000000
00100000
00001000
00010000
00000000
00000100
00001000
00000010
00000000
00000100
00000001
00001000
00000000
00000100
00000010
,
00000001
00000000
00001000
00000010
00010000
00000000
00001000
01000000
00010000
00000000
10000000
01000000
00100000
00000000
00010000
01000000
,
00001000
00000000
00100000
00001000
00010000
00000000
00000100
00001000
00000010
00000000
00000100
00000001
00001000
00000000
00000100
00010000
,
00001000
00000000
01000000
00000000
00100000
01000000
00000000
00010000
00100000
01000000
10000000
00000000
00100000
01000000
00000000
00010000
,
00100000
00001000
00010000
00000000
00000010
00000100
00000000
00000010
00001000
00000001
00000010
00000000
00000100
00010000
00000000
00001000
,
01000000
00010000
00100000
00000000
01000000
10000000
00000000
00100000
01000000
00010000
00100000
00000000
00001000
00010000
00000000
00000010
,
00001000
00000000
00000100
00000000
00000010
00000001
00000000
00000100
00001000
00000100
00000010
00010000
00000000
00001000
00000000
00100000
,
01000000
00000000
10000000
00000000
00100000
01000000
00000000
00100000
00010000
00100000
01000000
00000000
00010000
00100000
00000000
00001000
,
00010000
00000100
00000010
00000000
00000100
00001000
00000000
00000010
00000002
00000000
00000013
00001000
00000100
00000010
00001000
00000010
,
00000100
00010000
00001000
00000000
00100000
01000000
00000000
10000000
00100000
00010000
00100000
00000000
01000000
00001000
00000000
00100000
,
00001000
00010000
00001000
00000000
00000010
00000100
00000000
00001000
00000001
00000100
00000020
00000000
00000030
00010000
00000000
00001000
,
01000000
00010000
00100000
00010000
01000000
00100000
10000000
00100000
01000000
00010000
00100000
01000000
10000000
01000000
00100000
00001000
,
00010000
00001000
01000000
00001000
00100000
00010000
00100000
00001000
00010000
00000010
00000100
00000001
00000010
00000100
00000010
00001000
,
00000010
00000100
00001000
00000010
00000100
00001000
00000100
00000010
00010000
00001000
00100000
00010000
10000000
00100000
01000000
00010000
,
10000000
00000000
00001000
00010000
00000000
00000001
00001000
00000010
00000100
00000001
00000020
00000000
00000030
00000100
00000000
01000000
,
0010MMMM
00000000
10000000
00000000
00000000
00000000
00000000
00000000
01000000
00000000
00000000
01000000
00000000
00000000
01000000
00000000
00000000
00000000
00100000
00000000
00000000
00100000
00000000
00000000
00100000
00000000
00100000
00000000
00000000
00001000
00000000
00010000
,
00000000
00000000
00000010
00000000
00000000
00000000
00000000
00000000
00000100
00000000
00000000
00000001
00000000
00000000
00000010
00000000
00000000
00000000
00000100
00000000
00000000
00000100
00000000
00000000
00000100
00000000
00000100
00000000
00000000
00010000
00000000
00001000
,
00000000
00000000
00100000
00000000
00000000
00000000
00000000
00000000
01000000
00000000
00000000
01000000
00000000
00000000
10000000
00000000
00000000
00000000
00100000
00000000
00000000
00010000
00000000
00000000
00001000
00000000
00001000
00000000
00000000
00000010
00000000
00000010
,
00000000
00000000
00000001
00000000
00000000
00000000
00000000
00000000
00000100
00000000
00000000
00000100
00000000
00000000
00000100
00000000
00000000
00000010
00001000
00000100
00010000
00001000
00100000
00010000
01000000
00000000
01000000
00000000
00000000
00100000
00000000
10000000
,
0001MMMM
00100000
01000000
00100000
00010000
01000000
00001000
00010000
00001000
00100000
00001000
00010000
00000100
00001000
00000010
00000100
,
00000001
00001000
00000001
00001000
00000001
00000000
00001000
00000000
00000100
00000000
00010000
00000000
00001000
00000000
00100000
00000000
00010000
00000000
01000000
00000000
10000000
00000000
01000000
00000000
00100000
00000000
10000000
00000000
01000000
00000000
00100000
00000000
,
00010000
00000000
00100000
00000000
00001000
00010000
00001000
00010000
00000000
00001000
00000000
00000000
00010000
00000100
00010000
00000100
00000000
00010000
00000000
00000100
00000000
00000000
00001000
00000000
00000100
00000000
00000010
00000000
00000001
00000000
00000010
00000000
,
00000100
00001000
00000010
00000100
00001000
00000100
00000010
00010000
00001000
00100000
00010000
01000000
10000000
01000000
00010000
00100000
,
01000000
00010000
01000000
00100000
00010000
01000000
00001000
00010000
00001000
00000100
00000010
00001000
00000010
00000100
00000001
00001000
,
00000100
00010000
00000100
00010000
00000100
00000000
00010000
00000000
00001000
00000000
01000000
00000000
00010000
00000000
00100000
00000000
00010000
00000000
10000000
00000000
01000000
10000000
01000000
10000000
01000000
00000000
00100000
00000000
00010000
00000000
01000000
00000000
,
00001000
00010000
00001000
00010000
00001000
00000000
00010000
00000000
00000100
00000000
00001000
00000000
00000100
00000000
00000010
00000000
00000001
00000000
00001000
00000000
00000100
00000000
00010000
00000000
00000010
00000000
00010000
00000000
00001000
00010000
00001000
00010000
,
00002000
00000000
00000000
00000000
00000000
00000000
00000000
00003000
,
10001000
00000000
00000000
00000000
;

//---------------dance-double - R. Uchima----------------
#NOTES:
     dance-double:
     R. Uchima:
     Hard:
     9:
     0.640,0.000,0.456,0.630,0.446:
00000000
00000000
00000000
00000000
,
00000000
00000000
00000000
00000000
,
00000000
00000000
00000000
00000000
,
00000000
00000000
00000000
00000000
,
00000000
00000000
00000000
00000000
,
00000000
00000000
00000000
00100100
,
00011000
00000000
00001000
01000000
00001000
00000000
01000000
00010000
01000000
00000000
00100000
00000000
20010000
00000000
00000000
00000000
,
31000000
00000000
00000000
00000000
00000000
00000000
00100000
00000000
00000000
00010000
00000000
00000000
00100000
00000000
00000000
00000000
00000000
00000000
00001000
00000000
00000000
00010000
00000000
00000000
00001000
00000000
00000000
00000000
00000000
00000000
00020000
00000000
00000000
00000000
00000000
00000000
00030100
00000000
00000000
00000000
00010000
00000000
00000000
00000000
00000100
00000000
00000000
00000000
,
00010000
00000000
00000100
00001000
00000100
00000000
00001000
00000010
00001000
00000000
00000001
00000000
00000021
00000000
00000000
00000000
,
00000130
00000000
00001000
00000100
00001000
00000000
00000100
00000000
00020200
00000000
00000000
00030300
02002000
00000000
00000000
03003000
,
01010000
00000000
00010000
10000000
00010000
00000000
10000000
01000000
20000000
00000000
00010000
00000000
00000000
30001000
00000000
00000000
,
01000000
00000000
00000000
00000000
00000000
00000000
00010000
00000000
00000000
01000000
00000000
00000000
00010000
00000000
00000000
00000000
00000000
00000000
01000000
00000000
00000000
00001000
00000000
00000000
01000000
00000000
00000000
00000000
00000000
00000000
00002000
00000000
00000000
00000000
00000000
00000000
00103000
00000000
00000000
00000000
00001000
00000000
00000000
00000000
00100000
00000000
00000000
00000000
,
00001000
00010000
00011000
00000000
00000100
00000000
00002010
00000000
,
00003100
00010000
00012000
10003000
,
20020000
00000000
30030000
M00M0000
00202000
00000000
00303000
00M0M000
,
00020200
00000000
00000000
00030300
00020200
00000000
00000000
00030300
00020200
00000000
00000000
00030300
00000100
00000000
00001000
00000000
,
00002020
00000000
00000000
00000000
00003030
00000000
0000M0M0
00000000
00020100
00000000
00000000
00032000
00000000
00000000
00013000
00000000
,
00022000
00000000
00000000
00033000
00022000
00000000
00000000
00033000
00022000
00000000
00000000
00033000
00001000
00000000
01000000
00000000
,
02010000
00000000
00000000
00000000
03000000
00000000
00020000
00000000
00000000
00000000
00000000
00000000
20030000
00000000
00000000
30000000
,
22000000
00000000
00000000
33000000
00202000
00000000
00000000
00303000
00020020
00000000
00000000
00030030
00000202
00000000
00000000
00000303
,
00002001
00000000
00000000
00000000
00000010
00000000
00000000
00000000
00000001
00000000
00000000
00000001
00000000
00000000
00000001
00000000
,
00003010
00000000
00000000
00000000
00002002
00000000
00000000
00003003
00002002
00000000
00000000
00003003
00000001
00000000
00000100
00000000
,
00000220
00000000
00000330
00000MM0
00022000
00000000
00033000
000MM000
,
02200000
00000000
00000000
03300000
02200000
00000000
00000000
03300000
01100000
00000000
20000000
00000000
00000000
00000000
30200000
00000000
,
00000000
10300000
01000000
00010000
00001000
00010000
00000010
00000100
,
00000220
00000000
00000000
00000330
00002002
00000000
00000000
00003003
00020200
00000000
00000000
00030300
00010000
00000000
00001000
00000000
,
00000010
00001000
00010000
00000010
00002000
00000000
00003000
00000200
,
00000000
00010300
00001000
00010000
00100000
01000000
00010000
00100000
,
02000000
00000000
00000000
00000000
10000000
00000000
00000000
00000000
10000000
00000000
00000000
10000000
00000000
00000000
10000000
00000000
,
03100000
00000000
00020000
00000000
02000000
00000000
00100000
03030000
,
00010000
00000000
01000000
00000000
00010000
00000000
01000000
00000000
00000000
00001000
00000000
00000000
00010000
00000000
00000100
00000000
00010000
00000000
00000100
00000000
00000000
0000M100
00000000
00000000
,
00000001
00000010
00000001
00000100
00002000
00000000
00013000
00001000
,
01001000
00000000
00000000
01010000
00000000
00000000
00010000
00000000
00110000
00000000
00000000
10010000
00000000
00000000
10000000
00000000
,
00200000
00000000
00000000
00000000
00000000
00000000
00000000
00000000
01300000
00000000
00000000
00010000
00000000
00000000
01000000
00000000
00002000
00000000
00000000
00000000
00000000
00000000
00000000
00000000
00023000
00000000
00000000
00000000
00000000
00000000
00000000
00000000
,
00030010
00000000
00001000
00000000
00000010
00000000
00001000
00000000
00000000
00000100
00000000
00000000
00010000
00000000
00001000
00000000
00010000
00000000
00001000
00000000
00000000
000M1000
00000000
00000000
,
00000100
00000010
00001000
00000010
00000200
00000000
00010300
00001000
,
00011000
00000000
00000000
01001000
00000000
00000000
01000000
00000000
01010000
00000000
00000000
00101000
00000000
00000000
00000000
00000000
,
00002000
00000000
00000000
00000000
00000000
00000000
00000000
00000000
00013000
00000000
00000000
00000100
00000000
00000000
00010000
00000000
00000010
00000000
00000000
00000010
00000000
00000000
00000010
00000000
00000000
00000000
00000000
00000000
00000000
00000000
00000000
00000000
,
00000110
00000100
00000010
00010010
00010000
00001000
00110000
01001000
,
00001000
01000000
01010000
00010000
00100000
10010000
00000000
00000000
,
00101000
00100000
00000010
00100010
00100000
00000100
00011000
02000200
,
00000000
00000000
00000000
00000000
00000000
00000000
00000000
03000300
,
01000100
01000000
00001000
00100000
00010000
00100000
01000000
10000000
,
00010000
01000000
00010000
01000000
00001000
00010000
00000100
00001000
,
00000100
00000010
00000001
00001000
00000010
00000100
00000010
00001000
,
00000100
00010000
00001000
01000000
00100000
01000000
00010000
10000000
,
11000000
00000000
01000000
00000000
00100000
00010000
00000000
00100000
00010000
00000000
01000000
00000000
00001000
00010000
00000000
00001000
,
00010000
00000000
00000100
00000000
00000010
00000001
00000000
00000010
00000001
00000000
00001000
00000000
00000010
00000100
00000000
00000010
,
00000100
00000000
00000010
00000000
00010000
00001000
00000000
00010000
00001000
00000000
00100000
00000000
00010000
00100000
00000000
00020000
,
20000000
00000000
00000000
00000000
00000000
00000000
00000000
30030000
,
10010000
00000000
00010000
00000000
01000000
00001000
00000000
00010000
00001000
00000000
00010000
00000000
00000010
00001000
00000000
00000010
,
00000100
00000000
00000001
00000000
00000010
00000100
00000000
00001000
00000100
00000000
00010000
00000000
00001000
00000000
00010000
00000000
,
00100000
00000000
01000000
00000000
00010000
10000000
00000000
00010000
00100000
00000000
01000000
00000000
10000000
01000000
00000000
00100000
,
00010000
00000000
01000000
00000000
00001000
00010000
00000000
00000100
00001000
00000000
00000010
00000000
00000100
00000000
00001000
00000000
,
00010000
00000000
00000100
00000000
00001000
00000100
00000000
00000010
00000100
00000000
00001000
00000000
00000100
00010000
00000000
00001000
,
00010000
00000000
00001000
00000000
01000000
00010000
00000000
01000000
00100000
00000000
10000000
00000000
01000000
00000000
00010000
00000000
,
00001000
00000000
01000000
00000000
00010000
01000000
00000000
00001000
00010000
00000000
00000100
00000000
00001000
00000100
00000000
00000010
,
00000001
00000000
00001000
00000001
00000000
00010000
00001000
00000000
10001000
00000000
00000000
00000000
01001000
00000000
00000000
00000000
,
00010200
00000000
00001000
00000000
00000000
00000000
00000000
00000000
00000010
00000000
00000000
00000010
00000000
00000000
00000020
00000000
00000300
00000000
00000001
00000000
00000000
00000001
00000000
00000000
00000001
00000000
00000001
00000000
00000000
00000100
00000000
00000200
,
00000030
00000000
00000010
00000000
00000000
00000000
00000000
00000000
00001000
00000000
00000000
00001000
00000000
00000000
00020000
00000000
00000300
00000000
00000100
00000000
00000000
00000100
00000000
00000000
00000100
00000000
00000100
00000000
00000000
00001000
00000000
00002000
,
00030000
00000000
01000000
00000000
00000000
00000000
00000000
00000000
00010000
00000000
00000000
00010000
00000000
00000000
00200000
00000000
00003000
00000000
00010000
00000000
00000000
01000000
00000000
00000000
00001000
00000000
00001000
00000000
00000000
00010000
00000000
00020000
,
00300000
00000000
01000000
00000000
00000000
00000000
00000000
00000000
10000000
00000000
00000000
10000000
00000000
00000000
10000000
00000000
00030000
00000000
00010000
00000000
10000000
00000000
01000000
00000000
00010000
00000000
00001000
00000000
00000000
01000000
00000000
00010000
,
10000000
00000000
01000000
00000000
00100000
00000000
01000000
00000000
10000000
00000000
00010000
01000000
00000000
00001000
00010000
00000000
,
00000100
00001000
00000100
00000000
00000010
00000001
00000000
00001000
00000010
00000000
00000100
00000000
00000001
00000000
00000010
00000000
,
00000100
00000000
00010000
00001000
00010000
00000000
00000010
00001000
00000010
00000000
00000100
00000001
00000000
00001000
00000100
00000000
,
00010000
00000000
00001000
00000000
01000000
00001000
00000000
01000000
00010000
00000000
00100000
00000000
01000000
00000000
00100000
00000000
,
01100000
00000000
01000000
10000000
00000000
01000000
00100000
00000000
00010000
00000000
00100000
00000000
00001000
00000000
00010000
00000000
,
00001000
00010000
00000100
00000000
00001000
00000010
00000000
00000100
00000010
00000000
00001000
00000000
00000100
00000000
00000010
00000000
,
00000011
00000000
00000001
00000000
00000100
00000000
00001000
00000000
00010000
00000000
00001000
00100000
00000000
00010000
00100000
00000000
,
02200000
00000000
00000000
00000000
,
00001000
03300000
00000000
00000000
;

//---------------dance-double - WinDEU----------------
#NOTES:
     dance-double:
     WinDEU:
     Easy:
     15:
     0.982,0.000,0.333,0.630,1.000:
00000000
00000000
00000000
00000000
,
00000000
00000000
00000000
00000000
,
00000000
00000000
00000000
00000000
,
00010000
00001000
00100000
00000100
01000000
00000010
20000000
00000002
00000000
00000000
30000003
00000000
00000001
10000000
00000100
00100000
,
00000010
01000000
00002000
00020000
00000000
00000000
00033000
00000000
00010000
00001000
01000000
00000010
00100000
00000100
20000000
00000002
,
00000000
00000000
30000003
00000000
10000000
00000001
01000000
00000010
00100000
00000100
00010000
00001000
00022000
00000000
00033000
00000000
,
00011000
00000000
00001000
00000000
01000000
00010000
00000000
01000000
00001000
00000000
00000000
00000000
02000002
00000000
03000003
00000000
,
00000001
00000000
00000000
00000000
00000000
00000000
00000100
00000000
00000000
00000000
00000000
00000000
00000001
00000000
00000000
00001000
00000000
00000000
00000000
00000000
00000000
00000100
00000000
00000000
00001000
00000000
00000000
00000000
00000000
00000000
00000002
00000000
00000000
00000000
00000000
00000000
00001000
00000000
00000000
00000000
00010000
00000000
00000000
00000000
20000003
00000000
00000000
00000000
,
30010000
00000000
01000000
00000000
00001000
00010000
00000000
00000100
00001000
00000000
00000000
00000000
20000200
00000000
30000300
00000000
,
10000000
00000000
00010000
00000000
01000000
00001000
00000000
01000000
02000200
00000000
03000300
00000000
20000002
00000000
30000003
00000000
,
10000000
00001000
01000000
00000100
10000000
00001000
01000000
00000100
00010000
00000001
01000000
00000100
00010000
00000001
01000000
00000100
,
00010000
00000001
00100000
00000010
00010000
00000001
00100000
00000010
10000000
00001000
00100000
00000010
10000000
00001000
00100000
00000010
,
10000000
00000000
00001000
00000000
01000000
00000000
00000100
00000000
00100000
00000000
00000010
00000000
00010000
00000000
00000001
00000000
00100000
00000000
00000010
00100000
00000010
00000000
00010000
00000000
00001000
00000000
00010000
00000000
00001000
00000000
00010000
00000000
,
00000000
00001000
00010000
00001000
01000000
00000100
01000000
00000100
02000200
00000000
00000000
00000000
00200020
00000000
03000300
00000000
,
00022000
00300030
00000000
00000000
20200000
00033000
00000000
00000000
,
02020000
30300000
00200020
03030000
00022000
00300030
00000001
00000010
,
00000022
00000000
00033000
00000000
00000000
00000000
00000000
00000000
00000233
00000000
00000000
02000000
00000000
00000000
20000000
00000000
,
03200300
00000000
00000202
30300000
00002323
00000000
01000000
00003130
,
02000200
00000000
00M000M0
00022000
00000000
00000000
00100010
03033300
,
01000100
00100010
00010001
01000100
,
10000000
01000000
10000000
00010000
M0010000
00001000
10000000
00010000
M0010000
00001000
00000010
00000001
,
00020000
00000000
00000000
00030000
00000000
00000000
00000001
00010000
00000100
01000000
00001000
10000000
00000010
00100000
00000001
00010000
00000100
01000000
00001000
10000000
00000010
00100000
00000001
00010000
,
00000100
00001000
00000010
00000100
00000001
00000010
00001000
00010000
00100000
10000000
01000000
00010000
00001000
00000100
00000001
00000001
,
00000100
00001000
00010000
01000000
10000000
00100000
00010000
00001000
00000010
00000001
00000100
00001000
00010000
01000000
10000000
10000000
,
01000000
00010000
00001000
00000100
00000001
00000010
00001000
00010000
00100000
10000000
01000000
00010000
00001000
00000100
00000001
00000001
,
00000100
00001000
00010000
01000000
10000000
00100000
00010000
00001000
00000010
00000001
00000100
00001000
00010000
01000000
10000000
10000000
,
01000000
00010000
00001000
00000100
00000001
00000010
00001000
00010000
00100000
10000000
01000000
00010000
00001000
00000100
00000001
00000001
,
00000100
00001000
00010000
01000000
10000000
00100000
00010000
00001000
00000010
00000001
00000100
00001000
00010000
01000000
10000000
10000000
,
01000000
00010000
00001000
00010000
0001M000
10000000
00001000
00010000
0001M000
10000000
00001000
00010000
,
00000002
00000000
00000000
00000003
00000000
00000000
00010000
00000001
01000000
00000100
10000000
00001000
00100000
00000010
00010000
00000001
01000000
00000100
20000000
00000000
00000000
00000000
00000000
00000000
,
30010000
00000000
01000000
00000000
00000100
00000000
10000100
00000000
00000000
10000000
00000001
10000000
00000001
00000000
00100000
00000000
00000200
00000000
00000010
00000000
00000000
20000300
00000000
00000000
,
30200000
00000000
00000000
01300000
00001000
01000000
00000200
00000000
00000000
10000300
00000001
10000000
00000002
00000000
00000000
00000000
00000000
00000000
00001003
00000001
00010000
00000001
10000000
00001000
,
20000000
00000000
30000000
11000000
00000000
00000000
10000000
00000000
00000020
00000000
00000030
00001010
00000000
00000000
00000010
00000000
,
00200000
00000000
00000000
00000000
00000000
00000000
00000000
00000000
00301000
00000000
00000000
00010000
00000000
00000000
00001000
00000000
00022000
00000000
00000000
00000000
00033000
00000000
00000000
00000000
20000002
00000000
00000000
00000000
30000003
00000000
00000000
00000000
,
00001000
00000000
00000100
00000000
01000000
00000000
01000001
00000000
00000000
00000001
10000000
00000001
10000000
00000000
00000010
00000000
02000000
00000000
00100000
00000000
00000000
03000002
00000000
00000000
,
00000023
00000000
00000000
00000130
00010000
00000100
02000000
00000000
00000000
03000001
10000000
00000001
20000000
00000000
00000000
00000000
00000000
00000000
30010000
10000000
00001000
10000000
00000001
00010000
,
00000002
00000000
00000003
00000101
00000000
00000000
00000001
00000000
00200000
00000000
00300000
00110000
00000000
00000000
00000000
00000000
,
00022000
00000000
00000000
00000000
00033000
00000000
00000000
00000000
00010000
00000000
00000000
00000010
00000000
00000000
00100000
00000000
00100010
00000000
00000000
01000100
00000000
00000000
20000002
00000000
30000003
00000000
00000000
00000000
00000000
00000000
00000000
00000000
,
00011000
00000000
00000000
00010000
00001000
00100000
00001000
01000000
00001000
20000000
00000000
00000000
30001000
01000000
00001000
00100000
00001000
00010000
00002000
00000000
00000000
00023000
00000000
00000000
,
00031000
00010000
00000100
00010000
00000010
00010000
00000002
00000000
00000000
00010003
00000010
00010000
00000100
00010000
00001000
00020000
00000000
00000000
00000000
00000000
00000000
00031000
00000000
00000000
,
00011000
00000000
00000000
00100000
00000100
00100000
00000100
00100000
00000100
00200000
00000000
00000000
00300010
01000000
00000010
01000000
00000010
01000000
00000010
00000000
00000000
20000002
00000000
00000000
,
00000000
00000000
00000000
00000000
00000000
00000000
00000000
30000003
,
00011000
00000000
00010000
01000000
10000000
00000000
00001000
00000100
00000001
00000000
00010000
01000000
10000000
00000000
00001000
00000100
,
00000001
00000000
00010000
00100000
10000000
00000000
00001000
00000010
00000001
00000000
00010000
00100000
10000000
00000000
00001000
00000010
,
00000001
00000000
00010000
00100000
10000000
00000000
00001000
00000100
00000001
00000000
00010000
00100000
10000000
00000000
00001000
00000100
,
00000001
00000000
00010000
01000000
10000000
00000000
00001000
00000010
00000001
00000000
00010000
01000000
10000000
00000000
00001000
00000010
,
00000002
00000000
00020003
00000000
00031000
10000000
00000000
00001000
00100000
00000100
00001000
00000000
00000010
00000100
00000000
00000001
,
00010000
00001000
00100000
00000000
00010000
10000000
00000000
00001000
00100000
00000100
00001000
00000000
00000010
00000100
00000000
00000010
,
00010000
00001000
01000000
00000000
00100000
10000000
00000000
00001000
00100000
00000001
00000010
00000000
00000100
00010000
00000000
00001000
,
01000000
00000000
00010000
00000000
01000000
00000100
00000000
01000000
00000100
00020000
00002000
00000000
00033000
10000001
00000000
00000001
,
00010000
00001000
00100000
00010000
01000000
00100000
10000000
00010000
00100000
01000000
00100000
00010000
00100000
00001000
00010000
00000100
,
00001000
00000010
00000100
00000001
00000010
00000100
00001000
00000010
00010000
00001000
01000000
00010000
10000000
00100000
01000000
00010000
,
10000000
01000000
00100000
00010000
01000000
00001000
00010000
00000100
00001000
00000100
00010000
00001000
00100000
00001000
00010000
00000010
,
00001000
00000010
00000100
00000001
00000010
00000100
00000010
00000001
00001000
00000010
00010000
00001000
00100000
00010000
01000000
00100000
,
10000000
01000000
00100000
00010000
00001000
00000100
00000010
00000001
10000000
01000000
00100000
00010000
00001000
00000100
00000010
00000001
,
10000000
01000000
00100000
00010000
00001000
00000100
00000010
00000001
10000000
01000000
00100000
00010000
00001000
00000100
00000010
00000001
,
10000000
01000000
00100000
00010000
00001000
00000100
00000010
00000001
10000000
01000000
00100000
00010000
00001000
00000100
00000010
00000001
,
00001001
00000000
00001001
00010001
00000000
00010001
00011000
00001000
01000000
00100000
10000000
00010000
00100000
00001000
00010000
00000001
,
20MMMMM0
00000000
01000000
00000000
00000000
00000000
00000000
00000000
30000001
00000000
00000000
00000001
00000000
00000000
00000001
00000000
00000000
00000000
00001000
00000000
00000000
00001000
00000000
00000000
00001000
00000000
00001000
00000000
00000000
00000100
00000000
00010000
,
00000000
00000000
00001000
00000000
00000000
00000000
00000000
00000000
00001000
00000000
00000000
00100000
00000000
00000000
01000000
00000000
00000000
00000000
10000000
00000000
00000000
10000000
00000000
00000000
10000000
00000000
10000000
00000000
00000000
00100000
00000000
01000000
,
00000000
00000000
00001000
00000000
00000000
00000000
00000000
00000000
00010000
00000000
00000000
00010000
00000000
00000000
00000100
00000000
00000000
00000000
00000010
00000000
00000000
00000001
00000000
00000000
00000100
00000000
00000100
00000000
00000000
00000010
00000000
00000010
,
00000000
00000000
00010000
00000000
00000000
00000000
00000000
00000000
00010000
00000000
00000000
00010000
00000000
00000000
00010000
00000000
00000000
00001000
00010000
00000100
00100000
00000010
01000000
00000001
10000000
00000000
00000001
00000000
00000000
00000010
00000000
00000010
,
00000001
00000010
00000100
00001000
00010000
00100000
01000000
10000000
00000001
00000010
00000100
00001000
00010000
00100000
01000000
10000000
,
01000000
10000000
01000000
10000000
01000000
00000000
10000000
00000000
00010000
00000000
00100000
00000000
01000000
00000000
10000000
00000000
00000001
00000000
00000010
00000000
00000100
00000000
00001000
00000000
00010000
00000000
00100000
00000000
01000000
00000000
10000000
00000000
,
00000001
00000000
00000010
00000000
00000100
00001000
00000100
00001000
00000000
00000100
00000000
00000000
00010000
00001000
00010000
00001000
00000000
00010000
00000000
00001000
00000000
00000000
00100000
00000000
01000000
00000000
10000000
00000000
01000000
00000000
10000000
00000000
,
00000001
00000010
00000100
00001000
00010000
00100000
01000000
10000000
00000001
00000010
00000100
00001000
00010000
00100000
01000000
10000000
,
00100000
01000000
00010000
00001000
00000010
00000100
00000001
10000000
00100000
01000000
00010000
00001000
00000010
00000100
00000001
00001000
,
00000001
00000100
00000001
00000100
00000001
00000000
00001000
00000000
00000010
00000000
00000100
00000000
00000001
00000000
10000000
00000000
00100000
00000000
01000000
00000000
00010000
01000000
00010000
01000000
00010000
00000000
10000000
00000000
00100000
00000000
01000000
00000000
,
00010000
01000000
00010000
01000000
00010000
00000000
01000000
00000000
010M0000
00000000
10000000
00000000
00010000
00000000
01000000
00000000
00001000
00000000
00010000
00000000
0001M000
00000000
01000000
00000000
00000100
00000000
01000000
00000000
00000100
01000000
00000100
02000000
,
00000200
00000000
00000000
00000000
,
10100011
03000300
00000000
00000000
;

//---------------dance-double - R. Uchima----------------
#NOTES:
     dance-double:
     R. Uchima:
     Medium:
     6:
     0.370,0.000,0.268,0.181,0.004:
00000000
00000000
00000000
00000000
,
00000000
00000000
00000000
00000000
,
00000000
00000000
00000000
00000000
,
00000000
00000000
00000000
00000000
,
00000000
00000000
00000000
00000000
,
00000000
00000000
00000000
00011000
,
00001000
00100000
00010000
00100000
00001000
00000000
00011000
00000000
,
00010000
00000100
00001000
00000100
00010000
00000000
00001000
00000000
,
01000000
00010000
01000000
00100000
10000000
00000000
11000000
00000000
,
01000000
00100000
00010000
00100000
01000000
00000000
00110000
00000000
,
00100000
00001000
00010000
00001000
01000000
00000000
01010000
00000000
,
00010000
01000000
00001000
00010000
00000100
00000000
00001000
00000000
,
00000010
00000100
00000001
00000100
00000010
00000000
00001010
00000000
,
00001000
00000100
00010000
00000100
00001000
00000000
00010100
00000000
,
00011000
00000000
01001000
00000000
,
02100000
00000000
00100000
00000000
00100000
00000000
03100000
10000000
,
00010000
00000000
00000000
00000000
00000000
00000000
00000000
00000000
00101000
00000000
00000000
00100000
00000000
00000000
00001000
00000000
,
00020000
00000000
00000100
00000000
00000100
00000000
00030100
00001000
,
00000001
00000000
00000000
00000020
00000001
00000000
00000032
00000000
,
00000203
00000010
00000001
00000310
,
00002001
00000001
00000001
00000001
,
00000001
00000000
00000001
00000000
00000001
00000000
00003001
00001000
,
00000100
00000000
01001000
00000000
,
01020000
00000000
01000000
00000000
01030000
00002000
00000000
00203000
,
00000000
00301000
00010000
00000100
00001000
00000100
00010000
00000010
,
00002000
00000000
00000001
00000000
00000010
00000000
00003100
00000010
,
00000001
00000010
00000100
00001000
00000100
00000000
00000000
00020000
,
00000000
00031000
01000000
00010000
01000000
00100000
10000000
00010000
,
00200000
01000000
01000000
01000000
,
01300000
01000000
01000000
10010000
,
00010000
01000000
00010000
00000000
01000000
00010000
01000000
00000000
,
00001000
00001000
00001000
00010000
,
00000010
00000010
00000100
00000100
,
00000001
00000000
00001000
00000001
00001000
00000000
00001001
00000000
,
00000001
00000010
00000001
00000000
00000010
00000001
00000010
00000000
,
00000100
00000100
00000100
00010000
,
00001000
00001000
01000000
01000000
,
00100000
10000000
10010000
00000000
,
10010000
00000000
00000000
01001000
00000000
00000000
00011000
00011000
,
00000000
00000000
00001100
00000000
00000000
00000110
00000000
00000000
,
00000011
00000000
00000000
00001001
00000000
00000000
00001010
00002020
,
00000000
00000000
00000000
00000000
00000000
00000000
00000000
00003030
,
00001010
00001000
00000100
00010000
,
00001000
00100000
00010000
01000000
,
00100000
10000000
01000000
00100000
,
00010000
01000000
00001000
00010000
,
00010100
00000100
00000010
00000001
,
00000100
00000010
00001000
00000100
,
00010000
00001000
00100000
00001000
,
00022000
00000000
00000000
00033000
,
00010000
00001000
00010000
00000000
00000100
00001000
00000100
00000000
,
00010000
00001000
00010000
00000000
00001000
00000000
01000000
00000000
,
00100000
10000000
00100000
00000000
01000000
00100000
01000000
00000000
,
00100000
10000000
00100000
00000000
10000000
00000000
01000000
00000000
,
00100000
00010000
00100000
00000000
00001000
00010000
00001000
00000000
,
00100000
00010000
00100000
00000000
00001000
00000000
00010000
00000000
,
00000100
00001000
00000100
00000000
00000010
00000100
00000010
00000000
,
00001100
00010100
00011000
01001000
,
00210000
00000000
02300000
00000000
,
03020000
00000000
00032000
00000000
,
00003200
00000000
00000320
00000000
,
00020030
00000000
00000000
00000000
,
00031000
00010000
00001000
00000000
01000000
00010000
01000000
00000000
,
00100000
10000000
00100000
01000000
00100000
10000000
00010000
00000000
,
00100000
00001000
00100000
00001000
00100000
00000000
00001000
00000000
,
00010000
00000100
00001000
00000100
00010000
00001000
00010000
00000000
,
00000010
00001000
00000010
00000000
00000100
00000001
00000100
00000000
,
00000001
00000100
00000001
00001000
00000100
00001000
00000001
00000000
,
00000100
00000010
00000100
00000010
00001000
00000010
00010000
00000000
,
00022000
00000000
00000000
00000000
00000000
00000000
00000000
00033000
,
00011000
00000000
00000000
00000000
;

//---------------dance-single - WinDEU----------------
#NOTES:
     dance-single:
     WinDEU:
     Hard:
     9:
     0.558,0.000,0.210,0.333,0.420: // measure 1
0000
0000
0000
0000
,  // measure 2
0000
0000
0000
0000
,  // measure 3
0000
0000
0000
0000
,  // measure 4
0000
0000
0000
0000
,  // measure 5
0000
0000
0000
0000
,  // measure 6
0000
0000
0000
0000
,  // measure 7
1000
0000
1000
0000
0100
0010
0000
0100
0010
0000
0000
0000
0022
0000
0033
0000
,  // measure 8
0001
0000
0000
0000
0000
0000
0001
0000
0000
0000
0000
0000
0100
0000
0000
0010
0000
0000
0000
0000
0000
0100
0000
0000
0010
0000
0000
0000
0000
0000
2000
0000
0000
0000
0000
0000
3100
0000
0000
0000
1000
0000
0000
0000
0100
0000
0000
0000
,  // measure 9
0010
0000
0010
0000
0001
1000
0000
0001
1000
0000
0000
0000
2020
0000
3030
0000
,  // measure 10
0010
0000
0010
0000
0100
0001
0000
0100
0002
0000
0000
0000
0023
0000
0000
0000
,  // measure 11
0130
1000
0010
1000
0100
0010
0002
0000
,  // measure 12
0013
0000
0000
0100
0000
0000
1000
0000
0000
0100
0000
0000
0010
0000
0000
0002
0000
0000
0103
0000
0001
0000
0100
0000
,  // measure 13
0010
1000
0010
0100
0001
0010
0200
0000
,  // measure 14
1300
0010
0100
0001
0011
0000
1100
0000
,  // measure 15
2020
3030
0202
0303
,  // measure 16
0011
0000
1100
0000
0011
0000
0001
0100
,  // measure 17
0020
0000
0000
0000
0030
0000
0000
0000
2010
0000
0000
0001
0000
0000
3100
0000
,  // measure 18
1100
0000
0011
0000
1100
0000
1000
0010
,  // measure 19
0200
0000
0000
0302
0000
0000
0023
0000
,  // measure 20
0230
2300
3020
0230
,  // measure 21
0301
0010
0001
0010
0100
0010
0100
1000
0100
1000
0001
1000
,  // measure 22
0020
0100
0100
0130
,  // measure 23
0001
0000
0010
0000
0001
0000
0100
0000
0010
0000
1000
0000
0100
0010
0100
0000
,  // measure 24
1000
0000
0010
0000
0100
0000
0001
0000
0010
0000
0100
0000
1000
0001
1000
0000
,  // measure 25
0010
0000
0100
0000
0001
0000
0010
0000
0100
0000
1000
0000
0001
0100
0001
0000
,  // measure 26
0010
0000
0100
0000
0010
0000
0001
0000
0100
0000
0010
0000
1000
0001
1000
0000
,  // measure 27
0100
0000
0010
0000
0001
0000
1000
0000
0010
0000
0100
0000
0001
1000
0001
0000
,  // measure 28
0010
0000
0100
0000
1000
0000
0010
0000
1000
0000
0001
0000
0100
0010
0100
0000
,  // measure 29
0001
0010
0001
0010
0100
0010
0100
1000
0100
1000
0001
1000
,  // measure 30
0020
0100
0130
0110
,  // measure 31
0100
0000
0001
0000
0100
0000
0010
0000
0000
1000
0000
0000
0100
0000
0010
0000
0001
0000
0010
0000
0000
0100
0000
0000
,  // measure 32
1000
0001
1000
0001
2000
0000
3040
0000
,  // measure 33
0130
0000
0000
0101
0000
0000
0001
0000
1000
0000
0000
1100
0000
0000
0100
0000
,  // measure 34
0020
0000
0000
0000
0000
0000
0000
0000
0031
0000
0000
1000
0000
0000
0001
0000
0200
0000
0000
0000
0000
0000
0000
0000
0320
0000
0000
0000
0000
0000
0000
0000
,  // measure 35
1030
0000
0100
0000
0010
0000
0001
0000
0000
1000
0000
0000
0001
0000
0010
0000
0100
0000
1000
0000
0000
0010
0000
0000
,  // measure 36
0100
0001
0100
0001
0200
0000
0340
0000
,  // measure 37
1030
0000
0000
1001
0000
0000
0001
0000
0010
0000
0000
0110
0000
0000
0100
0000
,  // measure 38
2000
0000
0000
0000
0000
0000
0000
0000
3010
0000
0000
0100
0000
0000
0010
0000
1000
0000
0000
0001
0000
0000
1000
0000
0000
0000
0000
0000
0000
0000
0000
0000
,  // measure 39
1001
0001
0010
0110
0100
1000
1010
1010
,  // measure 40
0010
0100
0101
0001
0010
0110
0000
0000
,  // measure 41
1001
1000
0010
0110
0100
0001
0011
2002
,  // measure 42
0000
0000
0000
3003
,  // measure 43
1000
0100
0001
0100
1000
0010
0100
0010
,  // measure 44
1000
0001
0010
1000
0010
0001
0100
0010
,  // measure 45
1000
0001
0100
1000
0100
0010
1000
0001
,  // measure 46
0010
0100
0001
0100
0010
0001
1000
0010
,  // measure 47
0100
0000
0001
0000
0010
0100
0000
0100
1000
0000
0010
0000
0100
0001
0000
0001
,  // measure 48
0010
0000
0100
0000
1000
0010
0000
0010
0100
0000
0001
0000
1000
0100
0000
0100
,  // measure 49
0010
0000
0001
0000
0100
0010
0000
0010
1000
0000
0001
0000
0010
0100
0000
0100
,  // measure 50
1000
0000
0010
0000
0100
0000
0001
0000
0010
0000
0200
0000
0000
1300
0000
1000
,  // measure 51
0010
0000
0100
0000
0001
0010
0000
0100
0010
0000
0001
0000
0100
0010
0000
1000
,  // measure 52
0010
0000
0100
0000
0001
0010
0000
0100
2000
0000
3010
0000
0100
0000
0001
1000
,  // measure 53
0100
0000
0010
0000
0001
1000
0000
0010
0100
0000
0010
0000
1000
0100
0000
0010
,  // measure 54
0001
0000
0100
0000
0010
1000
0000
0001
0010
0000
0200
0000
0000
1300
0000
1000
,  // measure 55
0010
0000
0100
0000
0001
0010
0000
1000
0010
0000
0001
0000
0100
1000
0000
0100
,  // measure 56
0010
0000
1000
0000
0100
0010
0000
0001
0200
0000
0310
0000
0001
0000
0010
0100
,  // measure 57
0001
0000
1000
0000
0100
0010
0000
1000
0010
0000
0100
0000
1000
0010
0000
0100
,  // measure 58
0001
0000
0010
0000
0100
1000
0000
0001
0100
0000
0020
0000
0000
1030
0000
0001
,  // measure 59
0020
0000
0230
0000
,  // measure 60
2300
0000
3020
0000
,  // measure 61
0230
0000
0302
0000
,  // measure 62
2003
0000
0000
0000
,  // measure 63
3010
0000
1000
0000
0010
0000
0100
0000
0001
0000
0000
0001
0000
0000
0001
0000
,  // measure 64
0010
0000
0100
0000
0000
0100
0000
0000
0100
0000
1000
0000
0010
0100
0000
0000
,  // measure 65
0001
0000
0010
0100
0010
0000
0001
1000
0001
0000
0000
0100
0000
0000
0010
0000
,  // measure 66
1000
0000
0100
0000
0000
0010
0000
0000
0001
0000
0001
0000
0100
0010
0000
1000
,  // measure 67
0001
0000
1000
0100
0000
0010
0001
0000
0100
0000
0010
1000
0000
0010
0100
0000
,  // measure 68
0001
0010
0001
0000
1000
0100
0000
0010
0100
0000
1000
0000
0010
0100
0000
0001
,  // measure 69
0010
0000
0100
0000
1000
0000
0001
0000
0100
0000
0000
0100
0000
0000
0100
0000
,  // measure 70
0020
0000
0000
0030
,  // measure 71
1001
0000
0000
0000
;

//---------------dance-single - WinDEU----------------
#NOTES:
     dance-single:
     WinDEU:
     Medium:
     6:
     0.364,0.000,0.471,0.152,0.040:
0000
0000
0000
0000
,
0000
0000
0000
0000
,
0000
0000
0000
0000
,
0000
0000
0000
0000
,
0000
0000
0000
0000
,
0000
0000
0000
0000
,
1000
0000
0001
0000
0000
1000
0000
0000
0001
0000
0000
0000
1001
0000
0000
0000
,
0001
0000
0100
0000
0000
0001
0000
0000
0100
0000
0000
0000
0000
0000
0000
0000
,
0010
0000
1000
0000
0000
0010
0000
0000
1000
0000
0000
0000
1010
0000
0000
0000
,
1000
0000
0100
0000
0000
1000
0000
0000
1100
0000
0000
0000
0011
0000
0000
0000
,
0001
0100
0001
0010
0001
0100
0001
0000
,
1000
0100
1000
0010
1000
0100
1000
0000
,
0010
0100
0001
0100
0010
1000
0010
0000
,
0100
0001
1000
0100
0010
0000
0011
0000
,
1001
0000
1010
0000
,
0110
0110
0110
0100
,
0101
0000
0011
0000
,
0110
0110
0110
0100
,
1100
0000
1010
0000
,
0110
0101
0110
1010
,
0110
0000
0000
0000
0000
0000
0000
0000
0100
0000
0000
0100
0000
0000
0100
0000
,
0000
0101
1100
0101
,
0011
0000
0110
0000
,
1100
1100
1100
1000
,
1010
0000
0110
0000
,
0101
0101
0101
0001
,
0011
0000
0110
0000
,
1100
1100
1100
1000
,
1001
0000
0000
0000
0000
0000
0000
0000
0001
0000
0000
0001
0000
0000
0001
0000
,
0000
0011
1010
0011
,
0001
0010
0001
0000
1000
0010
1000
0000
,
1010
0101
1010
0000
,
2000
0000
0000
3001
0000
0000
0000
0000
0002
0000
0000
1003
0000
0000
0000
0000
,
0001
0010
0100
1000
,
1000
0010
1000
0000
0001
0010
0001
0000
,
0011
1100
0011
0000
,
0002
0000
0000
1003
0000
0000
0000
0000
2000
0000
0000
3001
0000
0000
0000
0000
,
1000
0010
0110
0000
,
0101
0000
0000
0110
0000
0000
1010
1010
,
0000
0000
1001
0000
0000
1001
0000
0000
,
0011
0000
0000
0110
0000
0000
1100
2200
,
0000
0000
0000
3300
,
1000
0100
0010
0100
1000
0100
0010
0100
,
1000
0001
1000
0100
1000
0001
1000
0100
,
0010
0001
1000
0001
0010
0001
1000
0001
,
0010
0100
0010
0001
0010
0100
0010
0000
,
0001
0100
0010
0100
0001
0100
0010
0100
,
0001
1000
0010
1000
0001
1000
0010
1000
,
0100
0010
0100
1000
0100
0010
0100
1000
,
0200
0000
0000
0300
,
0010
0001
0000
1000
0010
1000
0000
0001
,
0100
0001
0000
0010
0100
0010
0000
0100
,
1000
0100
0000
1000
0010
1000
0000
0001
,
0010
0001
0000
0100
0010
0100
0000
0001
,
1000
0100
1000
0100
1000
0100
1000
0100
,
0010
0100
0010
0100
0010
0100
0010
0100
,
0010
0001
0010
0001
0010
0001
0010
0001
,
0100
0000
0110
1010
,
1002
0000
0023
0000
,
0230
0000
2300
0000
,
3020
0000
0230
0000
,
0302
0000
0000
0000
,
0023
0000
0000
0000
,
0230
0000
0000
0000
,
2300
0000
0000
0000
,
3020
0000
0000
0000
,
0230
0000
0000
0000
,
0302
0000
0000
0000
,
0013
0000
0100
0000
0000
0000
0000
0000
1000
0000
0000
0001
0000
0000
1000
0000
,
0002
0000
0000
0003
,
1001
0000
0000
0000
;

//---------------dance-single - WinDEU----------------
#NOTES:
     dance-single:
     WinDEU:
     Easy:
     4:
     0.257,0.000,0.254,0.217,0.000:
0000
0000
0000
0000
,
0000
0000
0000
0000
,
0000
0000
0000
0000
,
0000
0000
0000
0000
,
0000
0000
0000
0000
,
0000
0000
0000
0000
,
1000
0100
1000
0200
,
0310
0001
0010
0000
,
0001
0100
0001
0200
,
0310
1000
0020
0230
,
0301
1000
0001
2000
,
3100
0010
0100
0000
,
1000
0010
1000
0020
,
0130
0001
0200
0301
,
0101
0000
1001
0000
,
1100
0100
1000
0100
,
0110
0000
0011
0000
,
0101
0100
0001
0100
,
0110
0000
1010
0000
,
1001
0001
1000
0001
,
0011
0000
0110
0000
,
0000
0100
1000
0100
,
0110
0000
0011
0000
,
0101
0001
0100
0001
,
1001
0000
1100
0000
,
0110
0010
0100
0010
,
0011
0000
1001
0000
,
1010
0010
1000
0010
,
0110
0000
0101
0000
,
0000
0001
1000
0001
,
0010
0010
0100
0100
,
1000
1000
1000
0000
,
2000
0000
0000
3000
0000
0000
0000
0000
0020
0000
0000
0030
0000
0000
0000
0000
,
0100
0001
0010
0001
,
0100
0100
0010
0010
,
1000
1000
1000
0000
,
0200
0000
0000
0300
0000
0000
0000
0000
0020
0000
0000
0030
0000
0000
0000
0000
,
0001
0100
0101
0000
,
1001
0000
0000
1001
0000
0000
1001
0000
,
0000
0000
1001
0000
0000
1001
0000
0000
,
1001
0000
0000
1001
0000
0000
2002
0000
,
0000
0000
0000
3003
,
1000
0100
1000
0100
,
0010
0001
0010
0001
,
1000
0010
1000
0010
,
0100
0001
0100
0001
,
0010
0100
0010
0100
,
1000
0001
1000
0001
,
1000
0010
1000
0010
,
0220
0000
0000
0330
,
0100
0001
1000
0100
,
0010
0001
1000
0001
,
0100
0010
0100
0001
,
1000
0100
0010
0001
,
1000
0001
0010
0100
,
0010
0001
1000
0010
,
0100
0001
0010
0100
,
1100
0000
0000
0000
,
1002
0000
0203
0000
,
0320
0000
2030
0000
,
3002
0000
0023
0000
,
0230
0000
0000
0000
,
2300
0000
0000
0000
,
3020
0000
0000
0000
,
0230
0000
0000
0000
,
0302
0000
0000
0000
,
0023
0000
0000
0000
,
0230
0000
0000
0000
,
2300
0000
0000
0000
,
3020
0000
0000
0030
,
1001
0000
0000
0000
;

//---------------dance-single - WinDEU----------------
#NOTES:
     dance-single:
     WinDEU:
     Beginner:
     1:
     0.080,0.000,0.058,0.000,0.000:
0000
0000
0000
0000
,
0000
0000
0000
0000
,
0000
0000
0000
0000
,
0000
0000
0000
0000
,
0000
0000
0000
0000
,
0000
0000
0000
0000
,
1000
0000
0000
0000
,
0010
0000
0000
0000
,
0100
0000
0000
0000
,
0001
0000
0000
0000
,
0010
0000
0000
0000
,
0100
0000
0000
0000
,
1000
0000
0000
0000
,
0010
0000
0000
0000
,
0110
0000
0000
0000
,
0100
0000
0000
0000
,
1001
0000
0000
0000
,
0001
0000
0000
0000
,
0110
0000
0000
0000
,
0010
0000
0000
0000
,
1001
0000
0000
0000
,
0000
0000
0000
0000
,
1000
0000
1000
0000
,
1000
0000
0000
0000
,
0001
0000
0001
0000
,
0001
0000
0000
0000
,
0010
0000
0010
0000
,
0010
0000
0000
0000
,
0100
0000
0100
0000
,
0000
0000
0000
0000
,
1000
0000
0001
0000
,
1000
0000
0000
0000
,
0010
0000
0100
0000
,
0010
0000
0000
0000
,
0100
0000
0001
0000
,
0100
0000
0000
0000
,
0010
0000
1000
0000
,
0010
0000
0000
0000
,
0110
0000
0000
0000
,
0000
0000
0000
0000
,
1001
0000
0000
0000
,
0000
0000
0000
0000
,
1000
0000
0000
0000
,
0001
0000
0000
0000
,
0010
0000
0000
0000
,
0100
0000
0000
0000
,
0010
0000
0000
0000
,
0001
0000
0000
0000
,
1000
0000
0000
0000
,
0010
0000
0000
0000
,
0100
0000
0000
0000
,
0001
0000
0000
0000
,
0100
0000
0000
0000
,
0010
0000
0000
0000
,
1000
0000
0000
0000
,
0001
0000
0000
0000
,
0010
0000
0000
0000
,
0100
0000
0000
0000
,
1000
0000
0000
0000
,
0001
0000
0000
0000
,
0100
0000
0000
0000
,
0110
0000
0000
0000
,
0010
0000
0000
0000
,
0100
0000
0000
0000
,
0001
0000
0000
0000
,
0010
0000
0000
0000
,
0100
0000
0000
0000
,
1000
0000
0000
0000
,
0100
0000
0000
0000
,
0010
0000
0000
0000
,
1001
0000
0000
0000
;
