#TITLE:Kecak;
#SUBTITLE:;
#ARTIST:John Robinson;
#TITLETRANSLIT:;
#SUBTITLETRANSLIT:;
#ARTISTTRANSLIT:;
#GENRE:;
#CREDIT:;
#BANNER:kecak bn.png;
#BACKGROUND:kecak bg.png;
#LYRICSPATH:;
#CDTITLE:;
#MUSIC:06 - John Robinson - Kecak.ogg;
#OFFSET:-0.025;
#SAMPLESTART:69.091;
#SAMPLELENGTH:12.000;
#SELECTABLE:YES;
#BPMS:0.000=139.000;
#STOPS:;
#BGCHANGES:;
#KEYSOUNDS:;

//---------------dance-single - zimlord----------------
#NOTES:
     dance-single:
     zimlord:
     Challenge:
     11:
     0.863,0.000,0.705,0.227,1.000: // measure 1
0000
0000
0000
0000
,  // measure 2
0000
0000
0000
0000
,  // measure 3
0000
0000
0000
0000
,  // measure 4
0000
0000
0000
0000
0000
0000
0000
0000
0000
0000
0000
0000
1001
0000
1000
0100
,  // measure 5
1000
0000
0001
0000
0101
0000
0100
0010
0100
0000
0010
0000
1010
0000
1000
0001
,  // measure 6
1000
0000
0001
0000
0011
0000
0010
0100
0010
0000
0100
0000
1100
0000
1000
0001
,  // measure 7
0100
0000
0010
0000
0101
0000
0100
0001
1000
0000
0001
0000
1010
0000
1000
0100
,  // measure 8
0010
0000
0001
0000
1100
0000
0100
1000
0010
0000
0100
0000
1001
0000
1000
0001
,  // measure 9
0010
0000
0100
0000
0010
0001
0000
1000
0001
0000
0001
0010
0000
0010
0100
0000
,  // measure 10
1000
0000
0000
0000
0001
0000
0000
0000
1000
0000
0010
0000
0000
0000
0100
0000
0010
0000
0000
0000
0010
0000
1000
0000
0000
0000
1000
0000
0001
1000
0001
1000
,  // measure 11
0001
0000
0000
1001
0000
1000
0100
1000
0100
0000
0000
0011
0000
0001
0100
0001
,  // measure 12
0100
0000
0000
1010
0000
1000
0001
1000
0001
0000
0000
0101
0000
0100
0010
0100
,  // measure 13
0001
0000
0001
0000
0000
0001
0100
0001
1000
0000
1000
0000
0000
1000
0001
1000
,  // measure 14
0100
0000
0100
0000
0000
0100
0010
0100
1000
0000
1000
0000
1000
0001
1000
0001
,  // measure 15
0010
0000
0010
0000
0000
0010
0100
0010
0001
0000
0001
0000
0000
0001
0100
0001
,  // measure 16
1000
0000
1000
0000
0000
1000
0010
1000
0100
0000
0100
0000
0100
0010
0100
0010
,  // measure 17
0001
0000
1000
0000
0001
0100
0000
0010
0100
0000
0100
0001
0000
0001
0100
0010
,  // measure 18
0100
0000
0001
0000
0010
0100
0000
0010
0001
0000
0001
1000
0000
1000
0001
0100
,  // measure 19
0001
0000
0100
0000
0010
1000
0000
0001
1000
0000
1000
0001
0000
0001
0010
0100
,  // measure 20
0010
0000
0100
0000
1000
0100
0000
1000
0010
0000
0010
1000
0000
1000
0001
0010
,  // measure 21
0001
0000
1000
0000
0010
1000
0000
0010
0100
0000
0100
0001
0000
0001
0010
0100
,  // measure 22
0010
0000
0001
0000
0010
0001
0000
0100
0010
0000
0010
1000
0000
1000
0001
0100
,  // measure 23
0001
0000
1000
0000
0100
0010
0000
0001
1000
0000
1000
0001
0000
0001
0100
0010
,  // measure 24
0100
0000
0001
0000
1000
0001
0000
1000
0100
0000
0100
0010
0000
0010
0001
0000
,  // measure 25
1001
0000
10M1
00M0
1001
0000
0000
0000
00M0
00M0
0000
0000
0000
0000
0000
0000
,  // measure 26
0000
0000
0M00
0M00
0M00
0000
0000
0000
0M00
0M00
0M00
0000
0000
0000
0000
0000
,  // measure 27
0101
0000
M101
M000
0101
0000
0000
0000
M000
M000
0000
0000
0000
0000
0000
0000
,  // measure 28
0000
0000
00M0
00M0
00M0
0000
0000
0000
00M0
00M0
00M0
0000
0000
0000
0000
0000
,  // measure 29
1010
0000
101M
000M
1010
0000
0000
0000
000M
000M
0000
0000
0000
0000
0000
0000
,  // measure 30
0000
0000
0M00
0M00
0M00
0000
0000
0000
0M00
0M00
0M00
0000
0000
0000
0000
0000
,  // measure 31
1100
0000
11M0
00M0
1100
0000
0000
0000
00M0
00M0
0000
0000
0000
0000
0000
0000
,  // measure 32
0000
0000
000M
000M
000M
0000
0000
0000
000M
000M
000M
0000
0000
0000
0000
0000
,  // measure 33
0011
0000
M011
M000
0011
0000
0M00
0M00
0000
0000
00M0
00M0
00M0
0000
000M
000M
,  // measure 34
011M
0000
M110
M000
0110
0000
000M
000M
0000
0000
0M00
0M00
0M00
0000
00M0
00M0
,  // measure 35
10M1
0000
1M01
0M00
1001
0000
00M0
00M0
0000
0000
000M
000M
000M
0000
M000
M000
,  // measure 36
M101
0000
01M1
00M0
0101
0000
M000
M000
0000
0000
0M00
0M00
0M00
0000
000M
000M
,  // measure 37
101M
0000
1M10
0M00
1010
0000
000M
000M
1100
0000
11M0
00M0
11M0
0000
M000
M000
,  // measure 38
M011
0000
0M11
0M00
0011
0000
M000
M000
0101
0000
01M1
00M0
01M1
0000
000M
000M
,  // measure 39
011M
M110
1001
10M1
1100
110M
0011
0M11
,  // measure 40
0101
M101
1001
20M2
0000
0M10
0010
30M3
,  // measure 41
1001
0000
1M01
0000
1001
0000
10M0
0001
0100
0010
M100
0001
1000
0010
100M
0100
,  // measure 42
0010
0001
0M10
0001
1000
0010
1M00
0001
0010
0100
M010
0001
1000
0100
001M
0000
,  // measure 43
0011
0000
M011
0000
0011
0000
0M01
1000
0010
0100
001M
1000
0001
0100
00M1
0100
,  // measure 44
0010
1000
010M
0010
0001
1000
01M0
1000
0001
0010
010M
1000
0001
0100
M010
0000
,  // measure 45
1010
0000
101M
0000
1010
0000
1M00
0001
0010
0100
M010
0001
1000
0010
1M00
0010
,  // measure 46
0100
0001
M010
0100
1000
0001
10M0
0100
0010
0001
10M0
0100
1000
0001
0M10
0000
,  // measure 47
1100
0000
110M
0000
1100
0000
01M0
1000
0001
1000
00M1
0100
0010
1000
001M
1000
,  // measure 48
0001
0100
M010
0100
0001
0010
010M
1000
0001
0000
1M01
0000
1001
0000
00M1
0000
,  // measure 49
1010
0000
1M10
0000
1010
0000
001M
0100
0001
1000
00M1
1000
0100
0010
010M
1000
,  // measure 50
0001
0100
00M1
1000
0100
1000
0M01
0010
0100
1000
01M0
1000
0001
0100
001M
0000
,  // measure 51
0101
0000
M101
0000
0101
0000
01M0
0001
0010
0100
001M
0100
1000
0001
0M10
0001
,  // measure 52
1000
0100
001M
0100
1000
0010
1M00
0001
0010
0001
10M0
0100
1000
0100
M010
0000
,  // measure 53
0011
0000
0M11
0000
0011
0000
M010
0100
1000
0001
1M00
0010
0100
0001
01M0
0001
,  // measure 54
1000
0100
M010
0001
1000
0100
10M0
0001
0100
0010
010M
0010
1000
0001
0M10
0000
,  // measure 55
1100
0000
110M
0000
1100
0000
01M0
1000
0001
0100
M001
0100
0010
1000
010M
0010
,  // measure 56
0001
1000
0M01
0010
0100
1000
010M
1000
0010
0000
M110
0000
0110
0000
0100
0000
,  // measure 57
2002
3003
0001
0000
0000
0001
1000
0001
0100
0000
0100
0000
0000
0100
0010
0100
,  // measure 58
0001
0000
0001
0000
0000
0001
1000
0001
0010
0000
0010
0000
0020
0230
0320
0230
,  // measure 59
2300
3000
1000
0000
0000
1000
0100
1000
0010
0000
0010
0000
0000
0010
0100
0010
,  // measure 60
1000
0000
1000
0000
0000
1000
0010
1000
0001
0000
0001
0000
0001
1000
0001
1000
,  // measure 61
0200
0300
0100
0000
0000
0100
0010
0100
1000
0000
1000
0000
0000
1000
0001
1000
,  // measure 62
0010
0000
0010
0000
0000
0010
0100
0010
1000
0000
1000
0000
2000
3200
2300
3200
,  // measure 63
0320
0030
0010
0000
0000
0010
0100
0010
0001
0000
0001
0000
0000
0001
0010
0001
,  // measure 64
1000
0000
1000
0000
0000
1000
0001
1000
0010
0000
0010
0000
0010
1000
0010
1000
,  // measure 65
0200
0300
0010
0000
0100
1000
0000
0001
1000
0000
1000
0001
0000
0001
0100
0000
,  // measure 66
0010
0000
0100
0000
0001
0100
0000
0001
0010
0000
0010
0100
0000
0200
2300
3002
,  // measure 67
2003
3000
0100
0000
0010
0001
0000
1000
0010
0000
0010
1000
0000
1000
0001
0000
,  // measure 68
1000
0000
0001
0000
1000
0100
0000
0010
0001
0000
0001
1000
0000
1000
0010
0100
,  // measure 69
0020
0030
0100
0000
0001
1000
0000
0001
0010
0000
0010
0001
0000
0001
0100
0000
,  // measure 70
0001
0000
0100
0000
0010
0100
0000
0001
1000
0000
1000
0001
0000
0002
2003
3200
,  // measure 71
2300
3000
0100
0000
1000
0001
0000
0100
0001
0000
0001
0100
0000
0100
0010
0000
,  // measure 72
1000
0000
0001
0000
1000
0010
0000
1000
0100
0000
0100
0010
0000
0020
0032
2003
,  // measure 73
0MM2
3003
0000
0000
0000
0000
0000
0000
;
