#TITLE:KANSAI EVOLVED -OSAKA STYLE-;
#SUBTITLE:;
#ARTIST:NAOKI underground;
#TITLETRANSLIT:;
#SUBTITLETRANSLIT:;
#ARTISTTRANSLIT:;
#GENRE:;
#CREDIT:;
#BANNER:../ban-joe4.png;
#BACKGROUND:../bg-joe4.png;
#LYRICSPATH:;
#CDTITLE:../joe2cd.png;
#MUSIC:kansai.ogg;
#OFFSET:-0.380;
#SAMPLESTART:62.021;
#SAMPLELENGTH:12.000;
#SELECTABLE:YES;
#BPMS:0.000=148.000;
#STOPS:;
#BGCHANGES:;
#KEYSOUNDS:;

//---------------dance-single - JOE2----------------
#NOTES:
     dance-single:
     JOE2:
     Challenge:
     11:
     0.968,0.000,0.270,0.644,0.910: // measure 1
0000
0000
0000
0000
,  // measure 2
0000
0000
0000
0000
,  // measure 3
0000
0000
0000
0000
,  // measure 4
0000
0000
0000
0000
0000
0000
0000
0000
0000
0000
0000
0000
0001
0100
0001
0000
,  // measure 5
1001
0000
1000
0000
0100
0000
0010
0000
0001
1000
0010
0000
0110
0000
0000
0000
,  // measure 6
0110
0000
0010
0000
1000
0000
0001
0000
0010
0100
1000
0001
1000
0000
0000
0000
,  // measure 7
1001
0000
0001
0000
0100
0000
0010
0000
0100
0001
1000
0000
0100
0000
0010
0000
,  // measure 8
0100
1000
0001
0000
1000
0000
0010
0000
0100
0001
1000
0001
0010
0000
0000
0000
,  // measure 9
0011
0000
0020
0000
0230
0000
2300
0000
3020
0000
0230
0000
0302
0000
2003
3000
,  // measure 10
1100
0000
0200
0000
0320
0000
0032
0000
2003
0000
3002
0000
0203
0000
0320
0030
,  // measure 11
1010
0000
1000
0000
0001
0000
0010
0000
0100
1000
0001
0000
0101
0000
0000
0000
,  // measure 12
0110
0000
0010
0000
1000
0000
0100
0000
0010
0001
1000
0010
1000
0000
0000
0000
,  // measure 13
0101
0000
0001
0000
1000
0000
0010
0000
1000
0001
0100
0000
0010
0000
0100
0000
,  // measure 14
0001
1000
0100
0000
0010
0000
0001
0000
1000
0001
0010
0001
0100
0000
0000
0000
,  // measure 15
0010
1000
0001
1000
0100
0010
0001
1000
0010
0100
0001
0010
0001
1000
0020
0000
,  // measure 16
0000
0000
0130
0000
0001
0000
1000
0000
0100
0010
0100
0000
0010
0000
0010
0001
,  // measure 17
1000
0001
1000
0010
0100
0001
0100
0010
1000
0001
1000
0100
0010
0001
1000
0010
,  // measure 18
0100
0002
0000
0003
0020
0000
0230
0000
0300
0200
0000
0300
100M
0000
0010
0000
,  // measure 19
0100
0001
1000
0001
0010
0100
1000
0001
0100
0001
0010
0100
1000
0010
1000
0100
,  // measure 20
0010
0002
0000
0003
1000
0000
0020
0000
0230
0000
0301
0000
M010
0000
0100
1000
,  // measure 21
0001
1000
0010
0100
0001
0010
0001
1000
0010
0100
0001
1000
0001
0010
0100
1000
,  // measure 22
0010
0100
0002
0000
2003
0000
3200
0000
0310
0001
0010
0000
0001
1000
0001
1000
,  // measure 23
0010
0000
0000
0010
1000
0000
0000
0001
1000
0000
0000
0100
1000
0000
0020
0000
,  // measure 24
0032
0000
0023
0000
2030
0000
3200
0000
0302
0000
0103
0000
1000
0001
1000
0000
,  // measure 25
1010
0000
0020
0000
0230
0000
0302
0000
2003
0000
3002
0000
0023
0000
0230
0300
,  // measure 26
1100
0000
2000
0000
3002
0000
0203
0000
0302
0000
0023
0000
0230
0000
0320
0030
,  // measure 27
0011
0000
0001
1000
0010
0000
0100
0000
0010
1000
0001
0000
0001
1000
0100
0000
,  // measure 28
1010
0000
0010
1000
0001
0000
0010
0001
1000
0100
1000
0000
0010
0100
0001
0010
,  // measure 29
0001
0000
0000
0000
0010
0000
0100
0000
1000
0000
0001
0000
1000
0000
0010
0000
0000
0000
0100
0000
0001
0000
1000
0000
0001
0000
0010
0000
0100
0000
1000
0001
,  // measure 30
1000
0000
0010
0100
0001
1000
0001
0010
0000
0100
1000
0000
0010
0100
0010
0000
,  // measure 31
0101
0000
0001
0010
0100
0000
0010
0000
0001
1000
0100
0000
0100
1000
0010
0000
,  // measure 32
0110
0000
0100
0001
1000
0000
0010
1000
0010
0100
0001
0000
0010
0001
1000
0001
,  // measure 33
0010
0000
0100
1000
0001
0000
1000
0000
0001
0100
0010
1000
0100
1000
0010
0000
,  // measure 34
0110
0000
0100
0001
1000
0000
0001
0010
0100
1000
0010
0000
0100
0001
0100
0010
,  // measure 35
1000
0000
0100
0010
0001
0000
0001
0010
0100
0000
1000
0000
0010
1000
0010
0000
,  // measure 36
1001
0000
0001
0000
0010
0000
0100
1000
0001
1000
0010
0000
0100
0010
1000
0000
,  // measure 37
1100
0000
0100
0010
0001
0000
1000
0010
0100
0000
0010
0000
1000
0001
1000
0000
,  // measure 38
0100
0010
0100
1000
0001
1000
0010
0100
0001
0010
0001
0010
0001
1000
0001
1000
,  // measure 39
0010
0000
0100
0000
0001
0000
0010
0100
0010
0100
0010
0000
0011
0000
0002
0000
,  // measure 40
1003
0000
0010
0000
1000
0000
0001
0100
0001
0100
0001
0000
1001
0000
1000
0000
,  // measure 41
0200
0000
0320
0000
0031
0000
0100
0000
0010
1000
0010
0000
1000
0000
2000
0000
,  // measure 42
3000
0002
0000
0003
0020
0000
0032
0000
0003
0200
0000
0300
0010
0000
2000
0000
,  // measure 43
3001
0000
1000
0000
0100
0000
0010
0000
0001
1000
0010
0000
0100
0000
0010
0000
,  // measure 44
1000
0100
2000
0000
3001
0000
0200
0000
0320
0000
0130
0001
0010
0000
0110
0000
,  // measure 45
0100
0000
1000
0000
0001
0000
0100
0010
0100
0010
0100
0000
1010
0000
2000
0000
,  // measure 46
3001
0000
0010
0000
0001
0000
1000
0001
1000
0001
1000
0000
1100
0000
0100
0000
,  // measure 47
0020
0000
0032
0000
0103
0000
0010
0000
1000
0100
1000
0000
0100
0000
0200
0000
,  // measure 48
0300
0020
0000
0030
0002
0000
2003
0000
3000
0020
0000
0030
0100
0000
0002
0000
,  // measure 49
1003
0100
0010
0000
0001
0000
1000
0000
0010
0100
0001
0000
0100
0001
1000
0001
,  // measure 50
0010
0000
0200
0000
2300
0000
3020
0000
0130
0001
0100
0000
0010
0000
0010
0000
,  // measure 51
1010
0000
1000
0001
1000
0001
0010
0100
0000
0000
1000
0010
1000
0010
0100
0001
,  // measure 52
0010
0100
1000
0001
1000
0010
0200
0000
0302
0000
0003
0000
0000
0000
0002
0000
,  // measure 53
0203
0000
0310
1000
0001
1000
0100
0010
0000
0000
0001
1000
0010
1000
0100
0010
,  // measure 54
0001
1000
0010
0100
0001
0010
0200
0000
2300
0000
3000
0000
0000
0000
2000
0000
,  // measure 55
3200
0000
0310
0001
1000
0001
0100
0000
0010
1000
0001
1000
0100
0010
0001
0100
,  // measure 56
0020
0000
1030
0100
1000
0001
1000
0000
0010
0000
0100
0001
0000
0010
0001
1000
,  // measure 57
0002
0000
0103
0010
1000
0001
1000
0100
0020
0000
0130
1000
0001
1000
0010
0100
,  // measure 58
0001
0010
0100
1000
0010
0100
0010
1000
0001
0010
0100
1000
0001
1000
0010
0100
,  // measure 59
0001
0000
0010
0000
0100
0000
1000
0000
0001
0000
0100
0010
1000
0100
0010
0000
,  // measure 60
0001
0000
1000
0000
0010
0000
1000
0000
0100
0000
0010
0001
1000
0010
0100
0000
,  // measure 61
0001
0000
1000
0000
0001
0000
0010
0000
0100
1000
0010
0100
0001
1000
0001
0010
,  // measure 62
0000
0000
0100
0000
1000
0000
0001
0000
1000
0000
0010
0100
0001
1000
0100
0010
,  // measure 63
0001
0100
0001
0000
0010
0001
1000
0010
1000
0100
0010
0001
1000
0010
1000
0000
,  // measure 64
0100
0010
0001
1000
0010
0100
0001
0010
0100
1000
0100
0000
1000
0010
1000
0010
,  // measure 65
0100
0001
0010
0100
1000
0001
1000
0010
0100
0001
1000
0100
0010
0001
0010
0100
,  // measure 66
1000
0001
1000
0010
0100
0001
0010
0100
1000
0100
0010
0001
0100
0001
0010
0100
,  // measure 67
1000
0010
0100
0001
0011
0000
1000
0010
,  // measure 68
0100
0001
1001
0000
1000
0100
0010
0100
,  // measure 69
1100
0000
1000
0001
0100
0110
0110
0000
,  // measure 70
0010
1000
0001
0010
0100
1000
0001
0100
0010
0000
0010
0000
1000
0000
0001
0000
,  // measure 71
0100
0000
1010
0000
1010
0000
0000
0000
1000
0100
0010
0001
1000
0010
0100
0001
,  // measure 72
0010
0010
0100
1000
0001
0101
0101
0000
,  // measure 73
0001
2000
0000
0000
0000
0000
0000
0000
0000
0000
0000
0000
0000
0000
0000
0000
,  // measure 74
0000
0000
0000
0000
,  // measure 75
3000
0000
0000
0000
;
