#TITLE:Jig;
#SUBTITLE:;
#ARTIST:Tom Encore;
#TITLETRANSLIT:;
#SUBTITLETRANSLIT:;
#ARTISTTRANSLIT:;
#GENRE:;
#CREDIT:;
#BANNER:jig bn.png;
#BACKGROUND:Jig bg.png;
#LYRICSPATH:;
#CDTITLE:;
#MUSIC:jig.ogg;
#OFFSET:0.013;
#SAMPLESTART:27.800;
#SAMPLELENGTH:12.000;
#SELECTABLE:YES;
#DISPLAYBPM:69.000:138.000;
#BPMS:0.000=138.000,60.000=69.000,60.500=276.000,62.500=138.000,64.500=276.000,66.500=69.000,67.000=138.000,71.000=103.500,71.250=207.000,71.500=103.500,71.750=207.000,72.000=103.500,72.250=207.000,72.500=103.500,72.750=207.000,73.000=138.000,81.000=69.000,82.000=138.000,85.000=103.500,85.500=207.000,86.000=138.000,91.000=69.000,91.500=138.000,95.500=276.000,97.500=69.000,98.000=138.000,104.000=103.500,104.500=207.000,105.000=103.500,105.500=207.000,106.000=138.000,144.000=276.000,176.000=138.000,180.000=103.500,180.250=207.000,180.500=103.500,180.750=207.000,181.000=103.500,181.250=207.000,181.500=103.500,181.750=207.000,182.000=138.000,184.000=103.500,184.250=207.000,184.500=138.000,190.000=103.500,190.250=207.000,190.500=103.500,190.750=207.000,191.000=103.500,191.250=207.000,191.500=103.500,191.750=207.000,192.000=276.000,194.000=69.000,194.500=138.000,198.500=103.500,198.750=207.000,199.000=103.500,199.250=207.000,199.500=103.500,199.750=207.000,200.000=103.500,200.250=207.000,200.500=138.000,208.500=69.000,209.000=138.000,210.000=69.000,210.500=138.000,211.500=276.000,212.500=138.000,217.000=276.000,218.000=138.000,219.000=69.000,219.500=276.000,221.500=138.000,223.500=276.000,225.500=69.000,226.000=138.000,232.000=103.500,232.500=207.000,233.000=103.500,233.500=207.000,234.000=138.000;
#STOPS:211.500=0.109
,212.000=0.109
,213.500=0.217
,217.000=0.027
,217.125=0.027
,217.250=0.027
,217.375=0.027
,217.500=0.027
,217.625=0.027
,217.750=0.027
,217.875=0.027
;
#TIMESIGNATURES:0.000=4=4
;
#BGCHANGES:;
#KEYSOUNDS:;

//---------------dance-single - zimlord----------------
#NOTES:
     dance-single:
     zimlord:
     Challenge:
     11:
     0.760,0.847,0.081,0.474,1.000,472.000,8.000,47.000,84.000,0.000,4.000,0.760,0.847,0.081,0.474,1.000,472.000,8.000,47.000,84.000,0.000,4.000: // measure 1
0000
0000
0000
0000
,  // measure 2
0000
0000
0000
0000
,  // measure 3
0000
0000
0000
0000
,  // measure 4
0000
0000
0000
0000
,  // measure 5
1000
0000
0000
1000
0000
0000
1000
0000
0001
0000
0000
0001
0000
0000
0001
0000
,  // measure 6
0100
0000
0000
0100
0000
0000
0100
0000
0001
0000
0000
0001
0000
0000
0001
0000
,  // measure 7
0010
0000
0000
0010
0000
0000
0010
0000
0100
0000
0000
0100
0000
0000
0100
0000
,  // measure 8
1000
0000
0000
1000
0000
0000
1000
0000
0001
0000
0000
0001
0000
0000
0001
0000
,  // measure 9
M1M1
0002
4003
0000
0000
3000
1MM1
0000
,  // measure 10
11MM
0200
0340
0000
0000
0030
0002
0003
,  // measure 11
MM11
0020
MM34
0000
0000
0003
M1M1
0000
,  // measure 12
M11M
0020
4030
0000
0000
3000
0002
0003
,  // measure 13
MM10
0010
0100
0100
1000
1000
0MM1
0001
,  // measure 14
M1M0
0100
0001
0001
1000
1000
0100
0100
,  // measure 15
MM10
0001
0010
0001
1MM0
0010
1000
0010
0100
0001
1000
0001
MM10
0100
1000
0100
,  // measure 16
M01M
0000
0000
0000
000M
0000
0000
0000
0000
0000
0000
0000
0001
1000
0100
1000
,  // measure 17
0001
0000
0000
0010
0000
0000
M200
0000
0000
0000
0000
0000
0000
0000
0000
0000
0000
0000
0000
0000
0000
0000
0000
0000
0000
0000
0000
0000
0000
0000
2300
0000
0000
0000
0000
0000
3001
0000
0000
0000
0100
0000
0000
0000
0001
0000
0000
0000
,  // measure 18
1000
0000
0100
0000
1000
0000
0001
0000
0001
0000
0001
0000
0001
0000
0001
0000
0001
0000
2000
0000
0000
3002
0000
0000
,  // measure 19
0023
0000
0000
0032
0000
0000
1003
0000
1000
0000
1000
0000
1000
0000
1000
0000
1000
0000
0001
0000
0100
0000
0010
0000
,  // measure 20
1000
0100
0010
0001
0001
0001
0001
0001
0001
0010
0010
0010
,  // measure 21
0100
0000
0100
0000
0100
0000
200M
0000
0000
3002
0000
0000
M013
0000
0100
0000
1000
0000
0010
0000
0100
0000
0001
0000
,  // measure 22
1000
1000
1000
2000
0000
0000
3010
0010
0010
0100
0100
0100
,  // measure 23
0001
0000
0001
0000
0001
0000
0001
0000
0001
0000
0001
0000
0010
0000
0000
0000
0000
0000
M200
0000
0000
1300
0000
0100
,  // measure 24
0000
0000
0001
0000
0000
0000
1000
0000
0000
0000
0010
0000
0000
0000
0001
0000
0000
0000
1000
0000
0000
0000
0000
0000
0001
0000
0000
0010
0000
0000
0100
0000
0000
0010
0000
0000
0001
0000
0000
1000
0000
0000
0M20
0000
0000
0000
0000
0000
,  // measure 25
0000
0000
0000
0000
0000
0000
0230
0000
0301
0010
0100
1000
0001
0010
0100
1000
,  // measure 26
0001
0010
0100
1000
0001
0010
0100
1000
0001
0100
0001
0100
0010
1000
0010
1000
,  // measure 27
0M02
0000
0003
0000
0M02
0000
0003
0000
1000
0100
0010
0001
1000
0100
0010
0001
,  // measure 28
1000
0100
0010
0001
1000
0100
0010
0001
2000
0000
3010
0100
0001
0100
0010
1000
,  // measure 29
0001
0010
0000
0010
0100
0000
1000
0000
0010
0100
0000
0100
0001
0000
1000
0000
,  // measure 30
0001
1000
0000
1000
0010
0000
1000
0000
0100
0010
0000
0010
0001
1000
0000
0001
,  // measure 31
1000
0010
0000
0010
0100
0000
0001
0000
1000
0001
0000
0001
0010
0000
0100
0000
,  // measure 32
1000
0010
0000
0010
0100
0000
0001
0000
1000
0001
0000
0001
0010
0100
0000
0010
,  // measure 33
0001
1000
0100
1000
0000
1000
0001
0010
0001
1000
0010
0100
0000
0100
0001
1000
,  // measure 34
0100
0010
0100
1000
0000
1000
0001
0010
0100
1000
0000
1000
0001
0100
0000
0010
,  // measure 35
0100
0001
0100
0010
0000
0010
1000
0001
1000
0100
0010
0100
0000
0100
1000
0001
,  // measure 36
0010
0100
0010
0001
0000
0001
1000
0010
0100
0000
0001
1000
0010
1000
0001
0010
,  // measure 37
M200
00M0
000M
00M0
,  // measure 38
M000
00M0
000M
00M0
,  // measure 39
M000
00M0
000M
00M0
,  // measure 40
M000
00M0
000M
00M0
,  // measure 41
M000
00M0
000M
00M0
,  // measure 42
M000
00M0
000M
00M0
,  // measure 43
M300
00M0
000M
00M0
,  // measure 44
M000
00M0
000M
00M0
,  // measure 45
M100
0100
0100
0100
0100
0100
1000
0100
1000
0001
0100
0001
,  // measure 46
2001
0000
0000
3020
0000
0000
0230
0000
0000
0320
0000
0000
1030
0000
1000
0000
1000
0000
0100
0000
0100
0000
0100
0000
,  // measure 47
0020
0000
0000
0031
0000
0001
0000
0001
0000
0100
0000
0000
0001
0000
0010
0000
0100
0000
1000
0000
0010
0000
0100
0000
,  // measure 48
0001
0000
0001
0000
0001
0000
0001
0000
0001
0000
0001
0000
0020
0000
0000
0032
0000
0000
2003
0000
0000
3002
0000
0000
,  // measure 49
0M23
0000
0000
0000
0000
0000
0000
0000
0000
0000
0000
0000
0230
0000
0000
1300
0000
0100
0000
1000
0000
0001
0000
0100
,  // measure 50
0000
0001
0000
0010
0000
0010
0000
0010
0000
0010
0000
0010
0000
0010
0000
0200
0000
0000
2300
0000
0000
3020
0000
0000
,  // measure 51
2030
0000
0000
3001
0000
0001
0000
0001
0000
0001
0000
0001
0000
0001
0000
1000
0000
0100
0000
0010
0000
0001
0000
0100
,  // measure 52
0000
0000
0010
0000
0000
0000
1000
0000
0000
0000
0100
0000
0000
0000
0001
0000
0000
0000
1000
0000
0000
0000
0010
0000
0000
0000
0001
0000
0000
0000
0100
0000
0000
0000
0000
0000
0010
0000
0000
1000
0000
0000
0001
0000
0000
1000
0000
0000
,  // measure 53
0100
0010
M002
0000
1003
0001
0000
0000
0M20
0000
0130
1000
0000
0000
00M1
0000
,  // measure 54
00M1
0000
0100
0001
0000
0000
10M0
0000
0010
0100
0000
0000
00M2
0000
0003
0000
,  // measure 55
1000
0001
0000
0000
M020
0000
0000
0000
0130
1000
0000
0000
1MM2
0000
M003
0000
,  // measure 56
0000
0000
0000
0000
0000
0000
0000
0000
1000
0001
0010
0001
1000
0100
002M
0000
,  // measure 57
0000
0000
0000
0000
0000
0000
0032
0000
1003
0100
0010
0001
1000
0100
0010
0001
,  // measure 58
1000
0100
0010
0001
1000
0100
0010
0001
1000
0010
1000
0010
0100
0001
0100
0001
,  // measure 59
0M20
0000
0030
0000
0M20
0000
0030
0000
0001
0010
0100
1000
0001
0010
0100
1000
,  // measure 60
0001
0010
0100
1000
0001
0010
0100
1000
002M
0000
0130
0001
1000
0001
0010
0100
;
