#TITLE:Goodbye Chalon;
#SUBTITLE:;
#ARTIST:Nekomata Master+;
#TITLETRANSLIT:;
#SUBTITLETRANSLIT:;
#ARTISTTRANSLIT:;
#GENRE:;
#CREDIT:;
#BANNER:goodbye bn.png;
#BACKGROUND:goodbye bg.png;
#LYRICSPATH:;
#CDTITLE:;
#MUSIC:Goodbye Chalon.ogg;
#OFFSET:-0.616;
#SAMPLESTART:14.213;
#SAMPLELENGTH:12.000;
#SELECTABLE:YES;
#DISPLAYBPM:154.000;
#BPMS:0.000=154.000,213.000=77.000,214.000=154.000;
#STOPS:;
#BGCHANGES:;
#KEYSOUNDS:;

//---------------dance-single - mudkyp----------------
#NOTES:
     dance-single:
     mudkyp:
     Challenge:
     11:
     0.858,0.985,0.072,0.471,1.000:
0000
0000
0000
0000
,
0001
0000
1000
0000
0001
1000
0000
0100
0000
0010
0000
0001
1000
0010
0100
0000
,
0001
0000
1000
0100
0010
0001
0000
1000
0010
0000
0100
0001
1000
0100
0000
0010
,
0001
0000
0100
0001
1000
0100
0000
0010
0001
1000
0100
0000
1000
0010
0100
0001
,
1000
0000
0010
0000
1000
0001
0000
0100
0010
1000
0000
0001
1000
0000
1001
0000
,
0001
0000
1000
0000
0010
0100
0000
0001
1000
0000
0001
1000
0100
1000
0001
1000
,
0010
0000
0010
0000
0100
0001
0000
1000
0100
0000
0010
0000
0001
0010
0100
1000
,
0001
0000
0001
0000
0000
0000
1000
0000
0000
0000
0010
0000
0000
0000
0100
0000
0000
0000
0000
0000
0000
0000
0001
0100
0001
0000
1000
0000
0100
0000
1000
0000
,
0001
0000
0010
0000
0100
1000
0000
0001
1000
0100
0000
0010
0001
0000
1000
0000
,
0001
0000
0000
0000
0000
0000
1000
0000
0010
0000
1000
0000
0010
0000
0000
0000
0000
0000
0000
0000
0000
0000
0000
0000
1000
0000
0000
0001
0000
0000
0000
0000
0000
0001
0000
0000
0000
0000
0000
0000
0000
0000
0100
0000
0000
0000
0000
0000
,
0001
0000
1000
0010
0100
0001
0000
0000
1000
0100
0000
0000
0010
0000
0100
1000
,
0001
0000
0000
0000
0100
0000
0001
0100
0001
0000
0000
0000
1000
0000
0001
0000
0000
0000
0001
0000
0000
0000
0010
0000
0000
0000
0100
0000
0000
0000
1000
0000
,
0010
0000
0010
0000
0000
0000
1000
0000
0100
0000
0010
0001
1000
0001
0000
1000
,
0100
0000
0010
0000
0001
0000
1000
0000
0100
0000
0000
0000
1000
0100
1000
0000
0001
0000
1000
0000
0100
0000
1000
0000
0000
0000
0000
0000
0001
0000
1000
0100
,
1000
0100
0010
0001
1000
0000
0001
0000
1000
0100
0000
0010
0000
0001
0100
0010
,
1000
0000
0010
1000
0001
0000
0010
0000
0100
0000
1000
0000
1001
0000
0000
0000
,
0001
0000
0000
0000
0000
0000
0100
0000
0000
0001
0000
0000
1000
0000
0000
0000
0001
0000
0000
0000
0010
0000
0000
0000
0100
0000
0000
0000
1000
0000
0000
0000
0001
0000
0000
0000
0200
0000
0000
0000
0000
0000
0300
0000
0000
0000
0000
0000
,
0020
0000
0030
0000
2000
0000
3000
0002
0000
0003
0000
0000
0020
0000
0030
0200
,
0000
0000
0300
0000
0000
0000
0000
0000
2000
0000
0000
0000
3000
0000
0001
0100
0002
0000
0000
0000
0000
0000
0003
0000
0200
0000
0000
0000
0000
0000
0320
0000
,
0000
0000
0000
0000
0030
0000
2000
3000
,
0200
0000
0310
0001
1000
0100
0010
0001
1000
0100
0010
0100
1000
0010
0100
0001
,
1000
0000
0001
1000
0100
0000
0000
0010
0000
0000
0000
0000
0001
1000
0010
0100
,
0001
0000
0000
0000
0000
0000
0000
0000
0100
0000
0000
0000
0000
0000
0001
1000
0001
0000
0000
0000
0000
0000
0000
0000
0010
0000
0000
0000
0000
0000
0100
0000
,
1000
0000
0010
0100
0001
0000
1000
0100
0010
0000
0001
1000
0010
0000
0000
0000
,
0100
0000
0001
0000
1000
0000
0100
0000
1000
0000
0001
0000
0100
0000
0010
0000
1000
0000
0001
0000
0000
1001
0000
0000
,
1000
0000
0001
0000
1000
0000
0001
0010
0000
0000
0100
0000
1000
0000
0001
0100
,
0000
0000
0010
0000
1000
0000
0100
0010
0000
0000
0000
0000
0001
0000
0000
1000
,
0001
0100
0000
0010
1000
0001
1000
0000
0100
0000
0010
0001
1000
0001
1000
0000
,
0001
0010
0001
0100
0010
1000
0001
0100
0010
1000
0100
0010
0100
0000
1000
0000
,
0001
0000
0100
0000
0010
0000
0100
0001
0000
0000
1000
0000
0100
0010
0001
1000
,
0000
0100
0000
0010
0000
0001
0000
1000
0000
0000
0000
0000
0010
0000
0000
0100
,
0001
1000
0000
0100
0010
0000
0000
0100
0000
0000
0000
0000
1000
0000
0000
0000
,
0010
0100
0000
0010
1000
0000
0001
0000
2001
0000
3000
0000
1020
0000
0030
0000
,
2000
0000
0000
0000
0000
0000
3000
0000
0000
0001
0100
0001
2000
0000
0000
0000
0000
0000
3000
0000
0000
0001
0100
0001
,
2000
0000
0000
0000
0000
0000
3000
0000
0000
0001
0100
0001
1000
0000
0000
0001
0000
0000
0100
0000
0000
0001
0000
0000
,
0020
0000
0000
0000
0000
0000
0030
0000
0000
0001
1000
0001
0020
0000
0000
0000
0000
0000
0030
0000
0000
0001
1000
0001
,
0020
0000
0000
0000
0000
0000
0000
0000
0000
0000
0000
0000
0030
0000
0000
0000
0000
0000
0001
0000
0000
0100
0000
0000
0010
0000
0000
0000
0000
0000
0100
0000
0000
0000
0000
0000
0001
0000
0100
0000
0001
0000
1000
0000
0000
0000
0000
0000
,
0002
0000
0000
0000
0003
0000
1000
0100
0010
0000
0001
0100
0010
0000
0100
0001
,
1000
0000
0000
0000
0000
0000
0000
0000
0000
0000
0000
0000
0000
0000
0000
0000
0000
0000
0000
0000
0000
0000
0000
0000
0010
0000
0000
0000
0000
0000
0000
0000
0000
0000
0000
0000
0100
0000
0000
0000
0000
0000
0000
0000
0000
0000
0000
0000
0002
0000
0000
0000
0000
0000
0000
0000
0000
0000
0000
0000
0000
0000
0000
0000
0000
0000
0000
0000
0000
0000
0000
0000
0003
0000
0000
0000
0000
0000
0000
0000
0000
0000
0000
0000
0000
0000
0000
0000
0000
0000
0100
0000
0000
0000
0000
0000
0001
0000
0000
0000
0000
0000
0000
0000
0000
0000
0000
0000
0000
0000
0000
0000
0000
0000
0000
0000
0000
0000
0000
0000
0100
0000
0000
0000
0000
0000
0000
0000
0010
0000
0000
0000
0000
0000
0000
0000
1000
0000
0000
0000
0000
0000
0000
0000
0001
0000
0000
0000
0000
0000
0000
0000
0000
0000
0000
0000
0000
0000
0000
0000
0000
0000
0000
0000
0000
0000
0000
0000
1000
0000
0000
0000
0000
0000
0000
0000
0000
0000
0000
0000
0000
0000
0000
0000
0000
0000
0000
0000
0000
0000
0000
0000
,
0200
0000
0000
0000
0000
0000
0300
0000
0000
1000
0001
1000
0200
0000
0000
0000
0000
0000
0300
0000
0000
1000
0001
1000
,
0100
0000
0000
0000
0000
0000
1000
0000
0001
0000
1000
0000
0100
0000
0000
0000
0000
0000
1000
0000
0001
0000
1000
0000
0100
0000
0000
0010
0000
0000
0001
0000
0000
0010
0000
0000
0100
0000
0000
1000
0000
0000
0010
0000
0000
1000
0000
0000
,
0001
0000
0000
0100
0001
1000
0001
0000
0000
0100
0001
1000
0002
0000
0000
0000
0000
0000
0003
0000
0000
0100
0001
1000
,
0002
0000
0000
0000
0003
0000
1000
0001
0010
0000
0001
0100
0010
0000
0100
0001
,
1000
0000
0000
0001
0100
0010
1000
0000
0000
0001
0010
0100
1000
0000
0000
0010
0100
0001
2000
0000
0000
0000
0000
0000
,
3000
0000
0100
1000
0001
0000
0100
0010
2000
0000
0000
0000
3002
0000
0000
0000
,
0203
0000
0000
0000
0000
0000
0300
0000
0000
0001
0010
0100
1000
0000
0000
0001
0100
0010
1000
0000
0000
0001
0010
0100
,
1000
0000
0000
0000
0000
0000
0001
0000
0100
0000
0010
0000
1000
0000
0000
0000
0000
0000
0100
0000
0000
0000
0000
0000
0010
0000
0000
0000
0000
0000
0001
0000
0000
0000
0000
0000
1000
0000
0000
0100
0000
0000
0010
0000
0000
0100
0000
0000
,
2000
0000
0000
0000
0000
0000
3000
0000
0000
0001
0010
0001
2000
0000
0000
0000
0000
0000
3000
0000
0000
0001
1000
0100
,
0020
0000
0000
0000
0030
0000
0001
0100
0020
0000
0000
0000
2030
0000
0000
0000
,
3002
0000
0000
0003
,
0010
0100
0010
0001
1000
0000
0001
0000
0100
0010
1000
0000
0001
0000
0010
0000
,
0100
0000
0000
1000
0001
0000
0100
0000
0010
1000
0001
0000
1000
0100
1000
0100
,
0010
0000
0000
0000
0001
0000
1000
0000
0010
0000
1000
0000
0100
0000
1000
0000
0001
0000
0100
0000
0001
0000
1000
0000
0001
0100
0001
0000
0100
0000
0010
0000
,
1000
0000
0001
0000
0100
0000
0001
0000
0100
0000
0010
0000
2000
0000
0000
0000
0000
0000
3000
0000
0000
0000
0000
0000
0100
0000
0000
1000
0000
0000
0001
0000
0000
0010
0000
0000
0100
0000
0000
0000
0000
0000
1000
0000
0000
0001
0000
0000
,
0000
0100
0000
0010
1000
0000
0001
0010
0100
0000
1000
0000
0001
0000
0100
0000
,
0010
1000
0000
0001
0000
0101
0000
0100
0000
0010
0000
1000
0100
0000
0010
0000
,
0001
0100
0000
0010
1000
0000
0001
0000
1000
0001
0010
0100
1000
0000
0010
0000
,
1000
0010
0000
0100
0001
0000
1000
0000
0100
0000
0010
0001
1000
1000
0000
0010
,
0000
1000
0000
0001
0100
0000
0001
1000
0010
0000
0010
0000
1000
0000
0001
0000
,
1000
0100
0000
0002
0000
0003
0000
0100
0000
0000
1000
0000
0001
0010
0000
0100
,
0000
0100
0000
1000
0001
0000
0100
0000
0010
0100
0001
1000
0100
0000
0010
0000
,
0001
0100
0000
0010
1000
0000
0001
0000
0020
0000
0030
0000
0200
0000
0300
0000
,
2000
0000
0000
0000
3000
0000
0200
0000
0000
0000
0300
0000
0000
0000
0000
0000
0020
0000
0000
0000
0030
0000
0001
1000
0002
0000
0000
0000
0003
0000
0000
0000
,
2000
0000
0000
0000
3000
0000
0010
0100
0020
0000
0000
0000
0030
0000
0000
0000
2000
0000
0000
0000
3000
0000
0200
0000
0000
0000
0000
0000
0000
0000
0000
0000
,
0000
0000
00M0
M000
00M0
000M
000M
000M
000M
000M
000M
000M
,
0000
000M
0000
030M
0000
0000
2002
0000
0000
0000
0000
00M0
,
3M00
0000
0000
0000
00M0
0000
0000
0000
M000
0000
0000
0000
M000
0000
0000
0000
M000
0000
0000
0000
M000
0000
0000
0000
M000
0000
0000
0000
0000
0000
0000
0000
0000
M000
0000
0000
0M00
0000
0000
0000
M000
0000
0003
0000
0000
0000
0000
0000
,
0000
0000
0000
0000
0000
0000
0000
0000
0000
0000
0000
0000
0202
0000
0000
0000
0000
0000
0000
0000
0000
0000
0000
0000
0000
0000
0000
0000
0000
0000
00M0
0000
M000
0000
00M0
0000
M000
0000
00M0
0000
0000
0000
M000
0000
0000
00M0
0000
0000
,
M000
0000
0000
0000
00M0
0000
0000
0000
M000
0000
0000
0000
00M0
0000
0000
0000
0000
0000
M000
0000
0000
0000
0000
0000
00M0
0000
0000
0000
0000
0000
M000
0000
0000
0000
0000
0000
00M0
0000
0000
0000
0000
0000
0000
0000
0000
M000
0000
0000
,
03M0
M000
00M0
0000
0000
0M00
00M0
0M00
0000
00M0
0000
0000
M000
0000
0000
0000
0000
0M00
0000
0000
0000
0000
0000
0000
,
0M00
0000
0000
00M3
0000
0000
0000
0000
0000
0000
0000
0000
0000
0000
0000
0000
;
