#TITLE:Future Invasion;
#SUBTITLE:;
#ARTIST:YMCK;
#TITLETRANSLIT:;
#SUBTITLETRANSLIT:;
#ARTISTTRANSLIT:;
#GENRE:;
#CREDIT:;
#BANNER:invasion bn.png;
#BACKGROUND:invasion bg.png;
#LYRICSPATH:;
#CDTITLE:;
#MUSIC:future invasion.ogg;
#OFFSET:-0.010;
#SAMPLESTART:41.000;
#SAMPLELENGTH:12.000;
#SELECTABLE:YES;
#BPMS:0.000=150.000;
#STOPS:;
#BGCHANGES:;
#KEYSOUNDS:;

//---------------dance-single - zimlord----------------
#NOTES:
     dance-single:
     zimlord:
     Challenge:
     15:
     1.000,0.000,0.023,0.344,1.000: // measure 1
0000
0000
0000
0000
,  // measure 2
0000
0000
0000
0000
,  // measure 3
0000
0000
0000
0000
,  // measure 4
0000
0000
0000
0000
,  // measure 5
0000
0000
0000
0000
,  // measure 6
0000
0000
0000
0000
,  // measure 7
0000
0000
0000
0000
,  // measure 8
0000
0000
0000
0000
0000
0000
0000
0000
0000
0000
0000
0000
0000
0000
0000
0000
0000
0000
0000
0000
0000
0000
0000
0000
1000
0000
0100
0000
1000
0000
0001
0000
0100
0000
0001
0000
1000
0000
0000
0001
0000
0000
0010
0000
0000
0000
0000
0000
,  // measure 9
1002
0000
1003
0000
0001
0100
0001
0100
0010
1000
0001
0000
1000
0100
1000
0100
,  // measure 10
0010
0001
0100
0000
0010
0100
0010
0100
0001
1000
0001
0000
0010
0001
1000
0001
,  // measure 11
0100
0010
0100
0000
0010
1000
0010
1000
0100
0010
0001
0000
0100
0001
0100
0001
,  // measure 12
0010
0100
1000
0000
0100
0010
0100
0010
0001
1000
0001
0000
0100
0001
0100
0010
,  // measure 13
1000
0001
0010
0000
0001
1000
0001
1000
0100
0010
0100
0000
0010
0001
0010
0001
,  // measure 14
0100
0010
0100
0000
0010
1000
0010
1000
0001
0100
0010
0000
1000
0010
1000
0100
,  // measure 15
0010
0001
0100
0000
0001
1000
0001
1000
0010
0100
0001
0000
0010
0001
0010
0001
,  // measure 16
1000
0100
0010
0000
0100
1000
0100
1000
0001
1000
0001
0000
0100
0001
1000
0001
,  // measure 17
0010
0100
2000
0000
3002
0000
0003
0000
0200
0000
0302
0000
0003
0000
0000
0000
,  // measure 18
2000
3000
0200
0320
0030
0002
0003
2000
,  // measure 19
0001
0010
0000
0100
0000
0010
0100
3001
,  // measure 20
1000
0100
0010
0000
0001
1000
0001
0100
0010
1000
0100
0000
0010
0001
0010
0001
,  // measure 21
1000
0100
0020
0000
0032
0000
2003
0000
3002
0000
0203
0000
0300
0000
0000
0000
,  // measure 22
0002
0003
2000
3200
0300
0020
0030
0002
,  // measure 23
0010
1000
0100
0010
0100
1000
0010
0100
,  // measure 24
0010
1000
0100
0010
0100
1000
0010
0100
,  // measure 25
1003
0100
1000
0001
0100
0010
0100
0001
1000
0100
0010
0001
1000
0001
0100
0010
,  // measure 26
0100
0000
0000
0001
0000
0000
0100
0000
0000
0001
0000
0000
1000
0000
0100
0000
1000
0000
0100
0000
0010
0000
0001
0000
1000
0000
0010
0000
1000
0000
0001
0000
0010
0000
0001
0000
1000
0000
0000
0100
0000
0000
1000
0000
0000
0100
0000
0000
,  // measure 27
0020
0000
0031
0100
0010
1000
0010
1000
0001
0010
0100
0010
0001
1000
0100
1000
,  // measure 28
0001
0000
0100
0000
0001
0000
1000
0000
0000
0001
0000
0000
0000
0000
0000
0100
0000
0000
0001
0000
0000
1000
0000
0000
0010
0000
0000
0100
0000
0000
0010
0000
0000
0100
0000
0000
0001
0000
0000
1000
0000
0000
0100
0000
0000
0010
0000
0000
,  // measure 29
0002
0000
1003
0010
0100
0010
0100
0001
1000
0100
0010
0100
1000
0001
0100
0001
,  // measure 30
1000
0000
0100
0000
1000
0000
0001
0000
0000
1000
0000
0000
0000
0000
0000
0001
0000
0000
0100
0000
0000
0001
0000
0000
0000
0000
0000
1000
0000
0000
0100
0000
0000
1000
0000
0000
0001
0000
0000
0100
0000
0000
0010
0000
0000
0000
0000
0000
,  // measure 31
1002
0000
1003
0100
0010
0001
0010
0100
1000
0001
0010
0001
0100
0010
0100
0001
,  // measure 32
1000
0000
0010
0000
1000
0000
0001
0000
0000
1000
0000
0000
0000
0000
0000
0100
0000
0000
0010
0000
0000
0001
0000
0000
1000
0000
0000
0100
0000
0000
1000
0000
0000
0001
0000
0000
0100
0000
0000
0010
0000
0000
0100
0000
0000
0001
0000
0000
,  // measure 33
1000
0000
0001
1000
0010
0100
0010
0100
0001
1000
0100
0000
0010
0001
0010
0001
,  // measure 34
1000
0000
0001
0000
1000
0000
0001
0000
0000
0100
0000
0000
0000
0000
0000
0001
0000
0000
1000
0000
0000
0001
0000
0000
1000
0000
0100
0000
0010
0000
0001
0000
0000
1000
0000
0000
0001
0000
0000
0100
0000
0000
0010
0000
0000
0100
0000
0000
,  // measure 35
0001
0000
1000
0000
0001
0000
1000
0000
0000
0100
0000
0000
0000
0000
0000
0000
0000
0000
0010
0000
0001
0000
0010
0000
0001
0000
0000
1000
0000
0000
0000
0000
0000
0000
0000
0000
0001
0000
0100
0000
0001
0000
0100
0000
0000
0010
0000
0000
,  // measure 36
0000
0000
0000
0000
0000
0000
1000
0000
0001
0000
1000
0000
0001
0000
1000
0000
0001
0000
1000
0000
0000
0100
0000
0000
0010
0000
0000
0001
0000
0000
1000
0000
0000
0001
0000
0000
0100
0000
0000
0010
0000
0000
0100
0000
0000
0001
0000
0000
,  // measure 37
1000
0000
0100
0000
1000
0000
0100
0000
0000
0010
0000
0000
0000
0000
0000
0000
0000
0000
0001
0000
1000
0000
0001
0000
1000
0000
0000
0010
0000
0000
0000
0000
0000
0000
0000
0000
0100
0000
0010
0000
0100
0000
0010
0000
0000
1000
0000
0000
,  // measure 38
0000
0000
0000
0000
0000
0000
0001
0000
1000
0000
0001
0000
1000
0000
0001
0000
1000
0000
0001
0000
0000
0100
0000
0000
0010
0000
0000
1000
0000
0000
0010
0000
0000
0100
0000
0000
0001
0000
0000
1000
0000
0000
0100
0000
0000
0010
0000
0000
,  // measure 39
0002
0000
1003
0100
1000
0100
0020
0000
0130
1000
0100
1000
0002
0000
0103
0010
,  // measure 40
0100
0000
0000
0010
0000
0000
1000
0000
0000
0100
0000
0000
1000
0000
0000
0001
0000
0000
0100
0000
0000
0001
0000
0000
1000
0000
0100
0000
0010
0000
0001
0000
0000
1000
0000
0000
0001
0000
0000
1000
0000
0001
0000
1000
0000
0001
0000
0000
,  // measure 41
0200
0000
0000
0000
0000
0000
0301
0000
0000
1000
0000
0000
0001
0000
0000
1000
0000
0000
0100
0000
0000
0010
0000
0000
0001
0000
1000
0000
0001
0000
0100
0000
0000
0010
0000
0000
0100
0000
0000
0001
0000
0000
1000
0000
0000
0001
0000
0000
,  // measure 42
1000
0000
0000
0100
0000
0000
0010
0000
0000
0100
0000
0000
1000
0000
0000
0001
0000
0000
0010
0000
0000
0001
0000
0000
1000
0000
0001
0000
1000
0000
0010
0000
0000
0100
0000
0000
0001
0000
0000
1000
0000
0000
0001
0000
0000
1000
0000
0000
,  // measure 43
0100
0010
0000
0000
0000
0011
0000
0000
0000
0001
1000
0001
0100
0010
0100
0001
,  // measure 44
2000
0000
0000
3100
0010
0001
0010
0001
1000
0010
1000
0001
0010
0100
0010
0001
,  // measure 45
0200
0000
0310
1000
0000
0000
0000
0000
0000
0001
1000
0100
0010
0001
1000
0001
,  // measure 46
0100
0000
0010
0000
0100
0000
0001
0000
0000
0100
0000
0000
0001
0000
0000
1000
0000
0000
0100
0000
0000
0010
0000
0000
0100
0000
0000
1000
0000
0000
0001
0000
0000
0100
0000
0000
0001
0000
0000
1000
0000
0000
0100
0000
0000
1000
0000
0000
,  // measure 47
0001
0100
0001
0100
0010
1000
0100
0010
0001
1000
0001
1000
0100
0010
0100
1000
,  // measure 48
0001
0010
0001
1000
0010
1000
0010
0100
0001
0010
0100
0010
0001
1000
0010
1000
,  // measure 49
0001
0100
0010
0100
0002
0000
0000
0013
0100
1000
0100
1000
0010
0100
0010
1000
,  // measure 50
0001
0000
0000
0000
0000
0000
1000
0000
0000
0001
0000
0000
0000
0000
0000
0200
0000
0000
0000
0000
0000
0310
0000
0000
0000
0000
0000
0100
0000
0000
0001
0000
0000
1000
0000
0000
0100
0000
0000
0000
1000
0000
0000
0000
0001
0000
0000
0000
,  // measure 51
2000
0000
3001
0100
0001
1000
0100
0010
0100
1000
0001
0100
0001
1000
0010
0100
,  // measure 52
0010
1000
0100
1000
0001
0010
0001
0010
0100
1000
0100
1000
0010
0100
0010
1000
,  // measure 53
0002
0000
0000
0403
0000
0000
0301
0000
0000
0001
1000
0010
0100
0001
0100
0001
,  // measure 54
1000
0000
0000
0010
0000
0000
0100
0000
0000
0010
0000
0000
1000
0000
0000
0001
0000
0000
0010
0000
0000
0001
0000
0000
1000
0000
0100
0000
1000
0000
0001
0000
0000
0010
0000
0000
0100
0000
0000
1000
0000
0000
0100
0000
0000
1000
0000
0000
,  // measure 55
0001
0010
0001
1000
0010
1000
0001
0100
0010
1000
0100
0010
,  // measure 56
0001
0100
0001
0100
0001
0100
0001
0100
0001
0100
0001
0100
0001
0100
0001
0100
0001
0100
0010
0100
0010
0100
0010
0100
,  // measure 57
0001
1000
0001
1000
0001
1000
0001
1000
0001
1000
0001
1000
0100
1000
0100
1000
0100
1000
0100
1000
0100
1000
0100
1000
,  // measure 58
0001
0100
0001
0100
0001
0100
0001
0100
0001
0100
0001
0100
0010
0100
0010
0100
0010
0100
0010
0100
0010
0100
0010
0100
,  // measure 59
0001
1000
0001
1000
0001
1000
0001
1000
0001
1000
0001
1000
0010
1000
0010
1000
0010
1000
0010
1000
0010
1000
0010
1000
,  // measure 60
0001
0100
0001
1000
0100
1000
0001
0010
0100
0010
0001
1000
0010
1000
0001
0100
0010
0100
0001
1000
0001
1000
0010
0100
,  // measure 61
0020
0000
0000
0030
0000
0000
1000
0100
1000
0100
1000
0100
0010
0100
0010
0100
0010
0100
1000
0001
1000
0001
1000
0001
,  // measure 62
0100
0010
0100
0001
1000
0001
1000
0100
0010
0001
0100
0010
1000
0010
1000
0010
0100
0010
0100
0001
1000
0100
0010
0001
,  // measure 63
2000
0000
0000
3000
0000
0000
0001
0100
0001
0100
0001
0100
0010
0100
0010
0100
0010
0100
0001
1000
0001
1000
0001
1000
,  // measure 64
0010
0100
0010
0100
0001
1000
0100
0010
0001
1000
0100
1000
0001
0100
0001
0100
0010
0100
0001
1000
0100
0010
0001
1000
,  // measure 65
0002
0000
0000
0003
0000
0000
0100
0001
0100
0001
0100
0001
1000
0001
1000
0001
1000
0001
0010
0100
0010
0100
0010
0100
,  // measure 66
1000
0001
1000
0001
0100
0001
1000
0010
0100
0010
1000
0001
0010
0100
0010
0001
1000
0100
1000
0001
0100
0001
1000
0001
,  // measure 67
2000
3001
0010
0001
0100
0010
1000
0010
,  // measure 68
0100
0001
0100
0001
1000
0001
0010
0100
0010
0001
1000
0100
1000
0001
1000
0010
0100
0010
1000
0001
0010
0100
0010
0001
,  // measure 69
2000
3100
0010
0100
2000
3001
0100
0001
,  // measure 70
1000
0010
1000
0001
0010
0001
0100
0010
0100
0001
0100
0010
1000
0001
0010
0100
0010
0001
1000
0100
1000
0100
0010
0001
,  // measure 71
2000
3001
0100
0001
0020
0130
1000
0100
,  // measure 72
0020
0000
0000
0000
0000
0000
0230
0000
0000
0000
0000
0000
1300
0001
1000
0001
1000
0001
0100
0001
0100
0001
0100
0001
,  // measure 73
1000
0100
1000
0100
1000
0100
1000
0100
1000
0100
1000
0100
1000
0100
1000
0100
1000
0100
1000
0100
1000
0100
1000
0100
,  // measure 74
1000
0100
1000
0100
1000
0100
1000
0100
1000
0100
1000
0100
1000
0100
1000
0100
1000
0100
1000
0001
1000
0001
1000
0001
,  // measure 75
0100
0001
0100
0001
0100
0001
0100
0001
0100
0001
0100
0001
0100
0001
0100
0001
0100
0001
0100
0001
0100
0001
0100
0001
,  // measure 76
0100
0001
0100
0001
0100
0001
1000
0001
1000
0001
0100
0001
1000
0000
0100
0000
0010
0000
0001
0000
0100
0000
0010
0000
,  // measure 77
0200
0300
0000
0000
;
