#TITLE:Destination;
#SUBTITLE:~Rapture~;
#ARTIST:ZaG-X Vs. Renard;
#TITLETRANSLIT:;
#SUBTITLETRANSLIT:;
#ARTISTTRANSLIT:;
#GENRE:;
#CREDIT:;
#BANNER:Destination Rapture-bn.png;
#BACKGROUND:Destination Rapture-bg.png;
#LYRICSPATH:;
#CDTITLE:;
#MUSIC:Destination Rapture.ogg;
#OFFSET:0.009;
#SAMPLESTART:20.120;
#SAMPLELENGTH:12.000;
#SELECTABLE:YES;
#BPMS:0.000=71.667,24.000=215.000,120.000=35.833,124.000=71.667,138.000=143.333,140.000=215.000,239.000=46.666;
#STOPS:138.000=0.419
,139.000=0.419
,188.000=0.558
,189.000=0.558
,238.000=0.558
;
#BGCHANGES:;
#KEYSOUNDS:;

//---------------dance-single - R. Uchima----------------
#NOTES:
     dance-single:
     R. Uchima:
     Challenge:
     15:
     0.971,0.976,0.319,0.053,1.000:
0000
0000
0000
0000
,
0000
0000
0000
0000
,
1000
0000
0000
0000
0100
1000
0100
0000
0010
0000
0001
0000
0100
0000
0000
0010
1000
0000
0100
0000
0000
0000
1000
0000
,
0001
0000
0100
0000
0001
0000
0010
0000
0000
0100
1000
0000
0010
0000
0100
0000
0001
0000
0010
0000
0100
0000
0010
0000
,
0001
0000
0000
0000
0100
0010
0100
0000
0010
0000
1000
0000
0100
0000
0000
0010
0001
0000
1000
0000
0000
0010
1000
0000
,
0100
0010
0001
1000
0010
0100
0001
0100
0010
1000
0001
1000
0100
0010
0100
1000
0001
0100
0010
0000
0010
0000
0110
0000
,
0100
0001
0100
0010
0100
0000
0010
0000
0000
0000
0010
0000
0100
0001
0100
0000
,
0001
0010
0001
0000
0010
0000
0100
0000
1000
0001
1000
0000
0010
0100
0010
1000
,
0001
0010
0100
0000
1000
0000
0001
0000
1000
0010
1000
0000
0001
0000
0010
0000
,
0001
1000
0001
0100
0010
0000
0100
0000
0000
0000
0100
0000
0010
0100
0010
0000
,
1000
0010
1000
0000
0001
0000
0010
0000
0100
0000
1000
0000
0001
1000
0001
0100
,
0010
1000
0010
0000
0100
0000
0010
0000
0100
0001
0100
0000
0001
0000
1000
0000
,
0001
0010
0100
0000
1000
0000
0010
0000
0000
0000
0010
0000
1000
0000
0100
0010
,
0000
0100
0010
0000
0001
0000
0100
0000
0001
0100
0010
0000
1000
0000
0100
0000
,
0000
0000
0100
0000
1000
0000
0010
0000
0100
0000
0001
1000
0001
0010
0100
1000
,
0001
0100
0001
0000
1000
0000
0100
0000
0000
0000
0100
0000
1000
0000
0010
0100
,
0000
0010
0100
0000
0001
0000
1000
0000
0010
0100
0001
0000
1000
0000
0100
0000
,
0000
0000
0100
0000
1000
0000
0001
0000
0100
0000
0010
0100
0001
1000
0100
0010
,
0001
0010
0100
1000
0001
1000
0010
0100
0010
1000
0010
0100
0001
1000
0001
0010
,
0100
0010
0001
1000
0010
0100
0010
1000
0001
0010
0100
1000
0100
1000
0001
0010
,
0001
1000
0010
0100
0010
1000
0001
0010
0100
0010
0100
1000
0001
1000
0010
0100
,
0010
1000
0001
0100
0010
1000
0001
1000
0001
0010
0100
0010
0001
1000
0001
0100
,
0010
0100
0001
1000
0001
0010
0100
1000
0001
0010
0001
1000
0100
1000
0001
0100
,
0001
1000
0010
1000
0001
0010
0100
0010
0001
1000
0001
0100
0010
1000
0010
1000
,
0100
0010
0001
0010
0100
0010
0001
1000
0010
0100
0010
1000
0001
0100
0010
1000
,
0001
1000
0100
0010
0100
1000
0001
1000
0001
0100
0010
0100
0010
1000
0010
0100
,
0001
1000
0001
0010
0001
1000
0010
0100
0010
1000
0001
0010
0100
1000
0100
0010
,
0001
1000
0010
1000
0001
0010
0001
1000
0010
1000
0001
0100
0001
0100
0010
1000
,
0001
0010
0100
1000
0100
1000
0001
0100
0001
1000
0100
1000
0001
0100
0010
1000
,
0001
1000
0010
0100
0010
1000
0001
0010
0100
1000
0100
0010
0001
0000
1000
0000
,
2002
0000
0000
0000
0000
0000
0000
0000
0000
0000
0000
0000
0000
0000
0000
0000
0000
0000
0000
0000
0000
0000
0000
0000
0000
0000
0000
0000
0000
0000
0000
0000
0000
0000
0000
0000
0000
0000
0000
0000
0000
0000
0000
0000
0000
0000
0000
0000
0000
0000
0000
0000
0000
0000
0000
0000
0000
0000
0000
0000
0000
0000
0000
0000
0000
0000
0000
0000
0000
0000
0000
0000
0000
0000
0000
0000
0000
0000
0000
0000
0000
0000
0000
0000
0000
0000
0000
0000
0000
0000
0000
0000
0000
0000
0000
0000
0010
0000
0000
0000
0000
0000
0000
0000
0000
0000
0000
0000
0000
0000
0000
0000
0000
0000
0000
0000
0000
0000
0000
0000
0000
0000
0000
0000
0000
0000
0000
0000
0000
0000
0000
0000
0000
0000
0000
0000
0000
0000
3003
0000
0000
0000
0000
0000
1001
0000
0000
0000
0000
0000
0000
0000
0000
0000
0000
0000
0000
0000
0000
0000
0000
0000
0000
0000
1000
0000
0000
0000
0100
0000
0000
0000
0010
0000
0000
0000
0001
0000
0000
0000
0010
0000
0000
0000
0100
0000
0000
0000
1000
0000
0000
0000
,
0001
0000
0000
0100
0010
0000
1010
0000
1000
0000
0100
0000
0010
0000
0001
0000
0000
0100
0101
0000
0001
0100
0001
0000
,
1000
0000
0010
0000
1000
0010
1010
0000
0010
0000
0100
0001
0100
0000
0001
0000
0010
0100
1100
0000
0100
0010
0001
1000
,
1010
0000
0100
0000
0001
0000
1001
0000
0000
1000
0100
0000
0010
0001
0010
0000
0001
0000
0101
0000
0100
0000
0010
0000
,
0100
0001
0100
0000
0010
0000
1100
0000
0100
0000
0010
0000
0011
0000
0000
0000
0000
0000
1100
0000
0000
0000
0000
0000
,
1001
0000
0010
0101
0000
0010
1100
0000
,
1010
0000
1000
0001
0011
0000
0010
0110
,
0000
1100
0000
0011
0000
1001
0001
0000
,
1000
0100
0100
0010
0100
0100
1000
0001
,
0001
0100
0010
0010
1000
0100
0010
0001
,
0000
0011
0000
1001
0000
1000
0010
0000
,
1010
0000
1000
0100
0000
0100
1001
0000
,
0001
0100
0000
0100
1010
0000
1000
0011
,
0000
0001
0110
0000
0100
1000
0100
0010
,
0110
1100
1001
1010
,
0010
0100
0001
0000
0001
0100
0010
0000
,
1000
0000
0100
0010
0001
0000
1000
0000
,
1001
0000
0000
0000
1011
0000
0000
0000
1000
0010
1000
0001
1000
0001
1000
0010
,
0100
0001
1000
0100
0010
0001
0010
0001
0010
0100
0010
0001
1000
0001
1000
0010
,
0100
0010
1000
0001
0010
0100
1000
0001
0100
0010
1000
0010
0100
0010
1000
0001
,
1000
0100
0010
0001
1000
0100
1000
0001
0100
0010
0100
0001
1000
0100
0010
0001
,
1000
0100
0010
0001
1000
0001
0100
0010
1000
0001
0010
0001
1000
0100
0010
0100
,
1000
0001
0010
0100
1000
0001
0100
0010
1000
0001
1000
0100
0010
0100
1000
0001
,
0100
0010
0100
0001
1000
0010
0100
0001
0010
0100
0010
0001
0010
0100
0010
0001
,
1000
0001
0100
0010
1000
0001
1000
0100
1000
0001
1000
0010
0100
0001
0100
0010
,
1000
0001
1000
0100
0010
0001
0010
0100
1000
0001
0100
0001
1000
0100
0010
0001
,
1000
0001
0100
0010
1000
0001
0010
0100
1000
0100
0010
0001
1000
0001
0010
0100
,
1000
0001
0010
0001
1000
0010
0100
0001
1000
0001
1000
0010
0100
0001
1000
0100
,
0010
0001
0010
0100
1000
0001
0010
0100
1000
0001
0100
0001
0010
0000
0100
0000
,
1000
0010
0100
0002
2000
0000
0010
3003
,
1000
0000
0100
0000
0010
0000
0001
0000
0010
0000
0100
0000
1000
0000
0001
0000
0100
0000
0010
0000
0000
1000
0100
0000
,
0010
0000
0001
0000
0010
0000
0001
0000
0000
0100
0010
0000
1000
0000
0100
0000
1000
0000
0010
0000
0100
0001
0100
0010
,
0100
0000
0000
0000
0000
0000
0000
0000
0000
0000
0000
0000
0000
0000
0000
0000
0010
0000
0000
0000
0000
0000
0000
0000
1000
0000
0000
0000
0000
0000
0000
0000
0010
0000
0000
0000
0000
0000
0000
0000
0100
0000
0000
0000
0000
0000
0000
0000
0010
0000
0000
0000
0000
0000
0000
0000
1000
0000
0000
0000
0000
0000
0000
0000
0001
0000
0000
0000
0000
0000
0000
0000
1000
0000
0000
0000
0000
0000
0000
0000
0010
0000
0000
0000
0000
0000
0000
0000
1000
0000
0000
0000
0000
0000
0000
0000
0100
0000
0000
0000
0000
0000
0000
0000
0000
0000
0000
0000
0000
0000
0000
0000
0000
0000
0000
0000
0000
0000
0000
0000
1100
0000
0000
0000
0000
0000
0000
0000
0000
0000
0000
0000
0000
0000
0000
0000
0000
0000
0000
0000
0000
0000
0000
0000
2000
0000
0002
0000
0000
0000
0000
0000
0000
0000
0000
0000
0000
0000
0000
0000
0000
0000
0000
0000
0000
0000
0000
0000
0000
0000
0000
0000
0000
0000
0000
0000
0000
0000
0000
0000
0000
0000
0000
0000
0000
0000
0000
0000
0000
0000
0000
0000
,
3003
0000
0000
0000
;

//---------------dance-single - R. Uchima----------------
#NOTES:
     dance-single:
     R. Uchima:
     Hard:
     11:
     0.732,0.976,0.292,0.053,0.558:
0000
0000
0000
0000
,
0000
0000
0000
0000
,
1000
0100
0010
0001
1000
0001
0100
0010
0100
0001
0010
0100
,
1000
0100
1000
0010
0100
0001
0010
0100
1000
0010
0100
0010
,
1000
0100
0010
0001
0010
0100
1000
0001
0100
0010
0100
0001
,
1000
0100
1000
0001
0010
0001
1000
0010
1000
0001
0100
0001
1000
0100
0010
0001
0010
0100
1000
0000
1000
0000
1100
0000
,
1001
0001
0100
0010
0000
0010
0100
0001
,
0010
0000
0100
0000
1000
0000
0001
0000
0100
0010
0100
0000
0001
0100
0001
0000
,
1000
0100
1000
0000
0100
0000
0010
0000
0100
0000
1000
0000
0001
0000
0100
0000
,
0010
1000
0010
0000
1000
0000
0100
0000
0000
0000
0100
0000
1000
0000
0010
0000
,
0100
0000
0001
0000
0100
0000
0010
0000
1000
0000
0100
0000
0010
0001
0010
0000
,
0001
1000
0010
0100
0001
0010
0100
0010
,
0001
1000
0001
0000
0100
0000
0010
0000
0000
0000
0010
0000
1000
0000
0100
0000
,
0010
0000
0100
0000
1000
0000
0010
0000
0100
0001
0100
0000
0001
0000
0010
0000
,
0000
0000
0010
0000
0100
0000
1000
0000
0010
0000
1000
0000
0100
0010
0100
0000
,
1000
0100
1000
0000
0001
0000
0100
0000
0000
0000
0100
0000
0010
0000
1000
0000
,
0100
0000
0010
0000
0001
0000
0100
0000
0010
1000
0010
0000
1000
0000
0100
0000
,
0000
0000
0100
0000
0010
0000
0001
0000
0100
0000
0010
0100
0010
0100
0001
1000
,
0001
1000
0100
1000
0010
0100
1000
0100
,
0010
1000
0100
0001
0100
1000
0001
0100
,
0010
0100
1000
0100
0001
0010
0100
0001
,
0100
1000
0001
0100
0010
0001
0010
1000
,
0100
0001
0100
0010
0001
0100
1000
0100
,
0010
0000
1000
0000
0001
0000
0010
0000
1000
0000
0010
0000
0100
1000
0100
1000
,
0100
1000
0010
0100
0001
0010
1000
0010
,
0100
1000
0010
0100
0001
0100
1000
0100
,
0010
1000
0001
0010
1000
0010
0100
1000
,
0001
0100
0010
1000
0100
1000
0010
0100
,
0001
0010
0100
0001
0100
1000
0010
0001
,
0010
0000
0100
0000
0001
0000
0010
0000
0100
0000
0010
0000
0001
1000
0001
2000
,
0002
0000
0000
0000
0000
0000
0000
0000
0000
0000
0000
0000
0000
0000
0000
0000
0000
0000
0000
0000
0000
0000
0000
0000
3003
0000
0000
M00M
0000
0000
0000
0000
0000
0000
0000
0000
0000
0000
0000
0000
0000
0000
1000
0000
1000
0000
1000
0000
,
1001
0000
0101
0000
0000
0100
0001
0000
0010
0000
0100
0000
1100
0000
1010
0000
0000
1000
0010
0000
0100
0001
0010
0000
,
0110
0000
1100
0000
0100
0010
0100
0000
1000
0000
0010
0000
1010
0000
1001
0000
0000
0001
0010
0000
0100
1000
0010
0000
,
1010
0000
1100
0000
0000
1000
0100
0000
0010
0000
0001
0000
0101
0000
0110
0000
0000
0010
1000
0000
0100
0010
0001
0000
,
0101
0000
0110
0000
0000
0010
1000
0000
0100
1000
0010
0000
1010
0000
0000
0000
0000
0000
1001
0000
0000
0000
0000
0000
,
1000
0100
0010
0100
1000
0100
0010
0001
,
0100
0000
0001
0000
0010
0001
0010
0100
,
0010
0001
0010
0100
1000
0000
0010
0000
,
0100
0001
0100
0001
0010
0001
1000
0100
,
1000
0010
0100
0010
1000
0100
0010
0001
,
0000
0011
0000
1001
0000
1000
0010
0000
,
1010
0000
1000
0100
0010
0001
1001
0000
,
1000
0010
1000
0100
0110
0000
0010
0011
,
0000
0001
0101
0000
0100
0010
1000
0100
,
0110
0011
0110
1100
,
1000
0010
0100
0000
0100
0010
1000
0000
,
1010
0000
0010
1000
0100
0000
1100
0000
,
2002
0000
3003
0000
M00M
0000
0000
0000
0001
0010
0001
0000
0010
0000
0100
0000
,
1000
0000
0001
0000
0100
0010
0100
0000
0001
0000
0010
0000
0001
0000
0100
0000
,
0010
1000
0010
0000
1000
0000
0100
0000
0010
0000
0001
0000
1000
0010
1000
0000
,
0001
0010
0001
0000
1000
0010
1000
0000
0100
0010
0100
0000
1000
0000
0010
0000
,
0100
0000
0001
0000
0010
0001
0010
0000
0100
0000
1000
0000
0010
0000
0100
0000
,
0001
0100
0001
0000
0100
0000
0010
0000
1000
0000
0100
0000
0010
0001
0010
0000
,
0001
1000
0001
0000
1000
0010
1000
0000
0010
0100
0010
0000
0100
0000
0001
0000
,
0010
0000
0100
0000
1000
0001
1000
0000
0010
0000
1000
0000
0100
0000
0010
0000
,
0001
1000
0001
0000
1000
0000
0010
0000
0100
0000
0001
0000
0010
0100
0010
0000
,
0100
1000
0100
0000
1000
0010
1000
0000
0010
0100
0010
0000
0100
0000
0001
0000
,
0100
0000
0001
0000
1000
0100
0010
0000
0001
0000
0100
0000
0010
0000
0100
0000
,
0001
0010
0100
0000
1000
0000
0010
0000
0100
0000
0001
0000
0010
0000
1000
0000
,
0010
1000
0010
0100
1000
0000
1001
0000
,
0000
0000
0000
0000
0000
0000
0000
0000
0000
0000
0000
0000
0000
0000
0000
0000
0000
0000
0010
0000
0001
0010
0001
0000
,
0100
0000
0010
0000
1000
0000
0100
0000
0010
0100
0010
0000
0100
0000
1000
0000
0010
0000
0100
0000
0001
0100
0001
0100
,
0010
0000
1000
0100
1000
0100
0010
0001
1000
0001
0010
0100
1000
0000
0000
0020
0000
0000
0200
0000
0000
0000
0000
0000
,
0330
0000
0000
0000
;

//---------------dance-single - R. Uchima----------------
#NOTES:
     dance-single:
     R. Uchima:
     Medium:
     8:
     0.488,0.641,0.115,0.053,0.270:
0000
0000
0000
0000
,
0000
0000
0000
0000
,
1000
0000
0001
1000
0100
0010
0001
0000
0100
0010
0000
0010
,
1000
0001
1000
0100
0000
0100
0010
0001
1000
0010
0100
0010
,
1000
0000
1000
0100
0010
0001
0100
0000
0100
0010
0000
0010
,
1000
0100
1000
0001
0010
0001
0100
0010
0100
0001
1000
1001
,
1001
0000
1000
0100
0000
0100
1000
0000
,
0010
0000
0100
0000
0001
0100
0001
0100
,
0000
0100
0010
0000
1000
0000
0100
0000
,
0010
0001
0010
0001
0000
0001
1000
0000
,
0010
0000
0100
0000
0001
1000
0001
1000
,
0000
1000
0010
0000
0100
0000
0001
0000
,
0010
0001
0010
0100
0000
0100
1000
0000
,
0010
0000
0100
0000
0001
0100
0001
1000
,
0000
1000
0010
0000
1000
0000
0100
0000
,
0010
0001
0010
0100
0000
0100
1000
0000
,
0010
0000
0100
0000
0001
0100
0010
1000
,
0000
1000
0001
0000
0010
0000
0100
0000
,
1000
0100
1000
0000
0100
0000
0010
0001
,
0010
0000
0001
0000
1000
0010
1000
0000
,
0010
0000
1000
0100
1000
0000
0100
0000
,
0010
0001
0010
0000
0001
0000
0100
0010
,
0100
0000
0010
0000
1000
0001
1000
0100
,
0000
0100
0010
0000
0001
1000
0001
0000
,
0100
0010
1000
0001
0000
0001
1000
0000
,
1000
0100
1000
0000
1000
0001
1000
0010
,
0000
0010
0100
0000
0001
0100
0001
0000
,
0010
0100
1000
0100
0000
0100
1000
0000
,
0010
0100
0010
0000
0100
0001
0100
0010
,
0000
0010
1000
0000
0100
1000
0100
1000
,
0002
0000
0000
0000
0000
0000
0000
0000
0000
0000
0000
0000
2000
0000
0000
0000
0000
0000
3003
0000
0000
1000
1000
1000
,
1001
0000
0001
1000
0100
0010
0001
0100
0000
0110
0000
0010
,
1000
0010
0100
0001
0010
0100
1000
0100
0010
0001
1000
0001
,
0100
0010
1000
0010
0000
0010
1000
0100
0010
0001
0010
0001
,
0100
0010
1000
0010
0100
0001
0010
0000
0000
0100
0000
0000
,
1000
0000
1000
0010
0000
0010
0100
0000
,
0100
0000
0001
0000
0001
0000
0010
0100
,
0000
1000
0000
0010
0000
0100
0001
0000
,
1000
0000
1000
0001
0000
0001
0010
0000
,
0010
0100
0000
0100
1000
0000
1000
0001
,
0000
1000
0000
0010
0000
0100
0001
0000
,
0101
0100
0010
1010
,
1000
0000
0100
0000
0110
0000
0000
0011
,
0000
1001
1000
0010
,
0100
0110
1001
0110
,
0010
1000
0010
0000
1000
0010
1000
0000
,
0100
0000
0010
0001
0010
0000
0001
0000
,
0200
0000
0310
0000
0100
0000
0010
1000
,
0000
1000
0100
0000
0010
0001
0010
0000
,
0001
0000
0100
0010
0000
0010
1000
0000
,
0100
0010
0100
0000
1000
0000
0010
0100
,
0000
0100
0001
0000
0010
0100
0010
0000
,
0100
0000
1000
0001
0000
0001
1000
0000
,
0100
1000
0100
0000
0010
0000
0001
0100
,
0000
0100
0010
0000
1000
0100
1000
0100
,
0010
0000
0010
0001
0000
0001
0100
0000
,
0010
0100
0001
0100
0010
0000
0010
1000
,
0000
1000
0001
0000
0010
0100
1000
0100
,
0010
0000
0010
0001
0000
0001
0100
0010
,
0100
0001
0100
0010
0200
0000
0301
0000
,
0000
0000
0000
0000
0000
0000
0000
0000
0000
0001
0000
0001
,
1000
0100
1000
0010
0000
0010
0100
0001
0010
0100
0000
0100
,
1000
0000
0000
0000
1000
0000
0010
0000
1000
0000
0010
0000
0100
0000
0000
0001
0000
0000
0022
0000
0000
0000
0000
0000
,
0033
0000
0000
0000
;

//---------------dance-single - R. Uchima----------------
#NOTES:
     dance-single:
     R. Uchima:
     Easy:
     6:
     0.396,0.362,0.097,0.274,0.075:
0000
0000
0000
0000
,
0000
0000
0000
0000
,
1000
0001
0100
0010
,
1000
0100
1000
0010
,
0100
0001
0010
0100
,
1000
0000
1000
0001
0000
0001
1000
0000
1000
0001
0000
1001
,
1001
1000
0100
2000
,
3020
2030
3100
0010
,
0001
0200
0320
0230
,
0301
0010
0100
2000
,
3200
2300
3010
0100
,
0001
0200
0302
0203
,
0310
1000
0100
0020
,
0032
0203
0310
1000
,
0010
0200
0302
0023
,
0130
1000
0010
2000
,
3020
0230
0301
0010
,
0100
2000
3200
0320
,
0031
0000
0100
0000
0001
0100
0001
0000
,
0010
0100
1000
0010
,
0100
0001
0100
0000
0001
0000
0010
0000
,
0100
0000
1000
0000
0001
1000
0001
0000
,
1000
0010
0100
0001
,
0100
0010
0100
0000
0001
0000
1000
0000
,
1001
0000
1000
0000
0001
0010
0001
0000
,
1000
0010
0100
0001
,
0100
0010
0100
0000
0001
0000
0010
0000
,
0100
0000
1000
0000
0010
0100
0010
0000
,
1000
0100
1000
0010
,
0100
0001
0100
0000
0001
0000
1000
0002
,
2000
0000
3000
0003
,
1001
1000
0010
0100
,
0001
0010
0100
1000
,
1010
0000
1000
0010
0000
0010
0100
0000
0100
0001
0000
0001
,
0010
0000
0010
0100
0000
0100
2000
0000
0000
3001
0000
0000
,
0001
0000
0000
0100
0000
0000
0010
0000
,
0010
0000
0000
0000
1000
0000
1000
0100
,
0000
0100
0000
0100
0000
0100
1000
0000
,
0010
0000
0000
0100
0000
0000
0001
0000
,
0000
0010
0000
0000
0100
0000
0000
1000
,
0000
0100
0000
1000
0000
0100
1000
0000
,
1100
0000
0000
1010
,
0000
0000
0000
0000
0110
0000
0000
1001
,
0000
0110
0010
1000
,
0100
0100
0100
0010
,
0010
0001
0010
0000
0001
0010
0001
0000
,
0100
0000
0010
0100
0010
0000
0100
0000
,
0002
0000
1003
0000
0001
1000
0001
0000
,
1000
0100
0010
0001
,
0100
0010
0100
0000
0001
0000
1000
0000
,
0100
0000
1000
0000
0010
1000
0010
0000
,
0100
0010
0100
0001
,
1000
0001
1000
0000
0001
0000
0100
0000
,
0010
0000
1000
0000
0100
1000
0100
0000
,
1000
0010
0100
0001
,
0010
0001
0010
0000
0001
0000
0100
0000
,
0010
0000
1000
0000
0010
1000
0010
0000
,
0100
0001
0010
0001
,
0100
0010
0100
0000
0010
0000
1000
0001
,
1000
0001
1000
0001
2000
0000
3001
0000
,
0000
0000
0000
0000
0000
0000
0000
0000
0000
0001
0000
0001
,
1000
0000
1000
0100
0000
0100
0010
0000
0010
0001
0000
0001
,
0100
0000
0000
0000
0100
0000
0010
0000
0000
0000
0010
0000
0100
0000
0000
0010
0000
0000
0220
0000
0000
0000
0000
0000
,
0330
0000
0000
0000
;

//---------------dance-single - R. Uchima----------------
#NOTES:
     dance-single:
     R. Uchima:
     Beginner:
     1:
     0.092,0.139,0.062,0.000,0.000:
0000
0000
0000
0000
,
0000
0000
0000
0000
,
1000
0000
0000
0000
,
0001
0000
0000
0000
,
0100
0000
0000
0000
,
0010
0000
0010
0000
,
0010
0000
0000
0000
,
0000
0000
1000
0000
,
0000
0000
0000
0000
,
0100
0000
0000
0000
,
0000
0000
0010
0000
,
0000
0010
0000
0000
,
0010
0000
0000
0000
,
0000
0000
0001
0000
,
0000
0000
0000
0000
,
0100
0000
0000
0000
,
0000
0000
0001
0000
,
0000
0001
0000
0000
,
0001
0000
0000
0000
,
0000
0000
1000
0000
,
0000
0000
0000
0000
,
0100
0000
0000
0000
,
0000
0000
0010
0000
,
0000
0000
0000
0000
,
0110
0000
0000
0000
,
0000
0000
0001
0000
,
0000
0000
0000
0000
,
1000
0000
0000
0000
,
0000
0000
0100
0000
,
0000
1000
0000
0000
,
1000
0000
0000
0000
,
0001
0000
0100
0000
,
0010
0000
1000
0000
,
0100
0000
1000
0000
,
0010
0000
0100
0000
,
1001
0000
0000
0000
,
0000
0000
1000
0000
,
0000
0000
0000
0000
,
0001
0000
0000
1000
,
0000
0000
0001
0000
,
0000
1000
0000
0000
,
1001
0000
0000
0000
,
0000
0000
0010
0000
,
0000
0100
0000
0000
,
0010
0000
0000
0000
,
0000
0000
1000
0000
,
0000
0001
0000
0000
,
1000
0000
1001
0000
,
0000
0000
0000
0000
,
0001
0000
0000
0000
,
0000
0000
0010
0000
,
0000
0000
0000
0000
,
0100
0000
0000
0000
,
0000
0000
0110
0000
,
0000
0000
0000
0000
,
0010
0000
0000
0010
,
0000
0000
0100
0000
,
0000
0000
0000
0000
,
1000
0000
0000
1000
,
0000
0000
1001
0000
,
0000
0000
0000
1000
,
1000
1000
1000
0001
,
0001
0001
0001
1001
;

//---------------dance-double - M. Simmons----------------
#NOTES:
     dance-double:
     M. Simmons:
     Hard:
     11:
     0.681,0.946,0.398,0.257,0.394:
00000000
00000000
00000000
00000000
,
00000000
00000000
00000000
00000000
,
00000100
00000000
00000000
00000000
00001000
00000100
00001000
00000000
00000001
00000000
00000100
00000000
00001000
00000000
00000000
00010000
00001000
00000000
01000000
00000000
00000000
00000000
00100000
00000000
,
00010000
00000000
00001000
00000000
00000100
00000000
00001000
00000000
00000000
00010000
01000000
00000000
10000000
00000000
00010000
00000000
10000000
00000000
00100000
00000000
01000000
00000000
00100000
00000000
,
10000000
00000000
00000000
00000000
01000000
00100000
00010000
00000000
01000000
00000000
00100000
00000000
00010000
00000000
00000000
00001000
00000100
00000000
00000010
00000000
00000000
00001000
00000001
00000000
,
00001000
00000100
00000010
00000100
00010000
00000100
00001000
00000001
00001000
00000010
00010000
00000100
00010000
00001000
00100000
00010000
01000000
00010000
00100000
00000000
00100000
00000000
01100000
00000000
,
01000000
00000000
10000000
00010000
10000000
00000000
00200000
00000000
00000000
00000000
01300000
00000000
00010000
00000000
00010000
00000000
,
00110000
00000000
00000000
00000000
00011000
00000000
00000000
00000000
00010000
00000000
00000100
00001000
00000100
00000000
00000020
00000000
,
00000000
00000130
00000010
00000001
00001001
00000000
00001010
00000000
,
00000010
00000100
00000010
00020000
00000000
00030100
00010000
00001000
,
01001000
00000000
00010100
00000000
00001000
01000000
00100000
01000000
,
00010000
10000000
01000000
00010000
00001000
00000100
00000001
00000010
,
00000100
00000000
00000010
00000100
00000010
00000000
00000002
00000000
00000000
00000000
00001003
00000000
00000100
00000000
00010000
00000000
,
00010010
00000000
00000000
00000000
00001100
00000000
00000000
00000000
00000100
00000000
00010000
00001000
00010000
00000000
00002000
00000000
,
00000000
00103000
00010000
01000000
01010000
00000000
10100000
00000000
,
00100000
01000000
00100000
00020000
00000000
00031000
00010000
00001000
,
00100000
00001000
00010000
00000000
00001000
01000000
00010000
10000000
,
01000000
00010000
00001000
00000100
00001000
00010000
01000000
00010000
,
00001000
00001000
00100000
00101000
00000000
00000100
00001000
00000000
,
00010010
00000000
00100010
00000000
00010000
00001000
00000100
00000020
,
00000000
00000130
00000001
00000010
00000001
00000001
00001000
00001000
,
00000010
00000100
00000010
00020000
00000000
00031000
00100000
00010000
,
01000000
00100000
10000000
01000000
00100000
01000000
10000000
00200000
,
00000000
00310000
00002000
00000000
00013000
00000010
00010000
00001000
,
00101000
00100000
00010000
10000000
00000000
00010000
00100000
00000000
,
01001000
00000000
01000100
00000000
00000100
00010000
00001000
00200000
,
00000000
00310000
01000000
00100000
00010000
00010000
00001000
00001000
,
00010000
00000100
00000010
00000200
00000000
00001300
00000010
00000100
,
00000010
00001000
00000001
00010000
00001000
01000000
00001000
00200000
,
00000000
00310000
02000000
00000000
03100000
01000000
00010000
00100000
,
02200000
00000000
00000110
03300000
,
01000000
00000000
00000000
10000000
01000000
00000000
00100000
00000000
00010000
00000000
01000000
00000000
00001000
00000000
00010000
00000000
00000000
00000100
00010000
00000000
00001000
00010000
00001000
00000000
,
00010000
00000000
00000010
00000000
00000100
00000010
00001000
00000000
00000100
00000000
00010000
00000010
00000100
00000000
00001000
00000000
00010000
00001000
00100000
00000000
00010000
10000000
00010000
00100000
,
00002000
00000000
00013000
00000010
00000100
00000001
00001000
00000020
00000000
00000130
00001000
00010000
,
00001000
01000000
00100000
10000000
01000000
10000000
10010000
00000000
00000000
00011000
00000000
00000000
,
00001000
00010000
00000100
00010000
00000010
00000100
00001000
01000000
,
01010000
00000000
00000000
00000000
00010000
00100000
01000000
00100000
,
10000000
00100000
00001000
00010000
00010010
00000000
00010000
00010000
,
00000010
00000100
00001000
00010000
00001000
00000100
00000001
00001000
,
00001001
00000000
00000000
00000000
00000001
00010000
00001000
00100000
,
00010000
10000000
00001000
00010000
00001000
00000000
00010000
00010000
,
00001000
01000000
00100000
01000000
00001000
00010000
00000100
00000010
,
00000110
00000000
00000000
00000000
00000100
00000010
00000001
00000100
,
00001000
00000100
00000010
00010000
00011000
00000000
00001000
00001000
,
01000000
00010000
00100000
01000000
00100000
00010000
10000000
00001000
,
10001000
00000000
00000000
00000000
00001000
00010000
00000100
00001000
,
00000001
00000100
00001000
00010000
00011000
00000000
00000000
00000000
,
0MM00MM0
00000000
00000000
00000000
01100110
00000000
00000000
00000000
00010000
00000000
00001000
00010000
00001000
00000000
00200000
00000000
,
00000000
00310000
01010000
00000000
01000100
00000000
00001100
00000000
,
00000100
00001000
00000010
00000100
00000100
00001000
00010000
00001000
,
01000000
00010000
00100000
01000000
00020000
00000000
00031000
00020000
,
00000000
00030010
00010010
00000000
00100010
00000000
00101000
00000000
,
00001000
01000000
00200000
00000000
01300000
00100000
10000000
00010000
,
10000000
01000000
00010000
00010000
00011000
00000000
00010000
00000020
,
00000000
00000130
00000110
00000000
00011000
00000000
01100000
00000000
,
00001000
00010000
00000200
00000000
00001300
00000100
00000010
00000100
,
00001000
00000001
00000200
00000000
00000320
00000000
00001030
00000200
,
00000000
00010300
00010100
00000000
01000100
00000000
01001000
00000000
,
00001000
00000100
00000020
00000000
00010030
00001000
00100000
01000000
,
00100000
00000000
00010000
10000000
00110000
00000000
00001010
00000000
,
00000010
00000000
00001000
00000000
00000100
00000000
00000010
00000000
00000100
00000000
00010000
00000000
00001000
00000000
01000000
00000000
00100000
00000000
01100000
00000000
00000000
01000000
00010000
00000000
,
00100000
00000000
00001000
00000000
00010000
00000000
00001000
00000000
00000000
00010000
00000010
00000000
00000100
00000000
00000010
00000000
00001000
00000000
00000100
00000000
00000010
00000100
00000010
00000001
,
00000010
00000000
00000100
00001000
00000001
00001000
00000010
00010000
00000010
00000100
00000010
00001000
00000100
00000000
00000000
00000100
00000000
00000000
00020000
00000000
00000000
00030000
00000000
00000000
;

//---------------dance-double - D. Bernardone----------------
#NOTES:
     dance-double:
     D. Bernardone:
     Challenge:
     15:
     0.952,0.948,0.363,0.053,1.000:
00000000
00000000
00000000
00000000
,
00000000
00000000
00000000
00000000
,
00000001
00000000
00000000
00000000
00000001
00001000
00000001
00000000
00000010
00000000
00001000
00000000
00010000
00000000
00000000
00001000
01000000
00000000
00100000
00000000
00000000
00000000
00010000
00000000
,
00001000
00000000
00000100
00000000
00001000
00000000
00010000
00000000
00000000
00001000
00100000
00000000
01000000
00000000
00100000
00000000
10000000
00000000
00100000
00000000
01000000
00000000
00100000
00000000
,
00010000
00000000
00000000
00000000
10000000
00100000
01000000
00000000
00001000
00000000
00010000
00000000
00001000
00000000
00000000
00000100
00001000
00000000
00010000
00000000
00000000
00001000
00010000
00000000
,
00001000
00000010
00000001
00000100
00001000
00010000
00001000
00000010
00001000
00010000
00100000
10000000
00100000
00010000
00001000
00010000
01000000
10000000
01000000
00000000
00100000
00000000
10010000
00000000
,
00010000
00100000
01000000
00000000
10000000
00000000
00100000
00000000
00000000
00000000
01000000
00000000
00100000
00000000
01000000
00000000
,
00001000
00010000
00001000
00000000
00010000
00000000
00000100
00000000
00001000
00000100
00001000
00000000
00000100
00000010
00000100
00000000
,
00000010
00000001
00001000
00000000
00000010
00000000
00001000
00000000
00000001
00001000
00000001
00000000
00000010
00000000
00000100
00000000
,
00001000
00000100
00001000
00000100
00001000
00000000
00000010
00000000
00000000
00000000
00010000
00000000
00001000
00010000
00001000
00000000
,
00100000
00000000
00010000
00000000
01000000
00000000
01000000
00000000
00100000
00000000
01000000
00000000
00001000
01000000
00001000
00000000
,
00010000
00000000
00000100
00000000
00000010
00000000
00000100
00000000
00001000
00000100
00001000
00000000
00000010
00000000
00000001
00000000
,
00000010
00000100
00000010
00000000
00000100
00000000
00000010
00000000
00000000
00000000
00010000
00000000
00001000
00000000
00100000
00001000
,
00000000
00001000
00100000
00000000
00010000
00000000
00100000
00000000
01000000
00100000
01000000
00000000
10000000
00000000
00010000
00000000
,
00000000
00000000
01000000
00000000
10000000
00000000
01000000
00000000
00010000
00000000
10000000
00010000
10000000
00010000
10000000
00000000
,
01000000
00000000
00100000
00000000
00001000
00000000
00010000
00000000
00000000
00000000
00010000
00000000
00000010
00000000
00000100
00000001
,
00000000
00000001
00000100
00000000
00000001
00000000
00000010
00000000
00000100
00000010
00000100
00000000
00001000
00000000
00000001
00000000
,
00000000
00000000
00000100
00000000
00000010
00000000
00001000
00000000
00000010
00000000
00010000
00000010
00010000
00001000
00010000
00001000
,
00100000
00010000
00100000
00010000
10000000
00100000
10000000
00100000
01000000
00010000
01000000
00010000
00100000
00001000
00100000
00000000
,
00001000
00010000
00001000
00100000
00001000
00010000
00001000
00010000
00000100
00010000
00000100
00001000
00000100
00001000
00000100
00000000
,
00001000
00000001
00001000
00000001
00000100
00000001
00000100
00000010
00000100
00000001
00000100
00000001
00001000
00000010
00001000
00000000
,
00000100
00010000
00000100
00010000
00001000
00010000
00001000
01000000
00001000
00010000
00001000
00010000
00001000
00100000
00010000
00000000
,
00100000
01000000
00100000
01000000
00100000
00010000
00100000
00010000
10000000
00010000
10000000
00010000
01000000
00010000
10000000
00000000
,
01000000
00100000
01000000
00100000
00010000
00100000
00001000
00010000
00001000
00010000
00000100
00001000
00000100
00001000
00000001
00000000
,
00001000
00000001
00001000
00000001
00000100
00000001
00001000
00000001
00000010
00000100
00001000
00000100
00010000
00001000
00010000
00001000
,
00100000
00001000
00100000
00010000
00100000
00010000
10000000
00010000
01000000
00010000
01000000
00100000
10000000
00100000
01000000
00010000
,
10000000
00010000
10000000
01000000
00100000
01000000
00100000
00010000
00100000
00001000
00100000
00001000
00010000
00001000
00100000
00010000
,
00100000
00010000
00100000
00001000
00010000
00001000
00100000
00010000
00100000
01000000
10000000
01000000
10000000
00010000
01000000
00001000
,
00010000
00001000
00010000
00000010
00001000
00000010
00000100
00000001
00001000
00000100
00000010
00000100
00001000
00000001
00000010
00000100
,
00000010
00000001
00001000
00000010
00010000
00001000
00010000
00001000
00100000
00010000
00100000
00001000
00010000
00000000
00000100
00000000
,
00022000
00000000
00000000
00000000
00000000
00000000
00000000
00000000
00000000
00000000
00000000
00000000
00000000
00000000
00000000
00000000
00000000
00000000
00000000
00000000
00000000
00000000
00000000
00000000
01100000
00000000
00000000
00000000
00000000
00000000
00000000
00000000
00000000
00000000
00000000
00000000
00000110
00000000
00000000
00000000
00000000
00033000
00000000
00000000
00000000
00000000
00000000
00000000
,
00010000
00000000
00000000
00001000
01000000
00000000
00001000
00000000
00010000
00000000
00000100
00000000
00000010
00000000
00000001
00000000
00000000
00001000
00000010
00000000
00000000
00000000
00000100
00000000
,
00001000
00000000
00010000
00000000
01000000
10000000
00010000
00000000
01000000
00000000
00100000
10000000
01000000
00000000
00100000
00000000
00001000
01000000
00010000
00000000
00100000
01000000
00010000
00001000
,
00000100
00000000
00000001
00000000
00000010
00000000
00000100
00000000
00000000
00000100
00001000
00000000
00000010
00010000
00001000
00000000
01000000
00000000
10000000
00000000
00010000
00000000
00100000
00000000
,
10000000
00010000
01000000
00000000
00010000
00000000
00100000
00000000
00010000
00000000
10000000
00000000
10001000
00000000
00000000
00000000
00000000
00000000
00010001
00000000
00000000
00000000
00000000
00000000
,
00000001
00000100
00000010
00001010
00000000
00010000
00011000
00000000
,
00101000
00100000
01000000
10000000
10100000
00000000
00100000
01100000
,
00000000
01010000
00000000
00101000
00000000
00011000
00010000
00000010
,
00001000
00000010
00000001
00000010
00001000
00000100
00000010
00000001
,
00000100
00000010
00001000
00000100
00000010
00000100
00001000
00001001
,
00000000
00010100
00000000
00101000
00000000
10010000
10000000
00100000
,
01100000
00000000
01000000
00010000
00100000
01000000
00110000
00000000
,
00001000
00010000
00000010
00000100
00001010
00000000
00000001
00000011
,
00000000
00001000
00010100
00000000
00010000
00001000
01000000
00010000
,
01001000
10010000
10100000
01100000
,
01010000
00010000
10000000
00000000
11000000
01000000
00100000
00000000
,
00101000
00000000
00011000
00010000
00000100
00000000
01000000
00000000
,
02000200
03000300
00000000
00000000
01000100
00000000
00000000
00000000
01000000
00001000
01000000
00001000
00010000
00001000
00010000
00001000
,
01000000
00001000
01000000
00001000
00010000
00001000
00010000
00001000
00010000
00000100
00010000
00000100
00001000
00000100
00001000
00000100
,
00010000
00000100
00010000
00000100
00001000
00000100
00001000
00000100
00000010
00000001
00001000
00000001
00001000
00000001
00000100
00000001
,
00000100
00000001
00001000
00000001
00001000
00000001
00000010
00000100
00001000
00000100
00001000
00000100
00000010
00000100
00000010
00000100
,
00001000
00000001
00001000
00000001
00000100
00000010
00000100
00000010
00001000
00000010
00001000
00000010
00010000
00001000
00010000
00001000
,
00100000
00001000
00100000
00001000
00100000
00010000
00100000
00000000
00010000
01000000
00100000
10000000
00100000
01000000
00010000
01000000
,
00100000
10000000
00100000
01000000
00010000
01000000
00001000
00000000
00010000
00000100
00001000
00000100
00010000
00000100
00001000
00000100
,
00010000
00000100
00001000
00000001
00000010
00000100
00001000
00000100
00000010
00000001
00000010
00000100
00001000
00000100
00000010
00000001
,
00001000
00000010
00010000
00001000
00010000
00000010
00001000
00000010
00010000
00001000
00010000
00000010
00010000
00001000
00010000
00001000
,
00100000
00010000
00100000
00010000
10000000
00010000
10000000
00000000
00010000
01000000
00100000
10000000
00100000
01000000
00010000
01000000
,
00100000
01000000
00010000
10000000
00010000
00100000
00001000
00010000
00001000
00010000
00000100
00010000
00001000
01000000
00001000
00010000
,
00000010
00001000
00000001
00000010
00000001
00000010
00000001
00001000
00000001
00001000
00000010
00000000
00001010
00000000
00010010
00000000
,
00011000
00000000
00000000
01001000
00000000
00000000
01010000
00000000
00000000
10010000
00000000
00000000
10100000
00000000
00000000
00000000
00000000
00000000
10010000
00000000
00001000
00000000
00010000
00000000
,
01000000
00000000
00010000
00000000
00001000
00000000
00000100
00000000
00000010
00000000
00000100
00000000
00000001
00000000
00000100
00000000
00000010
00000000
00001000
00000000
00000000
00000001
00000010
00000000
,
00000100
00000000
00000010
00000000
00001000
00000000
00010000
00000000
00000000
00001000
01000000
00000000
00100000
00000000
00010000
00000000
00001000
00000000
00010000
00000000
00000100
00001000
00000010
00010000
,
00000100
00000000
00000000
00000000
00000000
00000000
00000000
00000000
00000000
00000000
00000000
00000000
00000000
00000000
00000000
00000000
00000100
00000000
00000000
00000000
00000000
00000000
00000000
00000000
00000010
00000000
00000000
00000000
00000000
00000000
00000000
00000000
00000100
00000000
00000000
00000000
00000000
00000000
00000000
00000000
00000001
00000000
00000000
00000000
00000000
00000000
00000000
00000000
00000100
00000000
00000000
00000000
00000000
00000000
00000000
00000000
00001000
00000000
00000000
00000000
00000000
00000000
00000000
00000000
00000100
00000000
00000000
00000000
00000000
00000000
00000000
00000000
00010000
00000000
00000000
00000000
00000000
00000000
00000000
00000000
00001000
00000000
00000000
00000000
00000000
00000000
00000000
00000000
01000000
00000000
00000000
00000000
00000000
00000000
00000000
00000000
00100000
00000000
00000000
00000000
00000000
00000000
00000000
00000000
00000000
00000000
00000000
00000000
00000000
00000000
00000000
00000000
00000000
00000000
00000000
00000000
00000000
00000000
00000000
00000000
10000000
00000000
00000000
00000000
00000000
00000000
00000000
00000000
00000000
00000000
00000000
00000000
00000000
00000000
00000000
00000000
00000000
00000000
00000000
00000000
00000000
00000000
00000000
00000000
02000000
20000000
00000000
00000000
00000000
00000000
00000000
00000000
00000000
00000000
00000000
00000000
00000000
00000000
00000000
00000000
00000000
00000000
00000000
00000000
00000000
00000000
00000000
00000000
00000000
00000000
00000000
00000000
00000000
00000000
00000000
00000000
00000000
00000000
00000000
00000000
00000000
00000000
00000000
00000000
00000000
00000000
00000000
00000000
00000000
00000000
00000000
00000000
,
33000000
00000000
00000000
00000000
;

//---------------dance-double - D. Bernardone----------------
#NOTES:
     dance-double:
     D. Bernardone:
     Easy:
     7:
     0.368,0.418,0.106,0.124,0.000:
00000000
00000000
00000000
00000000
,
00000000
00000000
00000000
00000000
,
00010000
00010000
01000000
01000000
,
10000000
10000000
00100000
00100000
,
01000000
01000000
00010000
00100000
,
01000000
00100000
00001000
00010000
,
00001000
00001000
00000100
00000000
,
00000010
00001000
00000100
00000001
,
00000100
00001000
00000000
00000010
,
00010000
00001000
00100000
00000000
,
00010000
01000000
01000000
01000000
,
00100000
01000000
10010000
00000000
,
10000000
01000000
00010000
00000000
,
00001000
00000100
00001000
00000000
,
00010000
00001000
00000010
00000001
,
00001000
00000000
00000001
00001000
,
00000010
00000100
00000000
00000100
,
00000001
00001000
00000100
00010000
,
00001000
00010000
00001000
00010000
00001000
00000000
00001000
00000000
,
01000000
00100000
01000000
00100000
01000000
00000000
01000000
00000000
,
00010000
10000000
01000000
10000000
01000000
00000000
01000000
00000000
,
00100000
00010000
01000000
00001000
01000000
00000000
01000000
00000000
,
00001000
00010000
00000100
00010000
00001000
00000000
00001000
00000000
,
00010000
00000010
00001000
00000010
00010000
00000000
00010000
00000000
,
00000100
00001000
00000100
00000010
00000100
00000000
00000100
00000000
,
00000010
00000001
00001000
00000001
00000010
00000000
00000010
00000000
,
00000100
00000010
00000001
00000000
00000001
00000010
00000100
00000000
,
00001000
00000010
00010000
00000000
00001000
00000000
01000000
00000000
,
00010000
10000000
00010000
00000000
10000000
01000000
10000000
00000000
,
00100000
01000000
00100000
01000000
00010000
10000000
01000000
00100000
,
00020000
00000000
00000000
00000000
20000000
30030000
10010000
00000000
,
10000000
00100000
01000000
00100000
,
00010000
00010000
00001000
00010000
,
00000200
00000320
00000032
00000203
,
00000320
00000130
00011000
00011000
,
00010000
00000000
00000000
00001000
00000000
00000000
01000000
00000000
,
00100000
00000000
00000000
00000000
10000000
00000000
00000000
01000000
,
00000000
01000000
00000000
00100000
00000000
00000000
00010000
00000000
,
01000000
00001000
00010000
00000100
,
00010000
00001000
00100000
00001000
,
00000000
00010000
00000000
00001000
00000000
00001000
00000000
00000000
,
00010100
00000000
00000000
00000011
,
00000000
00000000
00000000
00000000
00000101
00000000
00000000
00001010
,
00000000
00010010
00000000
00000000
,
00001000
00100000
01000000
10000000
,
00010000
10000000
00010000
00000000
01000000
00010000
01000000
00000000
,
01000000
00000000
00100000
01000000
00100000
00000000
10000000
00000000
,
11000000
00110000
20000000
00010000
,
00010000
30010000
10000000
01000000
,
00010000
00000000
00001000
00010000
00001000
00010000
00001000
00000000
,
00010000
00000020
00000100
00001000
,
00000100
00001030
00000001
00000010
,
00000100
00001000
00000100
00000000
00000100
00000010
00000100
00000000
,
00000010
00000001
00000200
00000010
,
00000010
00000000
00000310
00000000
00000010
00010000
00001000
00000000
,
00100000
00001000
00010000
00000000
00001000
00000000
01000000
00001000
,
01000000
00010000
01000000
00000000
00200000
00000000
10000000
00000000
,
01000000
00000000
01300000
00000000
01000000
00010000
10000000
00000000
,
10000000
00010000
10000000
00000000
01000000
00000000
10000000
00100000
,
01000000
00001000
00010000
00000010
00001000
00000000
00002002
00000000
,
00003003
00001000
00001000
00000001
,
00000100
00001000
00010000
01000000
,
01000000
00000000
01000000
00000000
10000000
00010000
00002000
00000000
,
00003000
00000000
00000000
00000000
;

//---------------dance-double - D. Bernardone----------------
#NOTES:
     dance-double:
     D. Bernardone:
     Medium:
     9:
     0.566,0.669,0.159,0.062,0.283:
00000000
00000000
00000000
00000000
,
00000000
00000000
00000000
00000000
,
00000010
00000000
00001000
00000010
00010000
00001000
00100000
00000000
00100000
00010000
00000000
01000000
,
00100000
10000000
00100000
10000000
00000000
10000000
01000000
00010000
00001000
00010000
00000100
00001000
,
00000100
00000000
00000001
00000010
00000100
00000010
00000001
00000000
00000001
00000100
00000000
00000100
,
00000010
00001000
00010010
00010000
00001000
01001000
01000000
00010000
01000000
00100000
00100000
10010000
,
00010000
10000000
01000000
10000000
00000000
01000000
00100000
00000000
,
00010000
00100000
00010000
00000000
00001000
00010000
00001000
00000000
,
00000100
00000100
00001000
00000000
00000100
00000100
00000010
00000000
,
00000001
00001000
00000010
00001000
00000000
00000100
00010000
00000000
,
00001000
01000000
00001000
00000000
00010000
00000100
00010000
00000000
,
00001000
00010000
00001000
00100000
00010000
00000000
10000000
00000000
,
00100000
01000000
00010000
00100000
00000000
00001000
00010000
00000000
,
00000100
00000010
00000100
00000000
00001000
00000001
00000100
00000001
,
00000000
00000001
00001000
00000010
00010000
00001000
00010000
00000000
,
00001000
01000000
00010000
01000000
00000000
00100000
10000000
00000000
,
00010000
10000000
00010000
00000000
10000000
00010000
10000000
00010000
,
00000000
00100000
01000000
00100000
00010000
10000000
00010000
00000000
,
10000000
01000000
00100000
00010000
00100000
00001000
00010000
00000000
,
00000010
00001000
00000010
00010000
00000100
00010000
00001000
00000000
,
00010000
00001000
01000000
00001000
01000000
00001000
01000000
00000000
,
00001000
00010000
00100000
10000000
01000000
00100000
01000000
10000000
,
00010000
00100000
00001000
00000000
00010000
00001000
00010000
00000000
,
00000010
00000100
00000010
00001000
00000001
00000010
00000100
00000000
,
00010000
00001000
00100000
01000000
10000000
01000000
00100000
00000000
,
00001000
00010000
00000010
00000100
00000001
00000100
00000010
00000000
,
00010000
00001000
00100000
01000000
00100000
00001000
00010000
00000000
,
00000010
00000100
00000010
00001000
00000100
00010000
00001000
00000000
,
01000000
00100000
01000000
00001000
00010000
00000100
00001000
00000000
,
00000001
00000010
00000100
00010000
00001000
01000000
00100000
10000000
,
00020000
00000000
20000000
30131000
,
10000000
00000000
00010000
10000000
01000000
00100000
00001000
00010000
00000000
00010000
00000000
00000010
,
00001000
00000010
00000100
00000100
00000001
00001000
00001000
00000100
00010000
00010000
00001000
01000000
,
00020000
00000000
10030000
01000000
00100000
00010000
00001000
00000200
00000000
00000310
00000001
00000100
,
00000010
00001000
00010000
01000000
00100000
10000000
01000000
00000000
00000000
00011000
00000000
00000000
,
00000100
00000000
00000000
00001001
00000000
00000000
00000010
00000000
,
00001100
00000000
00000000
00000000
00010000
00000000
00001000
00010000
,
00000000
01000000
00000000
00100000
00000000
01000000
10000000
00000000
,
00100000
01000000
00100000
01000000
00001000
00010000
00001000
00010000
,
00000100
00001000
00000100
00001000
00000001
00000010
00000001
00000010
,
00000000
00001100
00000000
00011000
00000000
00001000
00100000
00000000
,
00110000
00000000
00010000
01000000
10000000
00000000
11000000
00000000
,
10000000
01000000
00010000
00000000
01010000
00000000
00001000
00010000
,
00000000
00000010
00000100
00000000
00000001
00001000
00000001
00001000
,
00000001
00001010
00010010
00011000
,
00001000
01000000
00010000
00000000
00010000
10000000
01000000
00000000
,
00100000
00000000
00001000
00010000
00000010
00000000
00000100
00000000
,
00000101
00000000
00101000
00000000
00100000
01000000
00100000
01000000
,
00100000
01000000
10000000
00100000
01000000
00010000
00100000
00000000
,
00001000
00010000
00000100
00001000
00000100
00010000
00000100
00001000
,
00000001
00001000
00000001
00000000
00000100
00000010
00001000
00000010
,
00000100
00000010
00001000
00000000
00000100
00010000
00001000
00010000
,
00001000
01000000
00001000
00000000
01000000
00010000
10000000
01000000
,
00010000
00001000
00000100
00000001
00002000
00000000
00003100
00010000
,
00001000
00000000
00100000
01000000
00100000
01000000
10000000
00000000
,
10000000
00100000
01000000
00100000
10000000
01000000
00010000
00000000
,
00001000
00010000
00001000
00000000
00000100
00001000
00000100
00000000
,
00000001
00000100
00000001
00000010
00001000
00000010
00000100
00001000
,
00000100
00000010
00000001
00001000
00000010
00000000
00000001
00000010
,
00000100
00001000
00010000
00100000
01000000
00000000
20010000
00000000
,
00010000
00000000
00000000
31000000
01000000
01000000
00100000
00100000
00100000
00001000
00000000
00010000
,
00000100
00000010
00000001
00001000
00000000
00001000
00000010
00010000
00001000
01000000
00100000
01000000
,
10000000
00000000
01000000
00000000
00010000
00000000
10000000
00000000
01000000
00000000
00010000
00000000
00001000
00000000
00000000
00000010
00000000
00000000
00000200
00000000
00000000
00000000
00000000
00000000
,
00000300
00000000
00000000
00000000
;
