#TITLE:Chiaroscuro;
#SUBTITLE:;
#ARTIST:Arctures;
#TITLETRANSLIT:;
#SUBTITLETRANSLIT:;
#ARTISTTRANSLIT:;
#GENRE:Breakcore;
#CREDIT:;
#BANNER:chiaroscuro bn.png;
#BACKGROUND:chiaroscuro bg.png;
#LYRICSPATH:;
#CDTITLE:;
#MUSIC:chiaroscuro.ogg;
#OFFSET:1.138;
#SAMPLESTART:104.457;
#SAMPLELENGTH:18.641;
#SELECTABLE:YES;
#DISPLAYBPM:204;
#BPMS:0.000=206.000,240.000=103.000,254.000=80.000,255.000=63.950,256.000=104.000,258.000=108.000,260.000=111.000,262.000=114.000,264.000=117.000,266.000=121.000,268.000=124.000,270.000=128.000,272.000=129.000,274.000=134.000,276.000=137.000,278.000=140.000,280.000=142.500,282.000=147.000,284.000=149.000,286.000=153.000,288.000=157.000,290.000=160.000,292.000=163.000,294.000=166.000,296.000=169.000,298.000=173.000,300.000=176.500,302.000=180.000,304.000=181.000,306.000=185.000,308.000=190.000,310.000=192.000,312.000=194.000,314.000=199.000,316.000=201.000,318.000=203.000,320.000=206.000;
#STOPS:;
#BGCHANGES:;
#KEYSOUNDS:;

//---------------dance-single - J.Berkowitz----------------
#NOTES:
     dance-single:
     J.Berkowitz:
     Challenge:
     14:
     1.000,0.000,0.260,0.245,1.000:
0000
0000
0000
0000
,
MMMM
0000
000M
0000
,
000M
0000
000M
0000
,
000M
0000
000M
0000
,
000M
0000
000M
0000
,
MMMM
0000
M000
0000
,
M000
0000
M000
0000
,
M000
0000
M000
0000
,
M000
0000
M000
0000
,
1M01
0000
0001
0100
0010
1000
0100
1000
0M01
0000
1000
0010
1000
0000
1000
0000
,
0M01
0000
0010
0000
0000
0000
0001
0000
1M00
0000
0001
0000
0000
0000
1000
0010
,
1M00
0001
0000
1000
0M10
1000
0001
0010
,
0M01
1000
0000
0001
1M00
0010
1000
0001
,
01M1
0000
0000
0000
0001
0000
0100
0000
0001
0000
0000
0000
1000
0000
0100
0000
1000
0000
0000
0000
0001
0000
0000
0000
0100
0000
0000
00M0
0001
0000
0000
0000
,
1000
0000
0000
0000
1100
0000
0000
00M0
0000
0000
0000
0000
0100
0000
0000
0000
0000
0000
0000
0000
1000
00M0
0000
0000
0000
0000
0000
0000
0001
0000
00M0
0000
,
0100
0000
0000
0000
0000
0000
0000
0000
0000
0000
0000
0000
0000
0000
0000
0000
0000
0000
0000
0000
0000
0000
0000
0000
0001
0000
0000
0000
0000
0000
0000
0000
0000
0000
0000
0000
00M0
0000
0000
0000
0000
0000
0000
0000
0000
0000
0000
0000
0000
0000
0000
0000
0000
0000
0000
0000
0000
0000
0000
0000
0000
0000
0000
0000
0000
0000
0000
0000
0000
0000
0000
0000
1000
0000
0000
0000
0000
0000
0000
0000
0000
0000
0000
0000
00M0
0000
0000
0000
0000
0000
0000
0000
0000
0000
0000
0000
0000
0000
0000
0000
0000
0000
0000
0000
0000
0000
0000
0000
0000
0000
0000
0000
0000
0000
0000
0000
0000
0000
0000
0000
0100
0000
0000
0000
0000
0000
0000
0000
00M0
0000
0000
0000
1000
0000
0000
0000
0000
0000
0000
0000
0000
0000
0000
0000
0100
0000
0000
0000
0000
0000
0000
0000
0000
0000
0000
0000
0000
0000
0000
0000
0000
0000
0000
0000
0000
0000
0000
0000
1000
0000
0000
0000
0000
0000
00M0
0000
0000
0000
0000
0000
0000
0000
0000
0000
0000
0000
0000
0000
0000
0000
0000
0000
,
0001
0000
0000
0000
0000
0000
0000
0000
0000
0000
0000
0000
0000
0000
0000
0000
0000
0000
00M0
0000
0000
0000
0000
0000
0100
0000
0000
0000
0000
0000
0000
0000
0000
0000
0000
0000
0000
0000
0000
0000
0000
0000
0000
0000
0000
0000
0000
0000
0001
0000
0000
0000
00M0
0000
0000
0000
0000
0000
0000
0000
0000
0000
0000
0000
0000
0000
0000
0000
0000
0000
0000
0000
1000
0000
0000
0000
0000
0000
0000
0000
0000
0000
0000
0000
0000
0000
0000
0000
00M0
0000
0000
0000
0000
0000
0000
0000
0001
0000
0000
0000
0000
0000
0000
0000
0000
0000
0000
0000
0100
0000
0000
0000
00M0
0000
0000
0000
0000
0000
0000
0000
0001
0000
0000
0000
0000
0000
0000
0000
00M0
0000
0000
0000
0100
0000
0000
0000
0000
0000
0000
0000
0000
0000
0000
0000
00M1
0000
0000
0000
0000
0000
0000
0000
0000
0000
0000
0000
10M0
0000
0000
0000
0000
0000
0000
0000
0000
0000
0000
0000
00M1
0000
0000
0000
0000
0000
0000
0000
0000
0000
0000
0000
10M0
0000
0000
0000
0000
0000
0000
0000
0000
0000
0000
0000
,
0001
0000
1000
0000
0001
0100
0010
1000
0001
0000
0000
0000
1000
0000
0100
0000
,
0000
0000
0010
0001
1000
0000
1000
0000
0010
0000
0100
0000
0001
0000
0000
0100
,
0010
0000
1000
0001
0010
0000
0100
1000
0001
0000
0100
0000
0010
0000
1020
0000
,
0000
0000
0000
0000
0000
0000
0000
0000
0000
0130
0001
0100
0001
0000
0000
0000
,
0011
0000
0010
0000
0001
0010
0100
1000
0010
0000
0000
0000
0100
0000
0001
0000
,
0000
0000
1001
0000
0000
1000
0010
0100
0001
0000
0010
0000
0000
0000
0001
0010
,
0001
0000
1000
0010
1000
0001
1000
0100
1000
0000
0000
0010
0100
0000
0010
0000
,
1M10
0000
011M
0000
01M1
0000
0M11
0000
M110
0000
11M0
0000
,
1001
0000
0001
0100
0010
0100
0001
1000
0100
0000
0000
0000
0010
0000
0001
0000
,
0000
0000
1000
0000
0010
0000
0100
0000
0001
0000
1000
0000
0100
0000
0000
0010
,
0001
0000
1000
0010
0100
0000
0001
1000
0100
0000
0010
0000
0001
0000
1001
0000
,
0000
0000
M000
0M00
00M0
000M
M000
0M00
00M0
000M
M000
0M00
00M0
000M
00M0
0M00
,
1000
0000
0001
0000
0010
0100
0010
0001
1000
0000
0000
0000
0010
0000
0100
0000
,
0000
0000
0101
0000
0000
0001
0010
0100
1000
0000
0010
0000
0000
0000
0100
0001
,
0100
0000
0010
1000
0001
1000
0010
0100
0001
0000
1000
0100
1000
0000
2001
0000
,
0000
0000
0000
0000
,
3001
0010
0001
0010
0100
0000
1000
0001
1000
0001
0100
0000
0010
1000
0010
1000
,
0001
0000
0010
0100
0010
0100
1000
0000
0001
0100
0010
1000
0001
0010
0100
1000
,
0010
0100
0010
0100
0001
0000
1000
0100
1000
0100
0010
0000
0001
1000
0001
1000
,
0010
0000
0100
0001
0100
0001
1000
0000
0100
0010
0001
0100
0010
1000
0100
0010
,
0001
1000
0001
1000
0010
0000
0100
0010
0100
0010
1000
0000
0100
0010
0100
0010
,
0001
0000
1000
0010
1000
0010
0100
0000
0001
0010
0100
1000
0001
0100
0010
1000
,
0100
1000
0100
1000
0001
0000
0100
0001
0100
0001
1000
0000
0010
1000
0010
1000
,
0001
0000
0010
0001
0010
0001
0100
0000
0010
1000
0001
0010
0100
1000
0010
0100
,
0001
0100
0001
0100
0010
0000
1000
0001
1000
0001
0010
0000
0100
1000
0100
1000
,
0010
0000
1000
0100
1000
0100
0010
0000
0001
1000
0010
0100
0001
1000
0100
0010
,
0001
0100
0001
0100
0010
0000
1000
0100
1000
0100
0010
0000
0100
1000
0100
1000
,
0001
0000
0100
0010
0100
0010
1000
0000
0010
0100
0001
0010
0100
1000
0010
0100
,
0001
1000
0001
1000
0100
0000
1000
0010
1000
0010
0100
0000
0001
1000
0001
1000
,
0100
0000
0010
0100
0010
0100
1000
0000
0010
0100
0001
1000
0100
0010
0001
1000
,
0100
0000
0000
0010
0000
0000
0011
0000
0000
0001
0000
0000
1001
0000
0000
1000
,
0000
0000
1010
0000
0000
0010
0100
0001
1000
0000
0100
0010
0001
0100
0010
1000
,
0001
0000
0001
0000
0000
0000
1000
0010
1000
0000
0000
0000
0000
0000
0100
0000
,
0000
0000
0000
0000
0100
0000
0000
0000
0010
0000
0000
0000
0001
0000
0000
0000
0100
0000
0000
0000
0010
0000
0000
0000
1000
0000
0000
0000
0000
0000
1000
0000
0000
0000
0000
0000
0000
0000
0000
0000
0000
0000
0001
0000
0000
0010
0000
0000
,
0001
0000
0000
0000
1000
0000
0000
0000
0010
0000
0000
0000
1000
0000
0000
0000
0100
0000
0000
0000
0010
0000
0000
0000
0001
0000
0000
0000
0000
0000
0001
0000
0000
0000
0000
0000
0000
0000
0000
0000
0000
0000
1000
0000
0000
0100
0000
0000
,
1000
0000
0000
0000
0001
0000
0100
0000
0001
1000
0100
0010
0001
1000
0100
0010
,
0001
0000
1000
0000
0010
0000
0000
0100
0001
0000
0010
0100
1000
0001
0010
0100
,
0010
0000
0001
1000
0000
0000
0010
0000
0100
0000
0001
1000
0001
1000
0001
0010
,
0100
0000
1000
0010
0100
0001
1000
0100
1000
0000
0001
0100
0000
0001
0100
0000
,
0010
0000
0000
1000
0000
0000
0001
0000
0010
0000
0100
0000
1000
0000
0000
0010
0000
0000
0000
0000
0000
0100
0000
0000
,
0001
0000
1000
0000
0100
0000
0010
0000
0000
0000
0100
0000
1000
0010
0100
0001
,
1000
0001
0100
0001
1000
0001
0100
0001
1000
0000
0100
0000
0000
0000
0120
0000
,
0000
0000
0000
0000
0000
0000
0000
0000
0000
0031
1000
0001
1000
0000
0000
0000
,
0MM1
0001
0000
1000
0100
0010
0001
0100
0010
0010
0000
1000
0100
0010
0011
0000
,
0011
0000
0001
0000
0000
0000
0100
0000
0010
0000
1000
0000
0001
0000
0010
0000
0100
1000
0100
0000
0000
0000
1000
0001
1000
0000
0001
0100
0001
0000
0000
0000
,
0011
0010
0000
0100
1000
0001
0100
0010
1000
1000
0000
0001
0010
0100
1100
0000
,
1100
0000
0100
0000
0000
0000
0010
0000
0000
0000
0001
1000
0001
0000
0100
0000
00M4
0000
0000
0000
0000
0000
0000
0000
0000
0000
0000
0000
0000
0000
0000
0000
,
10M3
0100
0010
0001
1000
0100
0010
0001
M100
0010
1000
0001
0100
0010
1000
0001
,
M010
0100
1000
0001
0010
0100
1000
0001
01M0
0000
0120
0000
0000
0000
0000
0000
,
103M
0010
0100
0001
1000
0010
0100
0001
M010
0100
1000
0001
0010
0100
1000
0001
,
M100
0010
1000
0001
0100
0010
1000
0001
M010
0100
1000
0001
1000
0100
0010
0001
,
01M0
0001
1000
0010
0100
0001
1000
0010
100M
0100
0010
0001
1000
0100
0010
0001
,
1M00
0001
0100
0010
1000
0001
0100
0010
100M
0000
1200
0000
0000
0000
0000
0000
,
M310
0001
1000
0100
0010
0001
1000
0100
100M
0010
0100
0001
1000
0010
0100
0001
,
10M0
0100
0010
0001
1000
0100
0010
0001
M010
0001
1000
0100
0010
0100
1000
0010
,
1M00
0001
0010
0100
1000
0001
0010
0100
100M
0010
0100
0001
1000
0010
0100
0001
,
M010
0100
1000
0001
0010
0100
1000
0001
01M0
0000
0102
0000
0000
0000
0000
0000
,
10M3
0001
0100
0010
1000
0001
0100
0010
1M00
0001
0010
0100
1000
0001
0010
0100
,
M010
0001
1000
0100
0010
0001
1000
0100
10M0
0001
0100
0010
0100
0001
0010
0100
,
100M
0100
0010
0001
1000
0100
0010
0001
M100
0010
1000
0001
0100
0010
1000
0001
,
0M10
0001
1000
0100
0010
0001
1000
0100
001M
0000
0012
0000
0000
0000
0000
0000
,
01M3
0001
1000
0010
0100
0001
1000
0010
1M00
0001
0010
0100
1000
0001
0010
0100
,
100M
0100
0010
0001
1000
0100
0010
0001
1M00
0001
1000
0001
0100
0010
0100
0010
,
200M
0000
0000
0010
0010
0000
0000
0100
,
0100
0000
3200
0000
2300
0000
3200
0000
1300
0010
0100
0001
2000
0000
3200
0000
,
0320
0000
0000
0100
0100
0000
0000
0001
,
0001
0000
0000
0000
0000
0000
0032
0000
0000
0000
0000
0000
0023
0000
0000
0000
0000
0000
0230
0000
0000
0000
0000
0000
1300
0000
0000
0000
0000
0000
0001
0000
0100
0000
0001
0000
0100
0000
0000
0000
0000
0000
0010
0000
0000
1000
0000
0000
,
0002
0000
0000
1000
1000
0000
0000
0010
,
0010
0000
0023
0000
0230
0000
2300
0000
3010
0100
0001
1000
0100
0000
0010
0000
,
0002
0000
0000
0000
0000
0000
1000
0000
1000
0000
0000
0000
0000
0000
0103
0010
,
2000
0000
0000
0000
0000
0000
3001
1000
0001
0100
0010
1000
0001
0000
0100
0000
,
0002
0000
0000
1000
1000
0000
0000
0100
,
0100
0000
0000
0000
0000
0000
0010
0000
0010
0000
0013
0001
0020
0000
0230
0000
,
2300
0000
0000
0010
0010
0000
0000
0001
,
0001
0000
3002
0000
0203
0000
0320
0000
1030
0001
0010
0100
1000
0000
0010
0000
,
0200
0000
0000
0001
0001
0000
0000
0010
,
0010
0000
0000
0000
0000
0000
0001
0000
0001
0000
0301
0100
0001
0000
1000
0000
,
1100
0000
0000
0100
0000
0000
0110
0000
0000
0010
0000
0000
0011
0000
0000
0001
,
0000
0000
1001
0000
0000
1000
0010
1000
0100
0000
0010
0001
0010
0000
0100
1000
,
0001
0100
0010
1000
0001
0100
0010
1000
0001
0010
0100
1000
0001
0010
0100
1000
,
0010
1000
0001
0100
0010
1000
0001
0100
0010
0000
2010
0000
0000
0000
3000
0000
,
0100
1000
0001
0010
0100
1000
0001
0010
0001
1000
0010
0100
0001
1000
0010
0100
,
0010
1000
0001
0100
0010
1000
0001
0100
0010
1000
0001
0100
0001
1000
0100
0010
,
0001
0100
0010
1000
0001
0100
0010
1000
0100
0010
0001
1000
0100
0010
0001
1000
,
0100
1000
0001
0010
0100
1000
0001
0010
0100
0000
0120
0000
0000
0000
0030
0000
,
0001
1000
0010
0100
0001
1000
0010
0100
0001
1000
0100
0010
0001
1000
0010
0000
;

//---------------dance-single - T. Moore----------------
#NOTES:
     dance-single:
     T. Moore:
     Hard:
     12:
     0.937,0.000,0.104,0.238,1.000: // measure 1
0000
0000
0000
0000
,  // measure 2
MMMM
0000
00M0
0000
,  // measure 3
00M0
0000
00M0
0000
,  // measure 4
00M0
0000
00M0
0000
,  // measure 5
00M0
0000
00M0
0M00
,  // measure 6
000M
0000
000M
0000
,  // measure 7
000M
0000
000M
0000
,  // measure 8
000M
0000
000M
0000
,  // measure 9
000M
0000
000M
0000
,  // measure 10
1M00
0000
0010
0000
0100
0001
0100
0000
0010
0000
1000
0001
1000
0000
0010
0000
,  // measure 11
0200
0300
0000
0000
0000
0000
0000
0000
0200
0300
0000
0000
0000
0000
0000
0000
,  // measure 12
0200
0300
0000
0000
0000
0000
0000
0000
0200
0300
0000
0000
0000
0000
0000
0000
,  // measure 13
0200
0300
0000
0000
0000
0000
0000
0000
0200
0300
0000
0000
0000
0000
0000
0000
,  // measure 14
0001
0000
0010
0000
0100
1000
0100
0000
0010
0000
0001
1000
0001
0000
0010
0000
,  // measure 15
0100
1000
0000
0001
0000
0100
0000
0010
,  // measure 16
1000
0000
0001
0000
0000
0000
0001
0000
0000
0000
0001
0010
0001
0000
1000
0000
,  // measure 17
0010
0000
0100
0000
0001
0000
0100
0000
0010
1000
0010
1000
0004
0000
0000
0000
,  // measure 18
1003
0000
0010
0000
0100
0001
0100
0000
0010
0000
1000
0000
0001
0000
0100
0000
,  // measure 19
0000
0000
0010
0000
0100
0000
0001
0000
0010
0000
0100
0000
0010
0000
0001
1000
,  // measure 20
0001
0000
0010
0000
0100
1000
0100
0000
0010
0000
0001
0000
0100
0000
0020
0000
,  // measure 21
0000
0000
0000
0000
0000
0000
0030
00M0
,  // measure 22
1010
0000
0100
0000
0001
1000
0001
0000
0100
0000
0010
0000
1000
0000
0001
0000
,  // measure 23
0000
0000
0100
0000
0001
1000
0001
1000
0100
0000
1000
0000
0000
0000
0100
1000
,  // measure 24
0001
0000
0100
0010
1000
0010
1000
0000
0100
0000
0010
0000
0001
0000
0100
0000
,  // measure 25
0010
0000
1000
0000
0100
0000
0010
0000
0001
0000
0100
0000
,  // measure 26
0010
0000
1000
0000
0001
0100
0001
0000
1000
0000
0100
0000
0010
0000
0001
0000
,  // measure 27
0000
0000
1000
0000
0010
0000
0010
0000
1000
0000
0001
0000
1000
0000
0100
0010
,  // measure 28
0001
0000
1000
0100
0010
0000
0001
0000
1000
0000
0010
0000
0010
0000
1000
0000
,  // measure 29
0000
0000
0004
4000
0000
0000
0000
0000
0000
0000
0000
0000
0000
0000
0000
0003
,  // measure 30
3100
0000
0010
0000
0001
1000
0010
0000
0100
0000
0001
0000
1000
0000
0001
0000
,  // measure 31
0000
0000
0010
0000
0100
1000
0100
1000
0001
0000
1000
0000
0000
0000
0001
0100
,  // measure 32
0010
0000
1000
0010
0100
0010
0100
0000
0001
0000
1000
0100
0010
0000
00M2
0000
,  // measure 33
0M00
00M0
M000
0M00
00M0
M000
00M0
0M00
,  // measure 34
10M3
0100
1000
0000
0010
0000
0100
0001
0100
0000
0010
0000
1000
0100
1000
0000
,  // measure 35
0010
0000
0100
0001
0100
0000
0010
0000
1000
0100
1000
0000
0001
0000
0100
0000
,  // measure 36
0010
1000
0010
0000
0100
0000
0001
0010
0001
0000
0100
0000
0010
1000
0010
0000
,  // measure 37
0100
0000
0001
0010
0001
0000
0100
0000
0010
1000
0010
0100
0001
0000
1000
0000
,  // measure 38
0100
0010
0100
0000
1000
0000
0001
0100
0001
0000
1000
0000
0100
0010
0100
0000
,  // measure 39
1000
0000
0001
0100
0001
0000
1000
0000
0100
0010
0100
0010
0001
0000
1000
0000
,  // measure 40
0010
0100
0010
0000
1000
0000
0100
1000
0100
0000
1000
0000
0010
0100
0010
0000
,  // measure 41
1000
0000
0100
0010
0100
0000
1000
0000
0010
0100
0010
1000
0100
0000
0010
0000
,  // measure 42
0001
1000
0001
1000
0100
0000
1000
0001
1000
0001
0100
0000
0001
1000
0001
1000
,  // measure 43
0100
0000
1000
0001
1000
0001
0100
0000
0001
1000
0001
1000
0100
0000
0010
0000
,  // measure 44
0001
1000
0001
1000
0010
0000
1000
0001
1000
0001
0010
0000
0001
1000
0001
1000
,  // measure 45
0010
0000
1000
0001
1000
0001
0010
0000
0001
1000
0010
0100
0001
1000
0100
0000
,  // measure 46
0010
0001
0010
0001
0100
0000
0010
1000
0010
1000
0100
0000
0010
0001
0010
0001
,  // measure 47
0100
0000
0010
1000
0010
1000
0100
0000
0010
0100
0010
0001
1000
0001
0100
0000
,  // measure 48
1010
0000
0000
1000
0000
0000
1100
0000
0000
0100
0000
0000
0110
0000
0000
0010
,  // measure 49
0000
0000
0011
0000
0000
0001
0000
0000
1001
0000
1000
0000
1001
0000
0001
0000
,  // measure 50
0010
0010
0000
0001
0010
0001
0100
0010
,  // measure 51
1000
0000
0010
0000
1000
0000
0001
0000
0010
0000
0100
0000
1000
0000
0000
1000
0000
0000
1000
0000
0000
1000
0000
0000
,  // measure 52
0100
0000
0010
0000
0001
0000
1000
0000
0010
0000
0100
0000
0001
0000
0000
0001
0000
0000
0001
0000
0000
0001
0000
0000
,  // measure 53
0100
0000
0000
0100
0000
0000
0100
0000
0000
0100
0000
0000
0010
0000
1000
0000
0001
0000
0010
0000
0100
0000
1000
0000
,  // measure 54
0010
0000
0000
0010
0000
0000
0010
0000
0000
0010
0000
0000
0100
0000
0001
0000
0010
0000
0100
0000
0010
0000
0001
0000
,  // measure 55
0100
0100
0010
1000
0100
1000
0010
0100
,  // measure 56
0001
0040
0000
0000
0031
0100
0010
1000
,  // measure 57
0001
0000
0000
0020
0000
0000
0130
0000
1000
0000
0001
0000
0100
0000
0000
0001
0000
0000
1000
0000
0000
0010
0000
0000
,  // measure 58
0100
0000
0000
0010
0000
0000
1000
0000
0000
0100
0000
0000
1000
0000
0000
0002
0000
0000
0103
0000
0001
0000
0100
0000
,  // measure 59
0010
1000
0010
1000
0010
1000
0010
1000
0001
0000
0010
0000
0000
0000
0210
0000
,  // measure 60
0000
0000
0000
0000
,  // measure 61
130M
00M0
M000
000M
0M00
00M0
M000
000M
0M10
001M
M000
00M0
0M0M
0010
M100
001M
,  // measure 62
0100
M010
000M
0M00
00M0
000M
1M00
00M0
0M01
M001
00M0
000M
0M00
M001
02M0
000M
,  // measure 63
M320
000M
0M30
M000
000M
0M00
M000
000M
10M0
100M
0M00
M000
00M0
1000
010M
10M0
,  // measure 64
0100
M010
000M
0M10
M000
01M0
100M
0M00
00M4
M000
00M0
M000
0M00
M000
00M0
0M00
,  // measure 65
1003
0010
0100
0001
1000
0010
0100
0001
1000
0010
0100
0001
1000
0010
0100
0001
,  // measure 66
1000
0010
0100
0001
1000
0010
0100
0001
1000
0000
0200
0000
0000
0000
0000
0000
,  // measure 67
0310
0100
1000
0001
0010
0100
1000
0001
0010
0100
1000
0001
0010
0100
1000
0001
,  // measure 68
0010
0100
1000
0001
0010
0100
1000
0001
0100
0000
0001
1000
0100
0000
0010
0000
,  // measure 69
0100
1000
0001
0010
0100
1000
0001
0010
0100
1000
0001
0010
0100
1000
0001
0010
,  // measure 70
0100
1000
0001
0010
0100
1000
0001
0010
0100
0000
2000
0000
0000
0000
0000
0000
,  // measure 71
3001
0100
0010
1000
0001
0100
0010
1000
0001
0100
0010
1000
0001
0100
0010
1000
,  // measure 72
0001
0100
0010
1000
0001
0100
0010
1000
0001
0000
1000
0001
1000
0000
0001
1000
,  // measure 73
0001
0010
0100
1000
0001
0010
0100
1000
0001
0010
0100
1000
0001
0010
0100
1000
,  // measure 74
0001
0010
0100
1000
0001
0010
0100
1000
0001
0000
0200
0000
0000
0000
0000
0000
,  // measure 75
0301
1000
0100
0010
0001
1000
0100
0010
0001
1000
0100
0010
0001
1000
0100
0010
,  // measure 76
0001
1000
0100
0010
0001
1000
0100
0010
0001
0000
1000
0100
1000
0000
0001
1000
,  // measure 77
0010
0100
0010
0100
0010
0100
0010
0100
0010
1000
0010
1000
0010
1000
0010
1000
,  // measure 78
0001
1000
0001
1000
0001
1000
0001
1000
0001
0000
0020
0000
0000
0000
0000
0000
,  // measure 79
0031
0100
0001
0100
0001
0100
0001
0100
0010
1000
0010
1000
0010
1000
0010
1000
,  // measure 80
0001
1000
0001
1000
0001
1000
0001
1000
0001
0000
1000
0000
0001
0000
1000
0000
,  // measure 81
0200
0000
0000
0010
0000
0000
0000
0010
,  // measure 82
0300
0000
0010
0000
0100
0000
0010
0000
0001
0010
0100
1000
0001
0000
0100
0000
,  // measure 83
0020
0000
0000
1000
0000
0000
0000
1000
,  // measure 84
0000
0000
1030
0000
0010
0000
0100
0000
0001
0000
0100
0010
1000
0000
0001
0000
,  // measure 85
2000
0000
0000
0001
0000
0000
0000
0001
,  // measure 86
0000
0000
3001
0000
1000
0000
0010
0000
0100
0001
1000
0001
0100
0000
0010
0000
,  // measure 87
2000
0000
0000
0000
0000
0000
0001
0000
0000
0000
0000
0000
0000
0000
3001
1000
,  // measure 88
0200
0000
0000
0000
0010
0000
0010
0300
,  // measure 89
0021
0000
0000
0001
0000
0000
0000
0000
,  // measure 90
0000
0000
0000
0000
0000
0000
0000
0000
0030
0000
0001
0010
0100
0000
1000
0000
,  // measure 91
0002
0000
0000
1000
0000
0000
0000
1000
,  // measure 92
0003
0000
1000
0000
0001
0000
0100
0000
0001
1000
0100
0010
0001
0000
0010
0000
,  // measure 93
0200
0000
0000
1000
0000
0000
0000
1000
,  // measure 94
0000
0000
0000
0000
0000
0000
0000
0000
0300
0000
0010
0100
1000
0000
0001
0000
,  // measure 95
0201
0000
0000
0010
0000
0000
1000
0000
0000
0010
0000
0000
0001
0000
0000
0010
,  // measure 96
2300
0001
0000
0000
0001
0000
3004
0000
,  // measure 97
1003
0010
1000
0000
0010
1000
0010
0000
0100
0010
0100
0000
0010
0100
0010
0000
,  // measure 98
0100
0001
0100
0000
0001
0100
0001
0000
1001
0000
2200
0000
0000
0000
3300
0000
,  // measure 99
0010
0001
0010
0000
0001
0010
0001
0000
0010
0100
0010
0000
0100
0010
0100
0000
,  // measure 100
1000
0100
1000
0000
0100
1000
0100
0000
1000
0001
1000
0001
0100
0001
0100
0010
,  // measure 101
1000
0010
1000
0000
0010
1000
0010
0000
0100
0010
0100
0000
0010
0100
0010
0000
,  // measure 102
0100
0001
0100
0000
0001
0100
0001
0000
1001
0000
2200
0000
0000
0000
3300
0000
,  // measure 103
0001
0010
0001
0000
1000
0010
1000
0000
0001
0010
0100
1000
0001
0100
0020
0000
,  // measure 104
0000
1030
0000
0000
0000
0000
0000
0000
;

//---------------dance-single - T. Moore----------------
#NOTES:
     dance-single:
     T. Moore:
     Beginner:
     2:
     0.176,0.000,0.074,0.015,0.000:
0000
0000
0000
0000
,
0000
0000
0000
0000
,
0000
0000
0000
0000
,
0000
0000
0000
0000
,
0000
0000
0000
0000
,
0000
0000
0000
0000
,
0000
0000
0000
0000
,
0000
0000
0000
0000
,
0000
0000
0000
0000
,
1000
0000
1000
0000
,
1000
0000
1000
0000
,
1000
0000
1000
0000
,
1000
0000
1000
0000
,
0001
0000
0001
0000
,
0001
0000
0001
0000
,
0001
0000
0000
0000
,
0000
0000
0000
0000
,
1001
0000
1000
0000
,
0000
0000
1000
0000
,
0000
0000
1000
0000
,
0000
0000
0000
0000
,
1010
0000
0010
0000
,
0000
0000
0010
0000
,
0010
0000
0010
0000
,
0010
0000
0000
0000
,
0100
0000
0001
0000
,
0000
0000
0001
0000
,
0100
0000
0001
0000
,
0000
0000
0000
0000
,
1001
0000
0001
0000
,
0000
0000
0001
0000
,
0000
0000
0001
0000
,
0011
0000
0000
0000
,
1000
0000
1000
0000
,
1000
0000
1000
0000
,
0010
0000
0010
0000
,
0010
0000
0010
0000
,
0100
0000
0100
0000
,
0100
0000
0100
0000
,
0001
0000
0001
0000
,
0001
0000
0001
0000
,
1001
0000
1000
0000
,
0001
0000
1000
0000
,
0001
0000
1000
0000
,
0001
0000
1000
0000
,
0100
0000
0010
0000
,
0100
0000
0010
0000
,
0100
0000
0010
0000
,
0100
0000
0010
0000
,
0011
0000
1000
0000
,
0000
0000
0010
0000
,
0000
0000
0100
0000
,
0000
0000
0001
0000
,
1000
0000
0100
0000
,
0010
0000
0010
0000
,
0000
0000
0001
0000
,
0001
0000
0101
0000
,
0100
0000
0000
0000
,
0010
0010
0010
0000
,
1001
0000
0000
0000
,
1000
0000
0000
0000
,
0100
0000
0000
0000
,
0110
0000
0000
0000
,
0010
0000
0000
0000
,
1000
0000
0001
0000
,
1000
0000
0001
0000
,
1000
0000
0001
0000
,
1000
0000
0001
0000
,
1000
0000
0001
0000
,
1000
0000
0001
0000
,
1000
0000
0001
0000
,
1000
0000
0001
0000
,
1000
0000
0001
0000
,
1000
0000
0001
0000
,
1000
0000
0001
0000
,
1000
0000
0001
0000
,
1000
0000
0001
0000
,
1000
0000
0001
0000
,
1000
0000
0001
0000
,
1000
0000
0001
0000
,
1000
0000
0000
0000
,
0000
1000
1000
1000
,
0001
0000
0000
0000
,
0000
0001
0001
0001
,
0010
0000
0000
0000
,
0000
0010
0010
0010
,
0100
0000
0000
0000
,
1000
0000
0000
0000
,
1001
0000
0000
0000
,
0000
0000
0000
0001
,
1000
0000
0000
0000
,
0000
0000
0001
1000
,
0010
0000
0000
0000
,
0000
0000
0000
0000
,
2000
0000
0000
0000
,
0002
0000
0000
0000
,
3003
0000
0001
0000
,
0100
0000
0010
0000
,
1000
0000
0010
0000
,
0100
0000
0001
0000
,
1000
0000
0100
0000
,
0010
0000
0001
0000
,
0010
0000
0000
0000
0100
0000
0000
1000
;

//---------------dance-single - T. Moore----------------
#NOTES:
     dance-single:
     T. Moore:
     Easy:
     4:
     0.261,0.000,0.141,0.089,0.015:
0000
0000
0000
0000
,
0000
0000
0000
0000
,
0000
0000
0000
0000
,
0000
0000
0000
0000
,
0000
0000
0000
0000
,
0000
0000
0000
0000
,
0000
0000
0000
0000
,
0000
0000
0000
0000
,
0000
0000
0000
0000
,
0011
0000
0001
0000
,
0001
0000
0001
0000
,
0001
0000
0001
0000
,
0001
0000
0001
0000
,
1100
0000
1000
0000
,
1000
0000
1000
0000
,
1000
0000
1000
0000
,
1000
0001
1000
0001
,
0101
0000
0001
0000
,
0000
0001
0001
0000
,
1000
0000
0000
0000
0001
0000
0000
0001
,
0000
0000
0000
0000
,
0011
0000
0010
0000
,
0000
0010
0010
0000
,
0100
0000
1000
0000
,
1000
0000
0001
0000
1000
0000
0001
0000
1000
0000
0001
0000
,
0100
0000
0010
0000
,
0000
0010
0010
0000
,
1000
0000
0000
0000
0010
0000
0000
0010
,
0000
0000
0000
0000
,
1001
0000
1000
0000
,
0000
1000
1000
0000
,
0001
0000
0000
0000
1000
0000
0000
1100
,
0000
0000
0000
0000
,
0010
0000
0000
0010
0000
0000
0010
0000
,
0000
0010
0000
0000
0001
0000
0000
0000
,
0100
0000
0000
0100
0000
0000
0100
0000
,
0000
0100
0000
0000
0100
0000
0000
0000
,
0010
0000
0000
0010
0000
0000
0010
0000
,
0000
0010
0000
0000
0010
0000
0000
0000
,
1000
0000
0000
1000
0000
0000
1000
0000
,
0000
1000
0000
0000
1000
0000
0000
0000
,
1001
0000
0000
0001
0000
0000
0001
0000
,
0000
0001
0000
0000
0001
0000
0000
0000
,
0010
0000
0000
0010
0000
0000
0010
0000
,
0000
0010
0000
0000
0010
0000
0000
0000
,
0100
0000
0000
0100
0000
0000
0100
0000
,
0000
0100
0000
0000
0100
0000
0000
0000
,
1100
0000
0000
0001
0000
0000
1000
0000
,
0000
0010
0000
0000
0100
0000
0000
0000
,
0101
0000
0000
0000
0001
0000
0000
0001
,
0000
0000
0100
0000
,
0100
0010
1000
0000
,
0000
0000
0001
0010
,
0100
0000
0010
0001
,
1000
0000
0000
0000
1000
0000
0000
1000
,
0000
0001
0000
0000
0100
0000
0000
0000
,
0100
0000
0110
0000
,
0010
0000
0000
0010
0000
1000
0000
0000
,
0001
0000
0001
0000
0001
0000
0000
2002
,
0000
0000
3003
0000
,
0001
0000
0000
0000
0000
0000
0000
0100
,
0100
0000
0000
0000
,
1010
0000
0000
0000
0000
0000
0000
0001
,
0001
0000
0000
0000
,
0011
0000
0100
0000
,
1000
0000
0001
0000
,
0101
0000
1000
0000
,
0100
0000
0010
0010
,
0001
0000
1000
0000
,
0010
0000
0100
0000
,
0001
0000
1000
0000
,
0001
0000
0010
0000
,
0100
0000
1000
0000
,
0001
0000
0100
0000
,
0110
0000
1000
0000
,
0001
0000
0010
0010
,
0110
0000
1000
0000
,
0001
0000
0100
0000
,
0110
0000
1000
0000
,
0001
0000
0010
0010
,
0020
0000
0000
0000
,
0000
0031
0001
0001
,
2000
0000
0000
0000
,
3000
1000
1000
1000
,
0020
0000
0000
0000
,
0030
0010
1000
0100
,
0020
0000
0000
0000
,
0032
0000
0000
0003
,
2001
0000
0001
0000
,
0001
0000
3001
1000
,
0002
0000
1000
0000
,
1000
0000
1003
0010
,
0200
0000
0001
0000
,
0001
0000
0301
0100
,
0002
0000
0000
0000
,
2000
0000
0000
3000
,
1003
1000
0010
0010
,
0100
0100
0001
0000
,
1001
1000
0100
0100
,
0010
0010
0001
0010
,
0100
0100
1000
1000
,
0001
0001
0100
0000
,
0010
0000
0010
0000
1000
0000
0000
0001
;

//---------------dance-single - T. Moore----------------
#NOTES:
     dance-single:
     T. Moore:
     Medium:
     8:
     0.581,0.000,0.223,0.409,0.026:
0000
0000
0000
0000
,
0000
0000
0000
0000
,
0000
0000
0000
0000
,
0000
0000
0000
0000
,
0000
0000
0000
0000
,
0000
0000
0000
0000
,
0000
0000
0000
0000
,
0000
0000
0000
0000
,
0000
0000
0000
0000
,
0110
0000
0010
0000
,
0010
0000
0010
0000
,
0010
0000
0010
0000
,
0010
0000
0010
1000
,
1001
0000
0001
0000
,
0100
0000
0010
0000
,
1000
1000
0001
0001
,
0010
0000
0100
0000
4000
0004
0000
3000
,
1003
0010
0000
0010
0100
0000
0000
0001
,
0000
1000
0000
0001
1000
0000
1000
0000
,
0100
0010
0000
0010
0001
0000
0000
1001
,
0000
0000
0000
0000
0000
MMMM
0000
0000
,
1000
0010
0000
0010
0100
0000
0000
0001
,
0000
0101
0000
0100
0010
0100
0000
0100
,
0001
0000
1000
0000
1000
0100
0000
0100
,
0010
0000
0001
0000
1000
0000
0010
0000
0100
0000
0001
0000
,
1001
0001
0000
1000
0001
0100
0000
0000
,
0000
0010
1000
0001
0010
0001
0010
0100
,
1000
0001
1000
0100
0010
0001
1000
0001
,
0000
0400
0000
0000
0000
0000
0000
0000
,
0301
1000
0000
1000
0100
0000
0000
0000
,
0000
0010
0100
1000
0010
1000
0000
0001
,
0010
0100
0010
0001
1000
0010
0100
01M1
,
00M0
00M0
00M0
00M0
00M0
00M0
00M0
00M0
,
20M0
0000
3100
0020
0000
0130
2000
0000
,
3100
0020
0000
0130
1000
0001
0100
0001
,
0020
0000
0031
2000
0000
3001
0020
0000
,
0031
2000
0000
3001
0010
0100
1000
0000
,
0002
0000
1003
0200
0000
1300
0002
0000
,
1003
0200
0000
1300
0001
0100
0010
1000
,
0002
0000
1003
0020
0000
1030
0002
0000
,
1003
0020
0000
1030
0001
0010
0100
0010
,
0002
0000
0013
0200
0000
1300
0002
0000
,
0103
0020
0000
0130
0001
1000
0100
0010
,
0002
0000
0103
0020
0000
1030
0200
0000
,
0310
0002
0000
1003
0001
0010
0001
0100
,
0020
0000
1030
0200
0000
0310
0200
0000
,
1300
0020
0000
0130
0001
0010
0100
0010
,
0002
0000
1003
0200
0000
0310
0002
0000
,
1003
0020
0000
0130
0001
1000
0100
1000
,
0020
0100
0000
0100
0130
0000
0000
0001
,
0000
1000
0010
0100
0001
0010
0000
0100
,
1000
0010
1000
0001
0020
0100
0000
0130
,
1000
0000
0010
1000
0001
1000
0010
0100
,
0004
0000
0000
0000
0103
0010
1000
0001
,
0040
0000
0030
0001
0010
0001
0000
1001
,
0000
0200
0000
0300
1010
0000
0000
0100
,
0001
0020
0000
0030
0110
0000
0000
1000
,
0001
1000
0000
1010
0000
0002
0000
0003
,
0100
0001
0100
0001
0100
0010
0000
2002
,
0000
0000
0000
0000
,
3003
0000
0000
0000
0000
0000
0000
0000
0010
0010
0000
0000
0000
0000
1010
0000
,
1010
0000
0000
0000
0000
0000
0000
0000
0001
0001
0000
0000
0000
0000
1000
0000
,
1200
0000
0000
0000
0000
0000
0000
0000
0310
0010
0000
0000
0000
0000
0011
0000
,
0011
0000
4000
0000
,
3001
0100
0010
1000
0001
0100
0010
1000
,
0001
0100
0010
1000
0001
2000
0000
0000
,
3001
0010
0100
1000
0001
0010
0100
1000
,
0001
0010
0100
1000
0001
0000
0001
1000
,
0001
0100
0010
1000
0001
0100
0010
1000
,
0001
0100
0010
1000
0001
0200
0000
0000
,
0301
0010
0100
1000
0001
0010
0100
1000
,
0001
0010
0100
1000
0001
1000
0001
1000
,
0010
0100
0001
1000
0010
0100
0001
1000
,
0010
0100
0001
1000
0010
0200
0000
0000
,
0301
1000
0100
0010
0001
1000
0100
0010
,
0001
1000
0100
0010
0001
1000
0001
0000
,
0101
0010
1100
0010
,
1001
0000
0010
0000
0001
0200
0000
0300
,
0110
1000
0011
0100
,
1001
0000
0100
0000
0010
1000
0010
1000
,
0002
0000
0000
0000
,
0000
1003
0001
1000
0010
0100
0001
0010
,
0002
0000
0000
0000
,
0000
0013
0001
0100
0010
0100
0001
0010
,
0200
0000
0000
0000
,
0000
1300
0100
1000
0001
0100
0010
1000
,
0200
0000
0000
0000
0000
0000
0000
0310
,
0002
0000
0000
1003
,
2010
0000
0000
0000
,
0000
0000
0000
0000
0000
3010
1000
0001
,
2000
0000
0000
0000
,
0000
3001
1000
0010
0100
0001
0010
0001
,
0200
0000
0000
0000
,
0000
0000
0000
0000
0000
0000
0310
0100
,
0101
0000
0000
1010
0000
0000
1001
0000
,
0000
1100
0000
0000
0011
0000
0000
0000
,
1000
0001
1000
0001
0100
0010
0100
0010
,
1000
0001
1000
0001
0010
0210
0000
0000
,
1300
0100
1000
0100
0010
0001
0010
0001
,
0100
0001
0100
0001
0100
0010
1000
0010
,
0100
0001
0100
0001
0010
0001
0010
0001
,
0010
0100
0010
0100
1000
2001
0000
0000
,
3001
0010
0001
0010
0100
1000
0010
0200
,
0000
0300
0000
0000
0000
0000
0000
0000
;
