#TITLE:Cat And Mouse;
#SUBTITLE:;
#ARTIST:Neko;
#TITLETRANSLIT:;
#SUBTITLETRANSLIT:;
#ARTISTTRANSLIT:;
#GENRE:;
#CREDIT:;
#BANNER:cat and mouse bn.png;
#BACKGROUND:cat and mouse bg.png;
#LYRICSPATH:;
#CDTITLE:;
#MUSIC:Cat And Mouse.ogg;
#OFFSET:-0.067;
#SAMPLESTART:33.250;
#SAMPLELENGTH:12.000;
#SELECTABLE:YES;
#DISPLAYBPM:188.000;
#BPMS:0.000=188.140,232.000=94.070,234.000=188.140;
#STOPS:;
#BGCHANGES:;
#KEYSOUNDS:;

//---------------dance-single - T. Moore----------------
#NOTES:
     dance-single:
     T. Moore:
     Challenge:
     11:
     0.920,0.933,0.010,0.010,0.510:
0000
0000
0000
0000
,
0011
0000
0000
0100
10M0
0000
0001
0010
M001
0010
0100
1000
0001
1000
0010
1000
,
0M01
1000
0010
1000
0001
1000
0010
1000
,
0001
0000
0010
0000
0100
0000
0010
0000
0001
0000
0010
0000
0100
0000
0010
0001
,
1000
0010
0100
0010
1000
0010
0100
0010
,
1000
0000
0001
0000
0010
0000
0001
0000
1000
0000
0001
0010
010M
1000
0100
1000
,
00M1
1000
0010
1000
0001
1000
0010
1000
,
0001
0000
0010
0000
0100
0000
0010
0000
0001
0000
0010
0000
0100
0000
0010
0001
,
1000
0010
0100
0010
1000
0010
0100
0010
,
10M0
0000
0010
0100
0010
0000
10M0
0000
0010
0100
0010
0000
M100
0001
0100
0001
,
10M0
0000
0100
0100
0001
0000
1000
0000
0100
0100
0001
0000
0010
0000
0100
0000
,
1000
0000
0100
0100
0001
0000
1000
0000
0010
0010
0001
0000
1000
0000
0010
0000
,
0100
0000
0001
0001
0100
0000
0001
0000
,
0010
0010
0100
0000
1000
0000
0010
0000
,
100M
0000
0100
0100
0001
0000
1000
0000
0100
0100
0001
0000
0010
0000
0100
0000
,
1000
0000
0100
0100
0001
0000
1000
0000
0010
0010
0001
0000
0100
0000
0010
0000
,
1000
0000
0001
0001
1000
0000
0001
0000
,
0010
0010
0001
0000
0100
0000
0010
0000
,
100M
0000
0010
0010
0001
0000
1000
0000
0100
0100
0001
0000
0010
0000
0001
0000
,
1000
0000
0010
0010
0001
0000
1000
0000
0010
0010
0001
0000
1000
0000
1000
0000
,
0010
0000
0100
0100
0001
0000
1000
0000
,
0100
0100
0010
0000
0001
0000
0100
0000
,
M001
0000
0010
0010
1000
0000
0001
0000
0100
0100
1000
0000
0010
0000
1000
0000
,
0001
0000
0010
0010
1000
0000
0001
0000
0010
0010
1000
0000
0001
0000
0001
0000
,
0010
0000
0100
0100
1000
0000
0001
0000
,
0100
0000
0100
0000
0010
0000
0000
0000
1000
0000
0000
0000
0100
0000
0010
0001
,
1M00
0000
1000
0000
1000
0010
0100
0001
,
0000
1000
1000
0001
0000
1000
0001
0010
,
0100
0000
1000
0100
0000
1000
0100
0010
,
0001
0000
0000
0000
1000
0000
0001
0000
0000
0000
1000
0000
0001
0000
1000
0001
,
01M0
0000
0100
0000
0100
0010
1000
0001
,
0000
0010
0010
0001
0000
0010
0001
0100
,
0010
0000
1000
0010
0000
1000
0010
0100
,
0001
0000
0000
0000
1000
0000
0001
0000
0000
0000
1000
0001
0010
0001
1000
0001
,
0M10
0000
0010
0000
0010
0100
1000
0001
,
0000
0100
0100
0001
0000
0100
0001
0010
,
0100
0000
1000
0100
0000
1000
0100
0010
,
0001
0000
0000
0000
1000
0000
0001
0000
0000
0000
1000
0000
0001
0000
1000
0010
,
010M
0000
0100
0000
0100
0001
0010
0100
,
0000
1000
1000
0100
0000
1000
0100
0010
,
0001
0000
1000
0001
0000
1000
0001
0100
,
001M
0000
1000
0001
1000
0000
001M
0000
1000
0001
1000
0000
001M
1000
0010
1000
,
0M01
0100
0001
4000
0100
0000
3001
0100
,
0010
1000
0001
0040
0100
0000
0031
0100
,
0010
1000
0010
0400
0001
0000
0310
1000
,
0001
0000
0010
0000
0001
0000
1000
0000
0040
0000
1030
0010
1000
0010
1000
0010
,
0100
0000
0001
1000
0001
1000
0100
0000
1000
0000
0010
0000
0100
0000
0010
0000
,
1000
0000
0001
1000
0100
0000
0100
0000
0010
0000
0100
0000
0010
0000
0001
0000
,
1000
0000
0010
0100
0010
0000
0100
0000
0001
0000
1000
0000
0100
0000
1000
0000
,
0001
0000
0100
0010
0100
0001
1000
0000
0100
1000
0100
0000
1000
0100
0010
0001
,
1000
0000
0001
1000
0001
0000
0100
0000
0001
0000
1000
0000
0100
0000
0010
0000
,
0001
0000
0010
0100
1000
0000
1000
0000
0001
0000
1000
0000
0010
0000
0100
0001
,
1000
0000
0100
1000
0001
0000
0100
0000
0010
0000
1000
0000
0001
0000
0010
0000
,
0100
0000
0010
0001
0010
0001
1000
0000
0001
0100
0001
0000
1000
0100
0010
0001
,
1000
0000
0100
0010
0001
1000
0010
0000
0100
0000
0010
0000
1000
0000
0100
0000
,
0010
0000
0100
1000
0001
0000
0001
0000
0100
0000
0001
0000
0010
0000
0100
0000
,
1000
0000
0100
0010
0001
1000
0010
0000
1000
0000
0001
0000
0010
0000
0001
0000
,
0100
0000
0010
1000
0001
1000
0010
0000
0100
0001
0100
0001
0100
0001
0100
0001
,
0200
0000
0000
0000
0000
0000
0000
0000
0301
0000
0000
1000
0010
0000
0100
0001
,
0100
0001
1000
0010
0100
0001
1000
0100
0010
0000
0001
0000
0010
0000
0100
0000
,
0010
0001
0100
0010
1000
0001
0001
0010
,
0001
0000
1000
0000
0010
0000
0100
0000
0001
0000
1000
0100
0010
0000
0100
1000
,
0100
1000
0001
0100
0001
1000
0100
0010
0100
0000
1000
0000
0001
0000
0100
0000
,
0001
1000
0100
1000
001M
0100
0010
1000
,
0010
0100
0001
0010
0100
1000
1000
0010
,
1000
0000
0100
0000
0010
0000
0001
0000
1000
0000
0010
1000
0001
0000
0010
0100
,
1000
0001
0100
0010
0100
0001
1000
0001
0010
0000
0001
0000
1000
0000
0010
0000
,
1000
0000
0001
0000
0010
0000
0001
0000
10M0
0000
0010
0010
0001
0000
1000
0000
,
0010
0010
0001
0000
0100
0000
0001
0000
1000
0000
0010
0010
0001
0000
1000
0000
,
0100
0100
0001
0000
0010
0000
0100
0000
1000
0000
0000
0000
0010
0000
0010
0000
,
0100
0000
0010
0000
1000
1000
0010
0000
,
0100
0000
0000
0000
0010
0000
0000
0000
10M0
0000
0100
0100
0001
0000
1000
0000
,
0100
0100
0001
0000
0010
0000
0001
0000
1000
0000
0100
0100
0001
0000
1000
0000
,
0010
0010
0001
0000
0100
0000
0010
0000
1000
0000
0000
0000
0001
0000
0001
0000
,
0010
0000
0001
0000
100M
1000
0010
000M
,
0100
001M
100M
0000
;

//---------------dance-single - J.Berkowitz----------------
#NOTES:
     dance-single:
     J.Berkowitz:
     Hard:
     9:
     0.787,0.778,0.443,0.051,0.185:
0000
0000
0000
0000
,
1001
0000
0000
1001
0000
0000
1001
0000
1000
0000
0100
0000
0010
0000
0001
0000
,
0100
0010
0000
0010
0000
0010
0000
1000
,
0000
0001
0000
0001
0000
0001
0000
0010
,
0000
0100
0000
0100
0000
0100
0000
1000
,
0000
0001
0000
0001
0000
0001
0000
0001
,
0000
0010
0000
0001
0000
1000
0000
0010
,
0000
0100
0000
0001
0000
1000
0000
0100
,
0000
0010
0000
0001
0000
1000
0000
0010
,
0110
0000
0100
0101
0000
0001
1001
0000
,
1000
0000
0001
0100
0001
0000
1000
0000
0100
0010
0100
0000
1000
0000
0001
0000
,
0100
0000
0010
1000
0010
0000
0100
0000
0001
0010
0001
0000
1000
0000
0010
0000
,
0100
0000
0001
0001
1000
0000
0100
0000
,
0010
0010
0001
0000
1000
0000
0010
0000
,
0100
0000
0001
1000
0001
0000
0010
0000
0001
1000
0001
0000
0100
0000
0010
0000
,
1000
0000
0100
1000
0100
0000
0010
0000
0001
0100
0001
0000
1000
0000
0100
0000
,
0010
0000
0001
0001
0100
0000
0010
0000
,
1000
1000
0001
0000
0010
0000
0100
0000
,
1000
0000
0010
0100
0001
0000
1000
0000
0100
0010
0001
0000
0010
0000
0100
0000
,
1000
0000
0001
0100
0010
0000
1000
0000
0001
0010
0100
0000
1000
0000
0001
0000
,
0100
0000
0010
0010
1000
0000
0001
0000
,
0010
0010
0100
0000
1000
0000
0010
0000
,
0100
0000
0001
1000
0010
0000
1000
0000
0001
0010
0100
0000
1000
0000
0010
0000
,
1000
0000
0001
0010
0100
0000
1000
0000
0100
0010
0001
0000
0100
0000
0010
0000
,
1000
0000
0001
0001
0010
0000
0100
0000
,
1000
1000
0010
0000
0100
0000
0001
0000
,
1000
0000
0100
0000
0010
0001
0100
0010
,
0000
1000
1000
0001
0000
0010
0100
1000
,
0010
0000
0100
0001
0000
1000
0100
0010
,
0001
0000
0100
0010
0000
0100
0001
0010
,
0100
0000
1000
0000
0001
0100
0010
1000
,
0000
0100
0010
0001
0000
1000
0010
0100
,
0010
0000
1000
0001
0000
0010
0100
1000
,
0010
0000
0100
0001
0000
1000
0100
0010
,
0011
0000
1010
0000
0101
0001
1000
0100
,
0000
1000
0010
0110
0000
0100
0001
0010
,
0110
0000
0100
1100
0000
1000
0010
0100
,
0101
0000
0001
0011
0000
0010
0100
0010
,
0011
0000
1010
0000
1001
0001
0010
0100
,
0000
1000
0010
0110
0000
0100
0001
1000
,
1100
0000
0100
0110
0000
0010
0001
1000
,
1010
0000
0010
0110
0000
0100
0101
0000
,
0001
0010
0001
0020
0000
0130
1000
0100
,
1000
0100
1000
0200
0000
1300
0001
1000
,
0001
1000
0001
2000
0000
3010
1000
0010
,
0100
0001
0100
0000
0002
0000
0000
0000
,
1003
0001
0100
0010
0000
1000
0100
0010
,
0001
0000
0000
0100
0010
0000
0010
0000
0000
0000
1000
0000
0001
0000
0010
0000
,
0100
0000
1000
0010
1000
0000
0001
0000
0000
0000
0010
0000
0100
0000
1000
0000
,
0010
0000
0100
0001
0000
1000
0100
0000
0010
0000
0010
0000
0001
0000
1000
0000
,
0010
0000
0100
0001
1000
0100
0000
0101
,
0000
0001
0010
0000
0110
0000
1100
0000
,
1001
0000
0001
0100
0010
1000
0000
1100
,
0000
1000
0010
0100
0001
0000
0010
0000
,
0001
0100
1000
0100
0010
1000
0001
0000
,
0010
0001
0010
1000
0010
0100
1000
0000
,
0010
0001
0010
0100
0001
0010
0100
0000
,
1000
0100
0001
0100
1000
0010
0100
0000
,
M0M2
0000
0000
0000
0000
0000
0000
0003
1001
0000
0000
1001
0000
0000
1001
0000
,
0001
0010
0100
1000
1010
0000
0101
0000
,
0011
0001
0100
0010
0000
1000
0010
0110
,
0000
0000
0100
0000
0001
0000
1000
0000
0100
0000
0010
0000
0001
0000
0000
1000
,
0010
0000
0100
0001
0000
1000
0100
0000
0010
0000
0001
0000
1000
0000
0010
0000
,
1000
0001
0010
0100
1100
0000
1010
0000
,
0110
0100
0001
1000
0000
0100
0010
0011
,
0000
0000
0001
0000
1000
0000
0010
0000
0100
0000
0001
0000
1000
0000
0000
0100
,
0010
0000
0001
0100
0000
0010
1000
0000
0001
0000
0010
0000
0100
0000
0010
0000
,
0001
0000
0100
0000
0010
0000
1000
0000
0001
0000
1000
0100
0010
0000
0001
0000
,
0100
0010
1000
0000
0001
0000
0010
0000
0100
0000
1000
0001
0100
0000
0010
0000
,
1000
0001
0010
0000
0100
0000
1000
0000
0010
0000
0000
0000
0100
0000
0100
0000
,
0001
0000
1000
0000
0100
0100
0010
0000
,
0001
0000
0000
0000
0010
0000
0000
0000
0100
0000
1000
0001
0100
0000
0010
0000
,
0100
0001
1000
0000
0100
0000
0010
0000
0001
0000
1000
0010
0100
0000
0001
0000
,
1000
0100
0010
0000
0001
0000
0000
0000
0100
0000
0000
0000
0010
0000
0010
0000
,
1000
0000
0100
0000
0011
0000
0001
1001
,
0000
1000
1010
0000
0101
0000
0000
0000
;

//---------------dance-single - J.Berkowitz----------------
#NOTES:
     dance-single:
     J.Berkowitz:
     Medium:
     7:
     0.614,0.544,0.103,0.021,0.000:
0000
0000
0000
0000
,
1001
0110
1001
0110
,
1000
0100
0010
0001
,
0100
0000
0010
0000
1000
0000
0001
0010
,
0100
1000
0001
0100
,
0010
0000
1000
0000
0100
0010
0001
0010
,
0100
1000
0001
0100
,
0010
0000
1000
0000
0001
0000
0010
0100
,
1000
0001
0100
0010
,
1000
0000
0001
1000
0000
0001
1000
0000
,
0100
0010
0001
0000
0100
0010
1000
0000
,
0001
0010
0100
0000
1000
0010
0100
0000
,
0001
0000
1000
0100
1000
0000
0001
0000
,
0100
0010
0100
0000
0001
0000
1000
0000
,
0100
0010
0001
0000
1000
0010
0100
0000
,
0001
0010
0100
0000
1000
0001
0100
0000
,
0010
0000
1000
0100
1000
0000
0001
0000
,
0100
0010
0100
0000
0001
0000
0010
0000
,
0100
1000
0001
0000
0100
0010
1000
0000
,
0001
0010
0100
0000
1000
0010
0100
0000
,
0001
0000
1000
0100
0010
0000
0001
0000
,
0100
0010
1000
0000
0001
0000
0010
0000
,
0100
0010
0001
0000
0100
0010
1000
0000
,
0010
0100
0001
0000
0010
0100
1000
0000
,
0001
0000
0100
0010
1000
0000
0100
0000
,
0010
0001
0100
0000
0010
0000
1000
0000
,
0001
0000
0001
0000
0001
0010
0100
1000
,
0000
0010
0100
0001
0000
1000
0100
0010
,
0001
0000
1000
0001
0000
0100
0010
1000
,
0100
0000
0010
0100
0000
1000
0010
0100
,
0001
0000
0001
0000
0001
1000
0100
0010
,
0000
0100
1000
0010
0000
0100
0001
1000
,
0100
0000
0010
0100
0000
1000
0010
0100
,
0001
0000
0010
0001
0000
0010
0100
1000
,
0010
0000
0010
0000
0010
0100
0001
1000
,
0000
0100
0010
0001
0000
0100
0010
1000
,
0100
0000
0010
0100
0000
1000
0010
0100
,
0001
0000
0010
0001
0000
1000
0001
0010
,
0100
0000
0100
0000
0100
1000
0001
0100
,
0000
0010
1000
0100
0000
1000
0010
0100
,
0001
0000
0010
0001
0000
0100
0010
1000
,
0100
0000
0010
0100
0000
1000
0001
0100
,
0010
1000
0010
1000
,
0001
0010
0001
0010
,
0100
1000
0100
1000
,
0001
0000
0000
0000
1000
0100
0010
0001
,
0100
0000
0010
0100
0000
0001
0000
1000
,
0100
0000
0010
0100
0000
1000
0000
0010
,
0100
0000
0001
1000
0000
0100
0000
0010
,
0001
0000
1000
0000
0100
0010
0001
1000
,
0001
0000
0001
0100
0010
1000
0000
0100
,
0000
0100
0010
0000
0001
0000
1000
0000
,
0010
0000
0010
0100
0001
1000
0000
0100
,
0000
0100
1000
0001
1000
0000
0010
0000
,
0100
0001
0100
0001
1000
0000
0100
0000
,
0010
0000
0001
1000
0001
0000
0010
0000
,
0100
1000
0100
1000
0001
0000
0100
0000
,
0010
1000
0100
0010
0001
0000
1000
0000
,
2002
0000
0000
3003
0110
0000
1001
0000
,
0110
1001
1000
0100
,
0010
0001
0100
0010
0000
1000
0001
0010
,
0000
0100
1000
0010
0100
0000
0001
0100
,
0000
0010
1000
0001
0010
0000
0100
0010
,
0000
0001
0100
0010
1000
0000
0100
0000
,
0010
0100
1000
0010
0000
0100
0001
1000
,
0000
0100
0010
0001
0100
0000
0010
0100
,
0000
0001
0010
0100
1000
0000
0010
1000
,
0000
0001
0010
0100
1000
0001
0100
0000
,
0001
1000
0100
0000
0010
0100
1000
0000
,
0001
0100
0010
0000
1000
0000
0001
0010
,
0100
0000
1000
0000
0001
0100
0010
0000
,
0100
0000
0001
0000
0010
0100
1000
0000
,
0001
0100
0010
0000
1000
0001
0010
0000
,
0001
0100
0010
0000
1000
0000
0100
0010
,
0001
0000
0010
0000
0001
1000
0010
0000
,
0100
0001
1001
0000
;

//---------------dance-single - J.Berkowitz----------------
#NOTES:
     dance-single:
     J.Berkowitz:
     Easy:
     3:
     0.309,0.350,0.165,0.134,0.000:
0000
0000
0000
0000
,
1001
0100
1001
0010
,
0000
1000
0000
0001
,
0000
0010
0000
0100
,
0000
1000
0000
0010
,
0000
0100
0000
1001
,
0000
0010
0000
1000
,
0000
0001
0000
0010
,
0000
0100
0000
1000
,
1001
0000
0000
1001
0000
0000
1001
0000
,
0100
0000
0001
0000
,
0010
0000
0100
0000
,
1000
0000
0010
0000
,
1000
0000
0100
0000
,
0010
0000
0001
0000
,
1000
0000
0010
0000
,
0100
0000
0001
0000
,
1000
0000
0001
0000
,
1000
0000
0100
0000
,
0010
0000
0001
0000
,
0100
0000
0010
0000
,
1000
0001
1000
0000
,
0010
0000
0100
0000
,
0001
0000
0010
0000
,
0100
0000
1000
0000
,
0001
0100
0001
0000
,
1000
0000
1000
0000
,
0010
0100
0001
0000
,
0010
0000
0010
0000
,
0001
0100
0010
0000
,
1000
0000
1000
0000
,
0100
0010
0001
0000
,
0100
0000
0100
0000
,
0010
1000
0001
0000
,
0020
0030
0001
0000
,
1000
0010
0100
0000
,
0002
0003
1000
0000
,
0100
0010
0001
0000
,
2000
3000
0010
0000
,
0100
0001
1000
0000
,
0200
0300
0010
0000
,
1001
0000
0000
1001
0000
0000
1001
0000
,
2000
3000
0002
0003
,
0020
0030
0200
0300
,
2000
3000
0020
0030
,
0200
0300
0002
0003
,
1000
0000
0001
0000
,
0010
0100
1000
0000
,
0010
0000
0100
0000
,
0001
0010
0100
0000
,
1000
0001
0100
0000
,
0001
0000
1000
0000
,
0100
0010
0001
0000
,
0100
0000
0010
0000
,
0100
0001
0100
0000
,
0010
1000
0010
0000
,
1000
0100
1000
0000
,
0001
0010
0001
0000
,
2000
0000
0000
3000
1001
0000
0000
1001
,
0000
1001
1000
0000
,
0100
0000
0010
0000
,
0001
0000
0100
0010
,
1000
0000
0010
0100
,
0001
0000
1000
0000
,
0100
0000
0010
0000
,
0001
0000
1000
0010
,
0100
0000
0001
0100
,
0010
0000
1000
0010
,
1000
0000
0001
0010
,
0001
0000
1000
0000
,
0001
0000
0010
0000
,
0100
0000
1000
0100
,
1000
0000
0001
0100
,
0001
0000
1000
0000
,
0001
0000
0000
0000
1001
0000
0000
1001
,
0000
1001
0110
0000
;

//---------------dance-single - J.Berkowitz----------------
#NOTES:
     dance-single:
     J.Berkowitz:
     Beginner:
     1:
     0.121,0.156,0.062,0.000,0.000:
0000
0000
0000
0000
,
1001
0000
0000
0000
,
1000
0000
0000
0000
,
0100
0000
0000
0000
,
0010
0000
0000
0000
,
0001
0000
0000
0000
,
1000
0000
0000
0000
,
0010
0000
0000
0000
,
0100
0000
0000
0000
,
1001
0000
0000
0000
,
0010
0000
0000
0000
,
0100
0000
0000
0000
,
0001
0000
0000
0000
,
0010
0000
0000
0000
,
0100
0000
0000
0000
,
1000
0000
0000
0000
,
0001
0000
0000
0000
,
1000
0000
0000
0000
,
0010
0000
0000
0000
,
0100
0000
0000
0000
,
0001
0000
0000
0000
,
0010
0000
0000
0000
,
0100
0000
0000
0000
,
0010
0000
0000
0000
,
0001
0000
0000
0000
,
0100
0000
0000
0000
,
0010
0000
0000
0000
,
1000
0000
0000
0000
,
0001
0000
0000
0000
,
0100
0000
0000
0000
,
0010
0000
0000
0000
,
0100
0000
0000
0000
,
0001
0000
0000
0000
,
1000
0000
0000
0000
,
0100
0000
0000
0000
,
0010
0000
0000
0000
,
0001
0000
0000
0000
,
0100
0000
0000
0000
,
0010
0000
0000
0000
,
1000
0000
0000
0000
,
0100
0000
0000
0000
,
1001
0000
0000
0000
,
0100
0000
0000
0000
,
0010
0000
0000
0000
,
1000
0000
0000
0000
,
0001
0000
0000
0000
,
0010
0000
0000
0000
,
0001
0000
0000
0000
,
1000
0000
0000
0000
,
0010
0000
0000
0000
,
1000
0000
0000
0000
,
0100
0000
0000
0000
,
0010
0000
0000
0000
,
0001
0000
0000
0000
,
1000
0000
0000
0000
,
0010
0000
0000
0000
,
0100
0000
0000
0000
,
0001
0000
0000
0000
,
1000
0000
1001
0000
,
0000
0000
0001
0000
,
0000
0000
0010
0000
,
0000
0000
0100
0000
,
0000
0000
1000
0000
,
0000
0000
0010
0000
,
0000
0000
0100
0000
,
0000
0000
0001
0000
,
0000
0000
1000
0000
,
0000
0000
0100
0000
,
0000
0000
0010
0000
,
0000
0000
0100
0000
,
0000
0000
1000
0000
,
0000
0000
0001
0000
,
0000
0000
0100
0000
,
0000
0000
0010
0000
,
0000
0000
1001
0000
,
0000
0000
0110
0000
;
