#TITLE:yellow head joe;
#SUBTITLE:;
#ARTIST:S-C-U;
#TITLETRANSLIT:;
#SUBTITLETRANSLIT:;
#ARTISTTRANSLIT:;
#GENRE:;
#CREDIT:;
#MUSIC:yellow head joe.ogg;
#BANNER:yellow head joe.png;
#BACKGROUND:yellow head joe-bg.png;
#CDTITLE:;
#SAMPLESTART:51.830;
#SAMPLELENGTH:15.000;
#SELECTABLE:YES;
#OFFSET:0.296;
#BPMS:0.000=187.000;
#STOPS:;
#BGCHANGES:;
#FGCHANGES:;

//--------------- dance-single - P1989 ----------------
#NOTES:
     dance-single:
     P1989:
     Beginner:
     3:
     0,0,0,0,0:
0000
0000
0000
0000
,
0000
0000
0000
0000
,
0000
0000
0000
0000
,
0000
0000
0000
0000
,
0000
0000
0000
0000
,
0000
1000
0000
0000
,
1000
0000
0000
0000
,
0000
0001
0000
0000
,
0001
0000
0000
0000
,
0100
0000
0000
0000
,
0010
0000
0000
0000
,
1000
0000
0000
0000
,
0001
0000
0000
0000
,
0010
0000
0000
0000
,
0100
0000
0000
0000
,
1000
0000
0000
0000
,
0001
0000
0000
0000
,
0100
0000
0000
0000
,
0010
0000
0000
0000
,
1000
0000
0000
0000
,
0001
0000
0000
0000
,
0010
0000
0000
0000
,
0100
0000
0000
0000
,
2000
0000
0000
0000
,
3000
0000
0000
0000
,
0001
0000
0001
0000
,
0001
0000
0000
0000
,
0100
0000
0000
0100
,
0000
0000
0100
0000
,
0001
0000
0001
0000
,
0001
0000
0000
0000
,
1000
0000
1000
0000
,
0010
0000
0000
0000
,
1000
0000
1000
0000
,
1000
0000
0000
0000
,
0100
0000
0000
0100
,
0000
0000
0100
0000
,
1000
0000
1000
0000
,
1000
0000
0000
0000
,
0110
0000
0000
0000
,
0000
1001
0000
0000
,
1000
1000
0000
0000
,
0001
0001
0000
0000
,
1000
1000
0000
0000
,
0110
0000
0000
0000
,
0001
0001
0000
0000
,
1000
1000
0000
0000
,
0001
0000
1000
0000
,
0001
0000
0000
0000
,
0010
0010
0000
0000
,
0100
0100
0000
0000
,
0010
0010
0000
0000
,
1001
0000
0000
0000
,
1000
1000
0000
0000
,
0001
0001
0000
0000
,
0200
0000
0300
0000
,
0020
0000
0030
0000
,
2002
0000
0000
0000
,
3003
0000
0000
0000
,
0220
0000
0330
0000
,
2002
0000
3003
0000
,
1000
0000
0100
0000
,
1000
0000
0000
0000
,
0001
0001
0001
0000
,
0001
0000
0000
0000
,
1001
0000
1000
0000
,
0010
0000
0000
0000
,
1001
0000
0001
0000
,
0010
0000
0000
0000
,
1001
0000
0000
0000
,
0110
0000
1000
0000
,
0000
1001
0000
0000
,
0110
0000
0000
1001
;

//--------------- dance-single - P1989 ----------------
#NOTES:
     dance-single:
     P1989:
     Easy:
     7:
     0,0,0,0,0:
0000
0000
0000
0000
,
0000
0000
0000
0000
,
0000
0000
0000
0000
,
0000
0000
0000
0000
,
0000
0000
0000
0000
0000
1000
0000
0001
,
0000
0100
0001
0000
,
0100
0000
0001
0000
0000
0001
0000
1000
,
0000
0100
0100
0000
,
0100
0000
0100
0000
0000
0010
0000
0000
,
1001
0000
1000
0000
,
0100
0000
1000
0001
,
0010
0000
0001
0000
,
0100
0000
0001
1000
,
0010
0000
0100
0000
,
0001
0000
0010
0100
,
1000
0000
0001
0010
,
0001
0000
1000
0010
,
1000
0000
0100
0000
,
0010
0000
0001
1000
,
0010
0000
0100
0000
,
0001
0000
0010
0100
,
1000
0000
0001
0000
,
0100
0000
0010
1000
,
0002
0000
0000
0000
,
2000
0000
0000
3003
,
1000
0010
0100
0010
,
0000
1000
0001
0000
,
0100
0020
0030
0100
,
0020
0030
0100
0020
,
1030
0100
1000
0001
,
0000
0010
0001
0000
,
1000
1000
0010
0010
,
0100
0100
0002
0003
,
0001
0010
0001
1000
,
0000
0100
1000
0000
,
0100
0020
0030
0100
,
0020
0030
0100
0020
,
0031
0100
0001
1000
,
0000
0010
2000
0000
,
3100
0000
0000
0010
0000
0010
0000
0001
,
0000
0001
1000
0000
0000
0000
0000
0000
,
0010
0100
1001
0000
,
0010
0100
1001
0000
,
0010
0100
0110
0000
,
0001
1000
0010
1000
,
0100
0010
1001
0000
,
0100
0010
1001
0000
,
1000
1000
0001
0001
,
0100
0020
0000
0130
,
0001
1000
1001
0000
,
1000
0001
1001
0000
,
0001
1000
0110
0000
,
0001
0100
0010
1000
,
0100
0010
0110
0000
,
0010
0100
0110
0000
,
0002
0000
1000
1000
,
2000
0000
0000
3003
,
0220
0000
0000
0000
,
0000
0000
0000
0330
,
2002
0000
0000
3003
,
0220
0000
0000
0330
,
1001
0000
1000
0100
,
1000
0001
0010
0000
,
0001
0100
0010
1000
,
0100
0010
0001
0000
,
1001
0000
1000
0100
,
1000
0001
0010
0001
,
1001
0000
0001
0100
,
0001
1000
0010
1000
,
1001
0000
0001
0010
,
1001
0000
1000
0010
,
0000
0000
1001
0000
0000
0110
0000
0000
,
1001
0000
0000
0110
0000
0000
1000
0001
;

//--------------- dance-single - P1989 ----------------
#NOTES:
     dance-single:
     P1989:
     Medium:
     11:
     0,0,0,0,0:
0000
0000
0000
0000
,
0000
0000
0000
0000
,
0000
0000
0000
0000
,
0000
0000
0000
0000
,
0000
0000
0000
0000
0000
0010
0000
1001
,
0000
0000
1000
0000
0100
0010
0000
0100
,
1000
0000
0100
0010
0000
0100
0000
1001
,
0000
0000
0001
0000
0100
0010
0000
0100
,
0001
0000
0100
0010
0000
1001
0000
0000
,
0001
0000
0100
0000
0001
0100
0010
0000
,
2000
0100
0001
3010
,
1000
0000
0100
0000
1000
0100
0010
0000
,
0002
0100
1000
0013
,
0001
0100
0010
0000
1000
0001
0100
0000
,
0020
1000
0100
1030
,
0020
0130
0001
0020
,
0130
0000
1000
0000
0010
0100
0010
0000
,
1000
0001
0010
0000
0100
0010
0001
0000
,
2000
0010
0001
3100
,
0001
1000
0010
0000
0100
0010
1000
0000
,
0002
0010
1000
0103
,
0001
0010
0100
0000
1000
0010
0100
0000
,
0020
1000
0100
1030
,
0002
0000
0000
0000
,
2000
0000
0000
3003
,
1000
0000
0100
0010
0001
0000
0100
0010
,
1000
0001
0011
1000
,
0001
0100
0010
1000
0000
0000
0001
0100
,
0010
1000
0000
0000
0001
0100
0010
1000
,
0001
0000
0010
0001
0100
0000
0010
1000
,
0100
1000
0011
0001
,
1000
0000
0000
1000
0000
0000
1000
0000
0010
0000
0000
0010
0000
0000
0010
0000
,
0100
0000
0000
0100
0000
0000
0100
0000
0001
0000
1000
0000
0002
0000
0000
0000
,
0013
0000
0001
0100
0010
0000
1000
0100
,
0010
0001
0101
1000
,
0001
0010
0100
1000
0000
0000
0001
0010
,
0100
1000
0000
0000
0001
0010
0100
1000
,
0001
0000
0100
0010
1000
0000
0100
0010
,
0001
0000
0100
0000
0010
0010
2000
0000
,
3001
0010
0000
0110
0000
1100
0000
1001
,
0000
1000
0010
0000
0000
0100
0100
0001
,
1000
0000
0000
0010
0000
0000
2000
0000
0000
0000
3100
0000
0100
0000
1000
0000
,
0001
0000
0000
0010
0000
0000
0002
0000
0000
0000
0103
0000
0100
0000
0001
0000
,
1000
0000
0000
0100
0000
0000
0020
0000
0000
0000
0031
0000
1000
0000
0010
0000
,
0200
0000
0301
0010
0100
1000
1000
0010
,
1000
0000
0000
0001
0000
0000
0200
0000
0000
0000
0301
0000
0001
0000
0010
0000
,
0001
0000
0000
1000
0000
0000
0200
0000
0000
0000
0310
0000
0010
0000
0001
0000
,
1000
0000
0000
0010
0000
0000
0100
0000
0000
0001
0000
0000
0010
0000
0000
0001
,
0000
0000
0100
0000
0000
0020
0000
0000
0000
0000
1030
0000
1000
0000
0100
0000
,
1000
0000
0000
0010
0000
0000
0200
0000
0000
0000
0301
0000
0001
0000
0010
0000
,
0001
0000
0000
0100
0000
0000
0020
0000
0000
0000
1030
0000
1000
0000
0001
0000
,
0010
0000
0000
0001
0000
0000
0200
0000
0000
0000
0310
0000
1000
0000
0001
0000
,
0020
0000
0130
1000
0001
0010
0010
0001
,
0100
0000
0000
1000
0000
0000
0200
0000
0000
0000
0310
0000
0010
0000
1000
0000
,
0100
0000
0000
0001
0000
0000
0200
0000
0000
0000
0310
0000
0010
0000
0001
0000
,
1000
0000
0000
0010
0000
0000
0100
0000
0000
0001
0000
0000
0010
0000
0000
0200
,
0000
0000
0000
0000
1000
1000
1300
0000
,
2002
0000
0000
0000
,
0000
0000
0000
3003
0000
0010
0100
0000
,
0220
0000
0000
0000
0000
0330
0000
0100
,
2002
0000
0000
0000
0000
0000
0000
3003
0000
0000
0100
0000
0010
0000
0000
0000
,
1001
0000
1000
0010
0100
0010
1000
0000
,
0001
0000
0000
0010
0000
0000
0100
0000
0000
0010
0000
0000
0001
0000
1000
0000
,
0000
0020
0000
0000
0031
0000
0000
0010
0000
0000
1000
0000
0000
0200
0000
0000
,
0301
0000
0000
0100
0000
0000
1000
0000
0000
0001
0000
0000
0010
0000
0010
0000
,
0001
0000
0100
0010
1000
0001
0010
0000
,
0100
0010
0001
1000
0010
0000
0110
0000
,
1001
0000
1000
0100
0001
0100
1000
0000
,
0001
0100
1000
0100
0001
0000
1001
0000
,
0110
0000
1000
0001
0010
0100
1000
0000
,
0110
0000
0001
1000
0020
0000
0130
0100
,
0000
0001
0000
0000
0011
0000
0000
1000
0000
0000
1010
0000
0000
0001
0000
0000
,
0101
0000
0000
1000
0000
0000
1100
0000
0000
0010
0000
0000
0100
0000
1001
0000
;

//--------------- dance-single - P1989 ----------------
#NOTES:
     dance-single:
     P1989:
     Hard:
     15:
     0,0,0,0,0:
0000
0000
0000
0000
,
0000
0000
0000
0000
,
0000
0000
0000
0000
,
0000
0000
0000
0000
,
0000
0000
0000
0000
0000
0110
0000
1001
,
0000
1000
0100
0001
0100
1000
0000
1000
,
0010
0001
0010
1000
0000
1001
0000
0110
,
0000
0001
0100
1000
0100
0001
0000
0001
,
0010
1000
0010
0001
0000
1001
0000
0000
,
2000
0100
0001
3010
,
1000
0001
0100
0000
0100
0010
1000
0000
,
0002
0100
1000
0013
,
0001
1000
0100
0000
0100
0010
0001
0000
,
0200
0001
0010
1300
,
0100
0001
0010
0000
0010
0100
1000
0000
,
0020
0000
0130
0001
1000
0000
0020
0000
,
0130
0000
0000
0100
0000
0000
0001
0000
0000
1000
0000
0000
0100
0000
0000
0000
,
0020
0001
0100
1030
,
0010
0001
0100
0000
0010
1000
0100
0000
,
2000
0010
0001
3100
,
1000
0100
0001
0000
0100
1000
0010
0000
,
0200
1000
0010
0301
,
0100
0001
0010
0000
0100
1000
0010
0000
,
0200
0000
0000
0000
,
0020
0000
0000
0330
,
0100
0001
0010
0001
1000
0010
1000
0100
,
0000
0010
0100
1000
0010
0100
0001
0010
,
0100
0001
0100
1000
0000
1000
0010
0001
,
0010
1000
0000
1000
0100
0001
0100
1000
,
0010
0100
0001
0010
0001
1000
0010
1000
,
0000
0100
0010
0001
0100
0001
0010
0100
,
1000
0000
0000
1000
0000
0000
0010
0000
0100
0000
0000
0100
0000
0000
0001
0000
,
0010
0000
0000
0100
0000
0000
0010
0000
0001
1000
0001
0000
0200
0000
0000
0000
,
0310
1000
0100
1000
0001
0100
0001
0010
,
0000
0001
0100
0010
1000
0100
1000
0010
,
0100
1000
0100
0001
0000
0001
0010
1000
,
0010
0001
0000
0001
0100
1000
0100
0001
,
0010
0001
0100
0001
1000
0100
1000
0010
,
0100
0000
0100
0000
0001
0000
0001
0000
1000
0010
1000
0010
2000
0000
0000
0000
,
3100
0010
0000
0110
0000
1001
0000
0110
,
0000
1000
0001
0000
0000
1000
1000
0100
,
0010
0000
0100
0010
0000
0001
0010
0000
0100
0000
1000
0000
0001
0000
1000
0000
,
0010
0000
0100
0010
0000
1000
0010
0000
0100
0000
0001
0000
1000
0000
0001
0000
,
0010
0000
0100
0010
0000
0100
1000
0000
0001
0000
0100
0000
0010
0000
1000
0000
,
0001
0010
0001
0000
0010
0100
0010
0000
0100
1000
0100
0000
0010
0000
0001
0000
,
0100
0000
0010
0100
0000
0010
1000
0000
0001
0000
0100
0000
0001
0000
1000
0000
,
0100
0000
0010
0100
0000
0010
0001
0000
1000
0000
0100
0000
1000
0000
0001
0000
,
0100
0000
0010
1000
0000
0000
0100
0000
0010
0001
0000
0000
0010
0000
0100
1000
,
0000
0000
0010
0000
0100
0002
0000
0000
0000
0003
1000
0010
1000
0000
0001
0000
,
0010
0000
0001
1000
0000
0100
1000
0000
0010
0000
0100
0000
0001
0000
0100
0000
,
0010
0000
1000
0001
0000
0100
0001
0000
0010
0000
0100
0000
1000
0000
0100
0000
,
0010
0000
0001
1000
0000
0010
0100
0000
0001
0000
0010
0000
0001
0000
1000
0000
,
0010
0100
0010
0000
0100
0001
0100
0000
0001
0010
0001
0000
1000
0000
0010
0000
,
0100
0000
0010
1000
0000
0100
1000
0000
0001
0000
0100
0000
0010
0000
1000
0000
,
0100
0000
0010
0001
0000
0100
0001
0000
1000
0000
0100
0000
0010
0000
0001
0000
,
0100
0000
0000
0100
0000
0000
0020
0000
0000
2030
0000
0000
3002
0000
0000
0023
,
0000
0000
0000
0000
0130
0000
1000
0000
0100
1000
0100
1000
0001
0000
0000
0000
,
2002
0000
0000
0000
,
0000
0000
0000
0000
0000
0000
3003
0000
0000
0000
0010
0100
0010
0000
0100
0000
,
0220
0000
0000
0000
0000
0330
0000
0100
,
1001
0000
2002
0000
0000
0000
0000
3003
0000
0000
0001
0000
0001
0000
1000
0001
,
1000
0100
0000
0010
0100
0000
0010
0001
0000
1000
0100
0000
1000
0001
0000
0100
,
0001
0000
0000
0010
0000
0000
0100
0000
0000
1000
0000
0100
1000
0000
0001
0000
,
0100
0010
0000
1000
0100
0000
0010
0001
0000
0001
1000
0000
0100
0010
0000
0001
,
0100
0000
0010
1000
0000
1000
0001
0000
0010
0100
0000
0010
0100
0000
0010
0000
,
0001
1000
0000
0010
1000
0000
0001
0100
0000
0010
0100
0000
0001
0010
0000
0100
,
0010
0000
0100
1000
0000
0001
1000
0000
0010
0100
0000
0100
0010
0000
0010
0000
,
1000
0001
0000
0010
0001
0000
1000
0100
0000
0010
0100
0000
1000
0010
0000
0100
,
0010
0000
0100
0001
0000
1000
0001
0000
0010
0100
0000
0100
0010
0000
0010
0000
,
1001
0000
0000
1000
0010
0000
0100
0010
0000
0100
0001
0000
1000
0100
0000
0010
,
0100
0000
1000
0001
0000
0010
0001
0000
2000
0000
0000
0000
3010
0100
0010
0100
,
0000
0101
0000
0000
0011
0000
0000
1010
0000
0000
1100
0000
0000
1010
0000
0000
,
0011
0000
0000
0101
0000
0000
1100
0000
0000
1010
0000
0000
0110
0000
1001
0000
;

//--------------- dance-double - P1989 ----------------
#NOTES:
     dance-double:
     P1989:
     Easy:
     7:
     0,0,0,0,0:
00000000
00000000
00000000
00000000
,
00000000
00000000
00000000
00000000
,
00000000
00000000
00000000
00000000
,
00000000
00000000
00000000
00000000
,
00000000
00000000
00000000
00000000
00000000
00001000
00000000
00010000
,
00000000
00000100
00000100
00000000
,
00010000
00000000
00010000
00000000
00000000
00001000
00000000
00010000
,
00000000
00001000
00001000
00000000
,
01000000
00000000
01000000
00000000
00000000
00010000
00000000
00000000
,
10000000
00000000
01000000
00000000
,
10000000
00000000
00010000
00100000
,
00010000
00000000
00100000
00000000
,
00001000
00000000
00010000
00001000
,
00010000
00000000
00000010
00000000
,
00001000
00000000
00000010
00000100
,
00000001
00000000
00000010
00000100
,
00001000
00000000
00000010
00000000
,
00001000
00000000
00000100
00000000
,
00010000
00000000
00001000
00100000
,
00010000
00000000
10000000
00000000
,
00100000
00000000
10000000
01000000
,
00100000
00000000
00010000
00000000
,
01000000
00000000
00001000
00000000
,
00020000
00000000
00000000
00000000
,
00000000
00000000
00000000
00030000
,
00000100
00001000
00000100
00010000
,
00000000
00001000
00010000
00000000
,
00000010
00002000
00003000
00000010
,
00002000
00003000
00000010
00002000
,
00003001
00000010
00000100
00000010
,
00000000
00000100
00001000
00000000
,
00000010
00000010
00001000
00001000
,
00000010
00000010
00020000
00030000
,
00001000
01000000
00010000
01000000
,
00000000
00001000
00010000
00000000
,
00001000
00200000
00300000
00001000
,
00200000
00300000
00001000
00200000
,
00310000
01000000
00010000
10000000
,
00000000
00100000
20000000
00000000
,
31000000
00000000
00000000
00010000
00000000
00010000
00000000
00001000
,
00000000
00001000
00100000
00000000
00000000
00000000
00000000
00000000
,
00001000
00010000
00011000
00000000
,
00000100
00001000
00001100
00000000
,
00000010
00000001
00000011
00000000
,
00000001
00001000
00000100
00010000
,
00001000
00100000
00101000
00000000
,
00010000
00000100
00010100
00000000
,
00001000
00001000
00010000
00010000
,
00001000
00200000
00000000
00310000
,
01000000
00100000
01100000
00000000
,
00010000
01000000
01010000
00000000
,
00001000
00010000
00011000
00000000
,
00000100
00001000
00000001
00000010
,
00000001
00000100
00000101
00000000
,
00001000
00000010
00001010
00000000
,
00020000
00000000
00001000
00001000
,
00002000
00000000
00000000
00033000
,
02000000
00000000
00000000
00000000
,
00000000
00000000
00000000
03000000
,
20020000
00000000
00000000
30030000
,
02200000
00000000
00000000
03300000
,
10010000
00000000
00010000
01000000
,
00001000
00010000
00001000
00000000
,
00100000
00001000
00010000
00000010
,
00010000
00001000
00010000
00000000
,
00011000
00000000
00000100
00001000
,
00000100
00000010
00000001
00001000
,
00001001
00000000
00000001
00000100
,
00000001
00001000
00000010
00010000
,
00011000
00000000
00001000
00010000
,
00011000
00000000
01000000
00010000
,
00000000
10000000
00000000
00000000
10000000
00000000
00000000
01000000
00000000
00000000
01000000
00000000
00000000
00100000
00000000
00000000
,
00100000
00000000
00000000
00010000
00000000
00000000
00010000
00000000
00000000
01000000
00000000
00000000
00001000
00000000
00010000
00000000
;

//--------------- dance-double - P1989 ----------------
#NOTES:
     dance-double:
     P1989:
     Medium:
     11:
     0,0,0,0,0:
00000000
00000000
00000000
00000000
,
00000000
00000000
00000000
00000000
,
00000000
00000000
00000000
00000000
,
00000000
00000000
00000000
00000000
,
00000000
00000000
00000000
00000000
00000000
00001000
00000000
00011000
,
00000000
00000000
00000100
00000000
00001000
00000010
00000000
00000100
,
00000010
00000000
00001000
00000010
00000000
00010000
00000000
00011000
,
00000000
00000000
01000000
00000000
00010000
00100000
00000000
01000000
,
00100000
00000000
00010000
00100000
00000000
00011000
00000000
00000000
,
00010000
01000000
10000000
00100000
,
00010000
00000000
00001000
00000000
00000100
00001000
00010000
00000000
,
00001000
00000100
00000001
00000010
,
00001000
00000000
00010000
00000000
01000000
00010000
00001000
00000000
,
00010000
00100000
10000000
01000000
,
00010000
00000000
00001000
00000000
00000010
00001000
00010000
00000000
,
00200000
00310000
00001000
00000020
,
00001030
00000000
00000000
00010000
00000000
00000000
01000000
00000000
00000000
00100000
00000000
00000000
00010000
00000000
00000000
00000000
,
10000000
01000000
00010000
00001000
,
00000010
00000000
00000001
00000000
00000100
00001000
00000100
00000000
,
00000001
00000100
00001000
00010000
,
00100000
00000000
10000000
00000000
01000000
00010000
01000000
00000000
,
10000000
00100000
00010000
00001000
,
00000100
00000000
00000001
00000000
00000010
00001000
00000010
00000000
,
00000002
00000000
00000000
00000000
,
00002000
00000000
00000000
00003003
,
00000001
00000100
00001000
00000000
00010000
00000000
00001000
00000000
,
00010000
00100000
10000000
00000000
10100000
00000000
00000000
00000000
,
00010000
01000000
00001000
00100000
00000000
00000000
00010000
01000000
,
00001000
00100000
00000000
00000000
00010000
01000000
00001000
00000000
,
00010000
01000000
10000000
00000000
01000000
00000000
00010000
00000000
,
00001000
00000010
00000001
00000000
00000011
00000000
00000000
00000000
,
00001000
00000000
00000000
00001000
00000000
00000000
00001000
00000000
00000100
00000000
00000000
00000100
00000000
00000000
00000100
00000000
,
00010000
00000000
00000000
00010000
00000000
00000000
00010000
00000000
00001000
00000000
00100000
00000000
00020000
00000000
00000000
00000000
,
10030000
01000000
00010000
00000000
00001000
00000000
00010000
00000000
,
00001000
00000010
00000001
00000000
00000011
00000000
00000000
00000000
,
00001000
00000100
00010000
00000010
00000000
00000000
00001000
00000100
,
00010000
00000010
00000000
00000000
00001000
00000100
00010000
00000000
,
00001000
00000100
00000001
00000000
00000100
00000000
00001000
00000000
,
00010000
00100000
10000000
00000000
00010000
01000000
20000000
00000000
,
31000000
00010000
00000000
00110000
00000000
00101000
00000000
00011000
,
00000000
00010000
00000100
00000000
00000000
00001000
00001000
00000001
,
00001000
00000000
00000000
00000010
00000000
00000000
00000200
00000000
00000000
00000000
00001300
00000000
00001000
00000000
00010000
00000000
,
00001000
00000000
00000000
00100000
00000000
00000000
02000000
00000000
00000000
00000000
13000000
00000000
10000000
00000000
00010000
00000000
,
10000000
00000000
00000000
01000000
00000000
00000000
00020000
00000000
00000000
00000000
00031000
00000000
00010000
00000000
00001000
00000000
,
00000020
00000032
00000203
00002300
,
00013000
00000000
00000000
00001000
00000000
00000000
00200000
00000000
00000000
00000000
00310000
00000000
00010000
00000000
10000000
00000000
,
00010000
00000000
00000000
00100000
00000000
00000000
02000000
00000000
00000000
00000000
03010000
00000000
00010000
00000000
00001000
00000000
,
00010000
00000000
00000000
00000100
00000000
00000000
00001000
00000000
00000000
00000001
00000000
00000000
00000100
00000000
00000000
00001000
,
00000000
00000000
00010000
00000000
00000000
00200000
00000000
00000000
00000000
00000000
10300000
00000000
00010000
00000000
10000000
00000000
,
00010000
00000000
00000000
00100000
00000000
00000000
02000000
00000000
00000000
00000000
03010000
00000000
00010000
00000000
00001000
00000000
,
00010000
00000000
00000000
00000010
00000000
00000000
00000200
00000000
00000000
00000000
00000301
00000000
00000001
00000000
00001000
00000000
,
00000001
00000000
00000000
00000100
00000000
00000000
00002000
00000000
00000000
00000000
00013000
00000000
00001000
00000000
00010000
00000000
,
00200000
20300000
32000000
03020000
,
00031000
00000000
00000000
00010000
00000000
00000000
00000020
00000000
00000000
00000000
00001030
00000000
00001000
00000000
00000001
00000000
,
00001000
00000000
00000000
00000010
00000000
00000000
00000200
00000000
00000000
00000000
00001300
00000000
00001000
00000000
00010000
00000000
,
00001000
00000000
00000000
00100000
00000000
00000000
01000000
00000000
00000000
00010000
00000000
00000000
00001000
00000000
00000000
00000020
,
00000000
00000001
00000200
00000330
,
00002002
00000000
00000000
00000000
,
00000000
00000000
00000000
00003003
00000000
00010000
00001000
00000000
,
00022000
00000000
00000000
00000000
00000000
00033000
00000000
00100000
,
20020000
00000000
00000000
00000000
00000000
00000000
00000000
30030000
00000000
00000000
01000000
00000000
00100000
00000000
00000000
00000000
,
10010000
00000000
10000000
01000000
00010000
01000000
10000000
00000000
,
00010000
00000000
00000000
00100000
00000000
00000000
00001000
00000000
00000000
00010000
00000000
00000000
00000100
00000000
00001000
00000000
,
00000000
00000002
00000000
00000000
00000103
00000000
00000000
00001000
00000000
00000000
00010000
00000000
00000000
02000000
00000000
00000000
,
03010000
00000000
00000000
00001000
00000000
00000000
00000100
00000000
00000000
00000001
00000000
00000000
00000010
00000000
00000010
00000000
,
00000001
00000000
00000100
00000010
00001000
00000100
00010000
00000000
,
00001000
00100000
00010000
10000000
00100000
00000000
01100000
00000000
,
10000000
00000000
01000000
00100000
00010000
01000000
00001000
00000000
,
00010000
00000010
00001000
00000001
00000010
00000000
00000110
00000000
,
00001001
00000000
00000001
00000100
00001000
00000000
00010000
00000000
,
00011000
00000000
00001000
00010000
00200000
00000000
10300000
10000000
,
00000000
00010000
00000000
00000000
01010000
00000000
00000000
00001000
00000000
00000000
00011000
00000000
00000000
00100000
00000000
00000000
,
00110000
00000000
00000000
00001000
00000000
00000000
00011000
00000000
00000000
00000010
00000000
00000000
00000100
00000000
00001001
00000000
;

//--------------- dance-double - P1989 ----------------
#NOTES:
     dance-double:
     P1989:
     Hard:
     15:
     0,0,0,0,0:
00000000
00000000
00000000
00000000
,
00000000
00000000
00000000
00000000
,
00000000
00000000
00000000
00000000
,
00000000
00000000
00000000
00000000
,
00000000
00000000
00000000
00000000
00000000
00011000
00000000
00101000
,
00000000
00100000
01000000
10000000
01000000
00100000
00000000
00100000
,
01000000
10000000
01000000
00100000
00000000
00101000
00000000
00010010
,
00000000
00000010
00000100
00000001
00000100
00000010
00000000
00000010
,
00000100
00000001
00000100
00000010
00000000
00001001
00000000
00000000
,
00000001
00000000
00000100
00000000
00001000
00000100
00000001
00000000
,
00001000
00000010
00010000
00000000
00001000
01000000
00010000
00000000
,
10000000
00000000
01000000
00000000
00010000
01000000
10000000
00000000
,
00010000
00100000
00001000
00000000
00010000
00000100
00001000
00000000
,
00000001
00000000
00000010
00000000
00001000
00000010
00000001
00000000
,
00001000
00000100
00010000
00000000
00001000
00100000
00010000
00000000
,
02000000
00000000
00000000
00000000
03010000
00000000
00000000
00100000
00000000
00000000
01000000
00000000
20000000
00000000
00000000
00000000
,
30010000
00000000
00000000
01000000
00000000
00000000
00001000
00000000
00000000
00010000
00000000
00000000
00000010
00000000
00001000
00000000
,
00000001
00000000
00000100
00000000
00001000
00000100
00000001
00000000
,
00001000
00000010
00010000
00000000
00001000
01000000
00010000
00000000
,
10000000
00000000
01000000
00000000
00010000
01000000
10000000
00000000
,
00010000
00100000
00001000
00000000
00010000
00000100
00001000
00000000
,
00000001
00000000
00000010
00000000
00001000
00000010
00000001
00000000
,
00001000
00000100
00010000
00000000
00001000
00100000
00010000
00000000
,
02000000
00000000
00000000
00000000
,
00200000
00000000
00000000
03300000
,
00100000
10000000
01000000
00100000
00001000
00010000
00000100
00000010
,
00000000
00000100
00001000
00000001
00000100
00000010
00001000
00000001
,
00000010
00001000
00010000
00000100
00000000
00000100
00000010
00001000
,
00010000
00000100
00000000
00000100
00000010
00001000
00010000
00000100
,
00001000
00000010
00010000
00001000
00000100
00000010
00001000
00000100
,
00000000
00010000
00001000
00100000
00010000
10000000
00100000
10000000
,
01000000
00000000
00000000
01000000
00000000
00000000
00010000
00000000
00001000
00000000
00000000
00001000
00000000
00000000
00010000
00000000
,
00001000
00000000
00000000
00000010
00000000
00000000
00000001
00000000
00000100
00000000
00000100
00000000
00000002
00000000
00000000
00000000
,
00000013
00000001
00000100
00000010
00010000
00001000
01000000
00100000
,
00000000
01000000
00010000
10000000
01000000
00100000
00010000
10000000
,
00100000
00010000
00001000
01000000
00000000
01000000
00100000
00010000
,
00001000
01000000
00000000
01000000
00100000
00010000
00001000
01000000
,
00010000
00100000
00001000
00010000
01000000
00100000
00010000
10000000
,
01000000
00000000
00010000
00000000
00001000
00000000
00100000
00000000
00001000
00010000
00001000
00010000
00002000
00000000
00000000
00000000
,
00003100
00000100
00000000
00000110
00000000
00001010
00000000
00001100
,
00000000
00000001
00000010
00000000
00000000
00000001
00000001
00000100
,
00000001
00000000
00000100
00000010
00000000
00001000
00000010
00000000
00001000
00000000
00000100
00000000
00010000
00000000
00001000
00000000
,
00010000
00000000
00001000
00100000
00000000
00010000
00100000
00000000
01000000
00000000
10000000
00000000
00010000
00000000
10000000
00000000
,
00100000
00000000
01000000
00100000
00000000
01000000
00010000
00000000
00100000
00000000
00010000
00000000
00100000
00000000
00001000
00000000
,
00020000
02030000
23000000
30200000
20300000
32000000
03020000
00032000
,
00103000
00000000
00010000
00100000
00000000
00001000
00010000
00000000
00001000
00000000
00010000
00000000
00000100
00000000
00001000
00000000
,
00000100
00000000
00000010
00000100
00000000
00000010
00000001
00000000
00001000
00000000
00000010
00000000
00000100
00000000
00000001
00000000
,
00000100
00000000
00001000
00000100
00000000
00000000
00001000
00000000
00010000
00001000
00000000
00000000
00010000
00000000
00100000
00010000
,
00000000
00000000
00100000
00000000
10000000
00200000
00000000
00000000
00000000
00300000
01000000
00100000
01000000
00000000
00010000
00000000
,
10000000
00000000
01000000
00100000
00000000
00010000
00100000
00000000
00010000
00000000
01000000
00000000
00001000
00000000
00010000
00000000
,
00001000
00000000
00010000
00000010
00000000
00001000
00000010
00000000
00000100
00000000
00000001
00000000
00001000
00000000
00000001
00000000
,
00000010
00000000
00000100
00000010
00000000
00000100
00001000
00000000
00000010
00000000
00001000
00000000
00000010
00000000
00010000
00000000
,
00002000
00003200
00000302
00000023
00000032
00000203
00002300
00023000
,
00030010
00000000
00001000
00000010
00000000
00010000
00001000
00000000
00010000
00000000
00001000
00000000
01000000
00000000
00010000
00000000
,
01000000
00000000
00100000
01000000
00000000
00100000
10000000
00000000
00010000
00000000
00100000
00000000
01000000
00000000
10000000
00000000
,
02000000
00000000
00000000
03020000
00000000
00000000
00032000
00000000
00000000
00003020
00000000
00000000
00000032
00000000
00000000
00000203
,
00000000
00000000
00000000
00000000
00000010
00000000
00000310
00000000
00000010
00000100
00000010
00000100
00000010
00000000
00000000
00000000
,
00002002
00000000
00000000
00000000
,
00000000
00000000
00000000
00000000
00000000
00000000
00003003
00000000
00000000
00000000
00001000
00000100
00010000
00000000
00001000
00000000
,
00022000
00000000
00000000
00000000
00000000
00033000
00000000
01000000
,
00100000
00000000
20020000
00000000
00000000
00000000
00000000
30030000
00000000
00000000
00010000
00000000
00010000
00000000
10000000
00010000
,
10000000
01000000
00000000
00100000
01000000
00000000
00100000
00010000
00000000
00100000
00001000
00000000
00010000
00001000
00000000
00010000
,
00000100
00000000
00000000
00001000
00000000
00000000
00000010
00000000
00000000
00000001
00000000
00000010
00001000
00000000
00000001
00000000
,
00000100
00000010
00000000
00001000
00000100
00000000
00010000
00001000
00000000
00001000
00010000
00000000
01000000
00100000
00000000
00010000
,
01000000
00000000
00001000
00010000
00000000
00010000
00001000
00000000
00100000
00010000
00000000
00010000
00100000
00000000
00100000
00000000
,
01000000
10000000
00000000
00100000
10000000
00000000
01000000
00100000
00000000
00010000
00100000
00000000
00001000
00010000
00000000
00000100
,
00001000
00000000
00000100
00000010
00000000
00000001
00000010
00000000
00000001
00000100
00000000
00000100
00000010
00000000
00000010
00000000
,
00000100
00000001
00000000
00000010
00000001
00000000
00000100
00000010
00000000
00001000
00000010
00000000
00010000
00001000
00000000
01000000
,
00010000
00000000
01000000
00100000
00000000
10000000
00100000
00000000
10000000
01000000
00000000
01000000
00100000
00000000
00100000
00000000
,
00010000
01000000
00000000
00010000
00100000
00000000
00001000
00010000
00000000
00000100
00001000
00000000
00000100
00000010
00000000
00000001
,
00001000
00000000
00000010
00001000
00000000
00000010
00010000
00000000
00002000
00000000
00000000
00003000
00010000
00001000
00010000
00001000
,
00000000
00011000
00000000
00000000
00101000
00000000
00000000
00110000
00000000
00000000
01010000
00000000
00000000
10100000
00000000
00000000
,
11000000
00000000
00000000
01100000
00000000
00000000
00110000
00000000
00000000
00101000
00000000
00000000
00011000
00000000
00010100
00000000
;
