#TITLE:w.i.s.h.;
#SUBTITLE:-world inside sleeping heads-;
#ARTIST:Z-I-v SOUND TEAM "kayheart<3";
#TITLETRANSLIT:;
#SUBTITLETRANSLIT:;
#ARTISTTRANSLIT:;
#GENRE:;
#CREDIT:;
#MUSIC:wish (world inside sleeping heads).ogg;
#BANNER:wish (world inside sleeping heads).png;
#BACKGROUND:wish (world inside sleeping heads)-bg.png;
#CDTITLE:;
#SAMPLESTART:60.720;
#SAMPLELENGTH:10.000;
#SELECTABLE:YES;
#OFFSET:0.000;
#BPMS:0.000=125.000
,91.000=62.500
,106.000=125.000
,174.000=62.500
,177.500=125.000
;
#STOPS:21.500=0.480
,91.000=0.960
,177.500=0.240
;
#BGCHANGES:8.946=wish (world inside sleeping heads).avi=1.000=0=0=1===CrossFade_Fastest==,
240.000=wish (world inside sleeping heads)-bg.png=1.000=0=0=1,
99999.000=-nosongbg-=1.000=0=0=0=StretchNoLoop====
;
#FGCHANGES:;

//--------------- dance-single - KAYSTAR ----------------
#NOTES:
     dance-single:
     KAYSTAR:
     Beginner:
     2:
     0,0,0,0,0:
0000
0000
0000
0000
,
0000
0000
0000
0000
,
0000
1000
0000
0000
,
0000
0001
0000
0000
,
0000
0020
0000
0000
,
0030
0000
0000
0001
,
0000
0000
0000
0100
,
0000
0100
0000
0010
,
0000
0000
0000
1000
,
0000
1000
0000
0100
,
0000
0000
0000
0010
,
0000
0010
0000
0002
,
0000
0000
0000
0003
,
0000
0000
0000
1000
,
0000
0000
0000
0100
,
0000
0100
0000
0010
,
0000
0000
0000
0001
,
0000
0001
0000
0100
,
0000
0000
0000
0010
,
0000
0010
0000
2000
,
0000
0000
0000
3000
,
0000
0000
0000
0002
,
0000
0000
0003
0000
,
1000
0000
1000
0000
,
0001
0000
0001
0000
,
1000
0000
0100
0000
,
0010
0000
0001
0000
,
0000
0000
0100
0000
,
0100
0000
0010
0000
,
0010
0000
1000
0000
,
0100
0000
0010
0000
,
0000
0000
0001
0000
,
0000
0100
0100
0000
,
0000
0010
0010
0000
,
0000
1000
2000
0000
,
3000
0000
0001
0000
,
0000
0010
0010
0000
,
0001
0000
0000
1000
,
0000
1000
0000
0100
,
0100
0000
1000
0000
,
1000
0000
0001
0000
,
0001
0000
0100
0000
,
0010
0000
2000
0000
,
0000
3000
0000
0000
,
0000
0000
1000
0000
,
0100
0000
0010
0000
,
0000
0000
0001
0000
,
0100
0000
0010
0000
,
0000
0000
1000
0000
,
1000
0000
2000
0000
,
3000
0000
0001
0000
,
0010
0000
0100
0000
,
1000
0000
0010
0000
,
0100
0000
0001
0000
,
1000
0000
0200
0000
,
0000
0000
0300
0000
,
0000
0000
1000
0000
,
0001
0000
0100
0100
,
0100
0000
0020
0000
,
0000
0000
0000
0000
,
0000
0000
0000
0000
,
0030
0000
0000
0000
;

//--------------- dance-single - KAYSTAR ----------------
#NOTES:
     dance-single:
     KAYSTAR:
     Easy:
     6:
     0,0,0,0,0:
0000
0000
0000
0000
,
0000
0000
0000
0000
,
0000
2000
3000
0010
,
0100
0002
0003
0010
,
0100
1000
0010
0100
,
0001
1000
0001
0000
0000
0000
1000
0000
,
1000
0001
0001
0100
,
0010
1000
0000
0100
,
0100
0010
0010
0001
,
0000
1000
0000
0010
,
0010
0100
0100
0001
,
0010
0100
1000
0020
,
0000
0100
0000
2030
,
0000
0100
0000
3001
,
0001
1000
1000
0100
,
0010
0001
0000
0100
,
0100
0010
0010
1000
,
0000
0001
0000
0010
,
0010
0100
0100
1000
,
0010
0100
0001
2000
,
0000
0100
0000
3002
,
0000
0100
0000
0010
,
0020
0000
0000
0033
,
2000
3000
0020
0030
,
0200
0300
0002
0003
,
1000
1000
0000
0100
0100
0000
0010
0000
,
0001
0001
0000
0100
0200
0000
0000
0000
,
0310
0000
0000
1001
0000
0000
1000
0000
,
0010
0000
0100
0001
0000
0000
0010
0000
,
0100
1000
0020
0000
,
0100
0000
1030
0100
,
0020
0000
0031
1000
,
0100
0000
1000
0001
0000
0000
0100
0000
,
0010
0000
1000
0001
0000
0000
0010
0000
,
0100
0000
2000
0002
0000
0000
0000
0000
,
3003
0000
1000
0000
,
0010
0000
1000
0100
0000
0000
0010
0000
,
0001
0100
0020
1030
,
0020
1030
0010
0100
,
0001
0000
1000
0100
,
0010
0000
1000
0010
,
0001
0000
1000
0100
,
0001
0000
0100
0020
0000
0000
0000
0000
,
0000
0002
0000
0000
,
0033
0000
1000
0010
,
0100
0001
0010
0000
,
0010
0000
0001
0100
,
0010
1000
0100
0000
,
0100
0000
1000
0010
,
0100
0000
0001
0000
1000
0000
0000
1001
,
0000
0001
1000
0100
,
0010
1000
0010
0001
,
0100
0010
1000
0010
,
0001
0010
0100
0001
,
0010
0100
2000
0000
,
0000
0000
0001
0001
,
3001
0000
0000
0000
1000
0100
1000
0000
,
0001
0100
0001
0000
1000
0000
0010
0000
,
0100
0002
2000
0000
,
0000
0000
0000
0000
,
0000
0000
0000
0000
,
3003
0000
0000
0000
;

//--------------- dance-single - KAYSTAR ----------------
#NOTES:
     dance-single:
     KAYSTAR:
     Medium:
     9:
     0,0,0,0,0:
0000
0000
0000
0000
,
0000
0000
0000
0000
,
0000
0000
1000
0100
0020
0000
0031
0000
,
1000
0000
0001
0100
0020
0000
1030
0000
,
0001
0100
0010
1000
,
0100
1000
0100
0000
0000
0000
1000
0000
,
1000
0000
0001
0010
0001
0000
1000
0000
,
0010
0100
1001
0001
,
0100
0001
0100
0000
0010
0000
1000
0000
,
0100
0010
0001
1000
,
1000
0000
0010
0100
0001
0000
1000
0100
,
0010
0000
0001
0010
0100
0000
2000
0000
,
0010
3002
0010
2003
,
0100
0002
3003
0001
,
0001
0000
1000
0010
1000
0000
0001
0000
,
0010
0100
1001
1000
,
0010
1000
0010
0000
0100
0000
0001
0000
,
0010
0100
1000
0001
,
0001
0000
0100
0010
1000
0000
0100
0010
,
0001
1000
1001
0002
,
0010
2003
0010
3002
,
0100
2003
0100
3002
,
0023
0230
2300
3001
,
1000
0010
0100
0000
0001
0010
0100
0000
,
0001
0100
1000
0000
0001
0010
1000
0000
,
0010
0001
0100
0000
0010
1000
0100
0000
,
1000
0001
0010
0100
2000
0000
0000
0000
,
3001
0000
0000
1000
0000
1000
0010
0000
,
0100
0001
0100
0010
0000
0010
1000
0000
,
0100
0010
0001
0000
2000
0000
3200
0000
,
0302
0203
2300
3020
,
0230
0000
0301
0000
0001
0010
0100
0000
,
0010
0100
1000
0002
0000
0100
0103
0000
,
0001
1000
0010
0200
0000
0010
0310
0000
,
1000
0001
0010
0200
0000
0000
0302
0000
,
0203
0000
2300
0000
3001
0000
1000
0010
,
0100
0000
0001
0001
0000
0010
0001
0000
,
1000
0100
1000
0000
0020
0000
0130
0000
,
0020
0000
0130
0000
0001
0010
0100
0000
,
0010
0100
1000
0000
0020
0000
0230
0000
,
0302
0000
1000
1003
0000
0100
2000
0000
,
3002
0000
0010
0013
0000
0001
0000
1000
,
0010
0100
0001
0020
0000
0000
1000
0000
,
0100
0031
2002
0000
,
0000
0000
3003
0000
2000
0000
3010
1000
,
0002
0000
0013
0001
2000
0000
3100
0010
,
0001
0100
0010
0000
2000
0000
3001
1000
,
0020
0000
0130
0001
0020
0000
0130
1000
,
0001
0000
1001
0000
1000
0100
0010
0000
,
0001
0100
0010
0000
1000
0000
0001
1000
,
0001
0000
1001
0000
1000
0001
0020
0000
,
0130
1000
0020
0000
0130
0001
0020
0000
,
0031
1000
0100
0000
1000
0010
0200
0000
,
0301
1000
0200
0000
0301
0100
0020
0000
,
0031
1000
0100
0000
2002
0000
0000
0000
,
0000
0003
0010
0001
,
0200
0000
3300
0000
0001
0001
0100
0000
,
0010
1000
0100
0000
0002
0000
0203
0000
,
2300
3020
0200
0000
,
0000
0000
0000
0000
,
0000
0000
0000
0000
,
0330
0000
0000
0000
;

//--------------- dance-single - KAYSTAR ----------------
#NOTES:
     dance-single:
     KAYSTAR:
     Hard:
     13:
     0,0,0,0,0:
0000
0000
0000
0000
,
0000
0000
0000
0000
,
0000
0000
0000
1000
0100
0000
1000
0000
0020
0000
0000
0000
0130
0000
0001
0000
,
1000
0000
0000
0001
0010
0000
0001
0000
0200
0000
0000
0000
0310
0000
1000
0000
,
0001
0000
1000
0100
0000
1000
0001
0000
0100
0000
0001
1000
0000
0010
1000
0000
,
0100
0010
0001
0000
0000
0000
1000
0001
,
0100
0000
0010
0000
1000
0100
0000
0100
0010
0000
0000
0000
1000
0000
0010
0000
,
0001
0100
0010
1000
1001
0000
0001
0010
,
0001
1000
0000
0100
1000
0000
0000
0010
0000
0010
0000
0100
0001
0000
0100
1000
,
0000
0000
0100
0010
0100
0000
0000
0000
1001
0000
0000
0000
0001
0000
1000
0000
,
0100
0000
1000
0000
0010
0000
0100
0000
0000
0001
0010
0001
0000
0010
0100
0010
,
0000
0100
1000
0000
0001
0000
0100
0000
1000
0000
0100
0000
0020
0000
0000
0000
,
1000
0100
1030
0200
,
0010
0000
0001
0000
0310
0000
1001
1000
,
0100
0000
0010
0000
0001
0100
0000
0100
0010
0000
0000
0000
0001
0000
0010
0000
,
1000
0100
0010
0001
1001
0000
1000
0010
,
1000
0001
0000
0100
0001
0000
0000
0010
0000
0010
0000
0100
1000
0000
0100
0001
,
0000
0000
0100
0010
0100
0000
0000
0000
1001
0000
0000
0000
1000
0000
0001
0000
,
0100
0000
0001
0000
0010
0000
0100
0000
0000
1000
0010
1000
0000
0010
0100
0010
,
0000
0100
0001
0000
1000
0000
0100
0000
0010
0000
0000
0000
2001
0000
0000
0000
,
0100
0010
0100
3002
,
0010
0100
0010
2003
,
3200
0320
0032
0103
,
0001
1000
0010
1000
0100
0001
0100
1000
,
0010
0000
0100
0000
0001
0000
0010
0001
0100
0000
1000
0000
0100
0000
0001
0000
,
1000
1000
0000
0100
1000
0000
0001
0001
0000
0100
0001
0000
0010
0010
0000
0000
,
0001
0001
0000
0100
0001
0000
1000
1000
0200
0000
0000
0000
0000
0000
0000
0000
,
0310
0000
0001
0000
1000
0000
2100
0000
0000
0000
3001
0000
0100
0001
0100
0000
,
0010
0000
1000
0000
0100
0000
0020
0000
0000
0000
1030
0000
0010
0100
0010
0000
,
0001
0000
1000
0000
0100
0000
0010
0000
0001
0000
0100
0000
0010
0000
1000
0100
,
0000
0100
1000
0000
0010
0000
0100
0001
0000
0001
0100
0000
0001
0000
0020
0000
,
0000
1030
0010
0001
0100
0001
0100
0010
,
1000
0000
0001
0010
0100
0000
2000
0000
0000
0000
3100
0000
1000
0000
0100
0000
,
1000
0000
0010
0100
0001
0000
0020
0000
0000
0000
1030
0000
0010
0000
1000
0000
,
0010
0000
0100
0010
0001
0000
2000
0000
0000
0000
3010
0000
1000
0000
0001
0000
,
0100
0000
0010
0000
1000
0000
0010
0000
1000
0000
0100
0000
0020
0000
0000
0000
0000
0000
0031
0000
0000
0100
0000
0000
,
0010
0000
1000
0001
0000
0001
0100
0000
0000
0000
1000
0000
0100
0000
0001
0000
,
0010
0000
0001
1000
0001
0000
1000
0000
0200
0000
0000
0000
0301
0000
0100
0000
,
1000
0010
0001
0010
1000
0100
0010
0001
,
0100
0000
0000
0000
0000
0000
0010
0000
0000
1000
0000
0000
0000
0000
0000
1000
0000
0000
0100
0000
0000
0000
0000
0000
1000
0000
0000
0000
0000
0000
0000
0000
0001
0000
0000
0000
0100
0000
0000
0000
0000
0000
0000
0000
0100
0000
0000
0000
,
0001
0000
0010
0000
0100
0000
1000
0000
0000
0020
0000
0000
0000
0000
0000
0100
0000
0000
0130
0000
0000
0000
0000
0000
,
0010
0000
1000
0000
0001
0010
0200
0000
0000
0000
0001
0000
0000
0000
1300
0000
,
0100
0000
0000
0010
0000
0000
0001
0000
0000
0000
0000
0000
1000
0000
0000
0000
0000
0000
0020
0000
0000
0000
0000
0000
0000
0000
0000
0000
0000
0000
0000
0000
0000
0000
0000
0000
0130
0000
0000
0000
0001
0000
0000
0000
0100
0000
0000
0000
,
0010
1000
0100
1000
0000
0000
0002
0000
0000
0203
0000
0000
,
0320
0000
0000
1000
0000
1030
0000
0000
1000
0000
0100
0000
0001
0000
0100
0000
,
1000
0000
0010
0000
0100
0000
0001
1000
0001
0000
0010
0000
0001
0100
0000
0100
,
0010
0000
1000
0000
0001
0010
0000
0010
0100
0000
1000
0000
0010
0000
0100
0000
,
0001
0010
1000
0010
0001
0100
0010
1000
,
0100
0000
1000
0000
1001
0000
0000
0000
0001
0100
0001
0000
1000
0000
0010
0000
,
1000
0100
1000
0000
0001
0000
0010
0000
0002
0000
0000
0000
0103
0000
2001
0000
,
0100
0000
3000
0000
1001
0000
0000
0000
1000
0100
1000
0000
0010
0000
0100
0000
,
0001
0010
0001
0000
1000
0000
0100
0000
0010
1000
0010
0000
0100
0000
1000
0000
,
0001
0100
0001
0000
0010
0000
0100
0000
1000
0010
1000
0000
0001
0000
0100
0000
,
1000
0100
1000
0000
0100
0000
0010
0000
1000
0001
1000
0000
0100
0000
0010
0000
,
0001
0100
0001
0000
0000
1000
0010
0000
2000
0000
0000
0000
0000
0000
0100
0000
,
0000
0000
3100
0000
0000
1000
0001
0000
0000
0100
0000
0100
0010
0000
0010
1000
,
0000
1000
0100
0000
0000
0000
1001
0000
0010
0001
1000
0000
0100
1000
0000
0000
,
0010
1000
0001
0000
0200
0000
0000
0000
1300
0000
0100
0000
0001
0000
1000
0000
,
0010
0000
0100
0001
0100
0010
1000
0002
2000
0000
0000
0000
0000
0000
0000
0000
,
0000
0000
0000
0000
,
0000
0000
0000
0000
,
3003
0000
0000
0000
;

//--------------- dance-double - KAYSTAR ----------------
#NOTES:
     dance-double:
     KAYSTAR:
     Easy:
     6:
     0,0,0,0,0:
00000000
00000000
00000000
00000000
,
00000000
00000000
00000000
00000000
,
00000000
00011000
00000000
00100000
,
00000000
00011000
00000000
00000010
,
00000000
00001000
00000100
00000010
,
00000002
00000003
00000000
00000100
,
00000000
00000100
00000000
00000010
,
00001000
00000100
00010000
00001000
,
00000000
00001000
00000000
00100000
,
00010000
20000000
30000000
00100000
,
00000000
00100000
00000000
01000000
,
00010000
00100000
00001000
00020000
,
00000000
02030000
00000000
23000000
,
00000000
30000000
00000000
01000000
,
00000000
01000000
00000000
00100000
,
00010000
01000000
00001000
00010000
,
00000000
00010000
00000000
00000010
,
00001000
00000002
00000003
00000010
,
00000000
00000010
00000000
00000100
,
00001000
00000010
00010000
00002000
,
00000000
00003200
00000000
00000302
,
00000000
00000003
00000000
00000020
,
00000000
00000030
00000000
00000000
,
00000001
00001000
00000010
00000000
,
00010000
00001000
01000000
00000000
,
00010000
00100000
00001000
00000000
,
00010000
00000100
00002000
00000000
,
00003000
00000000
00000000
00001001
00000000
00000000
00000001
00000000
,
00000100
00000000
00000001
00001000
00000000
00000000
00000100
00000000
,
00001000
00000010
00020000
00000000
,
00000000
00000000
00031000
00000000
00100000
00000000
00010000
10000000
,
00000000
00000000
00010000
01000000
,
02000000
00000000
00000000
13000000
00000000
00000000
01000000
00000000
,
02000000
00000000
00000000
03010000
00000000
00000000
00100000
00000000
,
00200000
00000000
00000000
00301000
00000000
00000000
00010000
00000000
,
00000010
00000100
00000001
00000000
,
00000010
00000000
00000001
00001000
00000000
00000000
00000001
00000000
,
00000100
00001000
00020000
00030000
,
00002000
00003000
00010000
01000000
,
10000000
00000000
00010000
00100000
,
00200000
00000000
00000000
10300000
00000000
00000000
00100000
00000000
,
00200000
00000000
00000000
00310000
00000000
00000000
01000000
00000000
,
02000000
00000000
00000000
03001000
00000000
00000000
00010000
00000000
,
00001000
00022000
00000000
00000000
,
00033000
00000000
00010000
00000100
,
00001000
00000020
00000100
00000000
,
00000130
00000000
00000001
00001000
,
00000100
00020000
00001000
00000000
,
00031000
00000000
01000000
00010000
,
00100000
00000000
01000000
00000000
10000000
00000000
00000000
10010000
,
00000000
00010000
01000000
00001000
,
00010000
00000010
00001000
00000001
,
00000010
00000100
00001000
00000010
,
00010000
00001000
01000000
00010000
,
00100000
01000000
20000000
00000000
,
00000000
00000000
30000000
00000000
,
00000000
00000000
10000000
10000000
,
00100000
01000000
00001000
00010000
,
00000100
00000010
00000002
00000000
,
00000000
00000000
00000000
00000000
,
00000000
00000000
00000000
00000000
,
00000003
00000000
00000000
00000000
;

//--------------- dance-double - KAYSTAR ----------------
#NOTES:
     dance-double:
     KAYSTAR:
     Medium:
     9:
     0,0,0,0,0:
00000000
00000000
00000000
00000000
,
00000000
00000000
00000000
00000000
,
00000000
00000000
00012000
00000000
00103000
00000000
00001000
00010000
,
00001000
00000000
00021000
00000000
00030010
00000000
00010000
00001000
,
00020000
02030000
23000000
30200000
,
01300000
00100000
01000000
00000000
00000000
00000000
00010000
00000000
,
10010000
00000000
10000000
01000000
00100000
00000000
00002000
00000000
,
00023000
00030200
00001300
00000001
,
00001001
00000000
00001000
00000010
00000100
00000000
00000002
00000000
,
00000010
00002003
00000100
00003001
,
00001001
00000000
00001000
00000000
00000010
00010000
00001000
00000000
,
00010000
00001000
01000000
00000000
10010000
00000000
00020000
00000000
,
00130000
00000000
00001000
00010000
00000100
00000000
00002000
00000000
,
00003010
00000202
00000303
00001000
,
00001001
00000000
00000001
00000100
00000010
00000000
00020000
00000000
,
00032000
02003000
03010000
10000000
,
10010000
00000000
00010000
00100000
01000000
00000000
20000000
00000000
,
00100000
30020000
01000000
10030000
,
10010000
00000000
00010000
00000000
00100000
00001000
00010000
00000000
,
00001000
00010000
00000100
00000000
00001001
00000000
00000002
00000000
,
00000000
00000203
00001000
00002300
,
00000000
00013000
01000000
20000000
,
00000000
30020000
10000000
10030000
,
01000000
00100000
00010000
00000000
00001000
00000100
00000010
00000000
,
00000100
00010000
00001000
00000000
01000000
00001000
00010000
00000000
,
00000100
00001000
00000010
00000010
00000100
00000001
00000010
00000010
,
00000100
00010000
00001000
01000000
02000000
00000000
00000000
00000000
,
03100000
00000000
00000000
20010000
00000000
00000000
01000000
00000000
,
31000000
00000000
00100000
00002000
00000000
00000000
00010000
00000000
,
00013000
00001000
00000010
00000000
00000001
00000100
00000010
00000000
,
00001000
00000010
00010000
00000000
00001000
01000000
00100000
20000000
,
00000000
30010000
20000000
32000000
,
03020000
00000000
00001000
00032000
00000000
00000000
00003200
00000000
,
00000302
00000000
00001003
00002000
00000000
00000000
00003200
00000000
,
00000320
00000000
00001000
00002030
00000000
00000000
00023000
00000000
,
02030000
23000000
30010000
10000000
,
00010000
00100000
00010000
01000000
00000000
00000000
00200000
00000000
,
20300000
32000000
03020000
00031000
,
00020000
00031000
00002000
00003200
,
00000302
00000000
00001003
00000000
00000001
00000010
00000100
00000000
,
00001000
00000010
00001000
00000100
00000000
00010000
00001000
00000000
,
00100000
00010000
01000000
00010000
00000000
10000000
01000000
00000000
,
10000000
00100000
01000000
00020000
00000000
00000000
10000000
00000000
,
10030000
10010000
02200000
00000000
,
00000000
00000000
03300000
00000000
20000000
00000000
31000000
10000000
,
00020000
00000000
01030000
00001000
00020000
00000000
00130000
00010000
,
00001000
00000000
00011000
00000000
00020000
00000000
00030010
00010000
,
00002000
00000000
00003010
00001000
00020000
00000000
00030100
00001000
,
00000001
00001001
00000002
00000203
,
00000320
00000000
00020030
00000000
00031000
00000000
00100000
00010000
,
10000000
00000000
10010000
00000000
00010000
00100000
02000000
00000000
,
03010000
00001000
00200000
00000000
00301000
00010000
00000200
00000000
,
00001300
00000000
00001001
00000000
00001000
00000010
00000200
00000000
,
00001300
00010000
00000020
00000000
00010030
00001000
02000000
00000000
,
03010000
10010000
02200000
00000000
,
00000000
03300000
00002000
00003020
,
00000032
00000203
00000310
00001001
,
00001000
00000100
00010000
00000000
00002000
00000000
02003000
00000000
,
03200000
20300000
02000000
00000000
,
00000000
00000000
00000000
00000000
,
00000000
00000000
00000000
00000000
,
33000000
00000000
00000000
00000000
;

//--------------- dance-double - KAYSTAR ----------------
#NOTES:
     dance-double:
     KAYSTAR:
     Hard:
     12:
     0,0,0,0,0:
00000000
00000000
00000000
00000000
,
00000000
00000000
00000000
00000000
,
00000000
00000000
00000000
00000100
00010000
00000000
00001000
00000000
00200000
00000000
00000000
00000000
00310000
00000000
10000000
00000000
,
00010000
00000000
00000000
01000000
00001000
00000000
00010000
00000000
00000020
00000000
00000000
00000000
00001030
00000000
00000001
00000000
,
00001000
00000000
00000100
00010000
00000000
00001000
00010000
00000000
00001000
00000000
01000000
00010000
00000000
01000000
00001000
00000000
,
00010000
00010000
00001000
00000000
00000000
00000000
00010000
01000000
,
10000000
00000000
00000000
00000000
00100000
10000000
00000000
00010000
01000000
00000000
00000000
00000000
00100000
00000000
00010000
00000000
,
00001000
00010000
00000100
00001000
00001001
00000000
00000001
00000010
,
00000000
00001000
00000000
00001000
00000010
00000000
00000000
00000001
00000000
00000100
00000000
00000000
00000010
00000000
00010000
00001000
,
00000000
00000000
00100000
00000000
00001000
00010000
00000000
00000000
00011000
00000000
00000000
00000000
00001000
00000000
00000100
00000000
,
00000010
00000000
00000000
00000000
00001000
00000000
00000001
00000000
00000010
00000000
00000000
00001000
00000000
00010000
00000000
00001000
,
00000000
00000100
00000000
00000000
00000001
00000000
00000010
00000000
00000100
00000000
00000000
00000000
00010100
00000000
00000000
00000000
,
00011000
00000000
01001000
01000000
00100000
10000000
00000000
10000000
,
00000000
10000000
01000000
00010000
00001000
00000000
00010000
00001000
,
00000100
00000000
00000001
00000000
00001000
00000100
00000000
00000010
00000001
00000000
00000000
00000000
00000100
00000000
00001000
00000000
,
00010000
00001000
00100000
00010000
10010000
00000000
10000000
01000000
,
00000000
00010000
00000000
00010000
01000000
00000000
00000000
10000000
00000000
00100000
00000000
00000000
01000000
00000000
00001000
00010000
,
00000000
00000000
00000100
00000000
00010000
00001000
00000000
00000000
00011000
00000000
00000000
00000000
00010000
00000000
00100000
00000000
,
01000000
00000000
00000000
00000000
00010000
00000000
10000000
00000000
01000000
00000000
00000000
00010000
00000000
00001000
00000000
00010000
,
00000000
00100000
00000000
00000000
10000000
00000000
01000000
00000000
00100000
00000000
00000000
00000000
20010000
00000000
00000000
00000000
,
01000000
00010000
01000000
32000000
,
00010000
00100000
00010000
03020000
,
00001000
00000010
00001000
00030010
,
00001000
00000001
00000100
00001000
00010000
00000010
00001000
00000100
,
00010000
00000000
00001000
00000000
00100000
00000000
10000000
00100000
00010000
00000000
01000000
00000000
00100000
00000000
10000000
00000000
,
01000000
01000000
00000000
10000000
00010000
00000000
01000000
01000000
00000000
00001000
00010000
00000000
00000100
00000100
00001000
00000001
,
00000100
00000100
00000000
00000001
00001000
00000000
00000100
00000100
00020000
00000000
00000000
00000000
00000000
00000000
00000000
00000000
,
00031000
00000000
00010000
00000000
01000000
00000000
10000000
00000000
00100000
00000000
10000000
00000000
00010000
01000000
00010000
00000000
,
10000000
00100000
00010000
00002000
00000000
00013000
00001000
00000010
,
00000001
00000000
00001000
00000100
00001000
00000000
00000001
00000000
00000010
00000000
00000001
00000000
00000100
00000000
00001000
00000000
,
00000100
00000010
00001000
00000001
00000010
00000100
00010000
00002000
,
00000000
00003010
00001000
00010000
01000000
00010000
01000000
00100000
,
00010000
00000000
10000000
01000000
10000000
00000000
00200000
00000000
00000000
00000000
00310000
00000000
00100000
00000000
00010000
00000000
,
00100000
00000000
01000000
00010000
01000000
00000000
00002000
00000000
00000000
00000000
00013000
00000000
00001000
00000000
00010000
00000000
,
00001000
00000000
00000010
00001000
00000010
00000000
00000200
00000000
00000000
00000000
00000301
00000000
00000100
00000000
00001000
00000000
,
00000001
00000000
00000010
00000000
00000001
00000000
00001000
00000000
00000100
00000000
00001000
00000000
00000001
00000000
00000000
00000000
00000000
00000000
00000100
00000000
00000000
00000010
00000000
00000000
,
00001000
00000000
00000100
00010000
00000000
00010000
00001000
00000000
00000000
00000000
01000000
00000000
00100000
00000000
10000000
00000000
,
01000000
00000000
10000000
00010000
10000000
00000000
01000000
00000000
00200000
00000000
00000000
00000000
10300000
00000000
00100000
00000000
,
00010000
01000000
10000000
01000000
00010000
00100000
01000000
10000000
,
00010000
00000000
01000000
00001000
00000000
00001000
00010000
00000000
00000020
00000000
00000000
00000000
00001030
00000000
00000000
00000000
,
00000001
00000000
00000100
00000000
00000001
00000000
00001000
00000000
00000000
00000200
00000000
00000000
00000000
00000000
00000000
00000301
00000000
00000000
00000100
00000000
00000000
00000000
00000000
00000000
,
00010000
00000000
00001000
00000000
00100000
00010000
00200000
00000000
00000000
00000000
10000000
00000000
00000000
00000000
00310000
00000000
,
10000000
00000000
00000000
01000000
00000000
00000000
10000000
00000000
00000000
00000000
00000000
00000000
00010000
00000000
00000000
00000000
00000000
00000000
02000000
00000000
00000000
00000000
00000000
00000000
00000000
00000000
00000000
00000000
00000000
00000000
00000000
00000000
00000000
00000000
00000000
00000000
13000000
00000000
00000000
00000000
01000000
00000000
00000000
00000000
00100000
00000000
00000000
00000000
,
10000000
00100000
10000000
00010000
00000000
00000000
00102000
00000000
00000000
00023000
00000000
00000000
,
00030200
00000000
00000000
00001000
00000000
00001300
00000000
00000000
00000001
00000000
00000100
00000000
00001000
00000000
00000100
00000000
,
00010000
00000000
00000100
00000000
00001000
00000000
00000100
00000000
00000010
00000000
00001000
00000000
00000001
00000100
00000000
00000001
,
00001000
00000000
00000100
00000000
00010000
00001000
00000000
01000000
00010000
00000000
10000000
00000000
01000000
00000000
00010000
00000000
,
01000000
00001000
01000000
00010000
01000000
00100000
00010000
10000000
,
00100000
10000000
10010000
00000000
00020000
00032000
00023000
00230000
,
00302000
00023000
00032000
00003020
00000031
00000000
00001001
00000100
,
00000001
00000000
00020010
00000000
00031000
00010000
01000000
10000000
,
00100000
00000000
00010000
00000000
00001000
00010000
00001000
00000000
00010000
00000000
00100000
00000000
10000000
00000000
01000000
00000000
,
00010000
00000000
00001000
00000000
00010000
00001000
00010000
00000000
00001000
00000000
00000010
00000000
00000001
00000000
00000100
00000000
,
00001000
00000000
00010000
00000000
00100000
00010000
00100000
00000000
00010000
00000000
00001000
00000000
00000100
00000000
00000001
00000000
,
00000010
00000000
00000100
00000000
00001000
00000001
00001000
00000000
00001002
00000000
00000000
00000000
00000000
00000000
00000100
00000000
,
00000000
00000000
00000103
00000000
00000000
00000001
00001000
00000000
00000000
00000100
00000000
00000100
00010000
00000000
00010000
00001000
,
00000000
00001000
01000000
00000000
00000000
00000000
10010000
00000000
00100000
00000000
10000000
00000000
10000000
01000000
00000000
00000000
,
10010000
00100000
00002000
00000000
00013000
00001000
00000100
00000001
,
00000010
00000000
00000100
00000000
00001000
00000001
00001000
00000000
00002002
00000000
00000000
00000000
00000000
00000000
00000000
00000000
,
00000000
00000000
00000000
00000000
,
00000000
00000000
00000000
00000000
,
00003003
00000000
00000000
00000000
;
