#TITLE:wish;
#SUBTITLE:;
#ARTIST:DJ Yoshitaka feat.杉村ことみ;
#TITLETRANSLIT:;
#SUBTITLETRANSLIT:;
#ARTISTTRANSLIT:;
#GENRE:;
#CREDIT:;
#MUSIC:wish (DJ Yoshitaka).ogg;
#BANNER:wish (DJ Yoshitaka).png;
#BACKGROUND:wish (DJ Yoshitaka)-bg.png;
#CDTITLE:;
#SAMPLESTART:58.279;
#SAMPLELENGTH:15.000;
#SELECTABLE:YES;
#OFFSET:1.699;
#BPMS:0.000=115.000;
#STOPS:;
#BGCHANGES:0.000=wish (DJ Yoshitaka).mp4=1.000=0=0=0=StretchNoLoop====,
99999.000=-nosongbg-=1.000=0=0=0=StretchNoLoop====
;
#FGCHANGES:;

//--------------- dance-single - ~Princess Pamela~ ----------------
#NOTES:
     dance-single:
     ~Princess Pamela~:
     Beginner:
     3:
     0,0,0,0,0:
0000
0000
0000
0000
,
0000
0000
0000
0000
,
0000
0000
0000
0000
,
0000
0000
0000
0000
,
1000
0001
1000
0000
,
0001
0000
0000
0000
,
0100
0000
0000
0000
,
0010
0000
0000
0000
,
1000
0001
1000
0000
,
0100
0000
0000
0000
,
0010
0000
0000
0000
,
0001
0000
0000
0000
,
0001
1000
0001
0000
,
0100
0000
0000
0000
,
0010
0000
0010
0000
,
1000
0000
0000
0000
,
0100
0010
0100
0000
,
0010
0000
0000
0000
,
0001
0000
0001
0000
,
0100
0000
0000
0000
,
0010
0100
0010
0000
,
1000
0000
0000
0000
,
0100
0000
0000
0000
,
0010
0000
0000
0000
,
0001
0000
0001
0000
,
0100
0000
0000
0000
,
0010
0000
0000
0000
,
1000
0000
0000
0000
,
0001
1000
0001
0000
,
0010
0000
0000
0010
,
0100
0000
0000
0100
,
1000
0000
0000
1000
,
0001
1000
0001
0000
,
0100
0000
0000
0100
,
0001
0000
0000
0001
,
0010
0000
0000
0010
,
0100
0000
1000
0001
,
1000
0010
0000
0010
,
0000
0100
0000
0010
,
0000
0100
0000
0100
,
0001
1000
0001
0000
,
0010
0100
0000
0100
,
1000
0001
0000
0001
,
0100
0010
0000
0010
,
1000
0001
1000
0000
,
0001
0000
0000
0000
,
0010
0000
0000
0000
,
0100
0000
0000
0000
,
1000
0001
1000
0000
,
0010
0000
0000
0100
,
0001
0000
0000
1000
,
0100
0000
0000
0010
,
0001
1000
0001
1000
,
0000
0020
0000
0000
,
0030
0000
0000
0000
;

//--------------- dance-single - ~Princess Pamela~ ----------------
#NOTES:
     dance-single:
     ~Princess Pamela~:
     Easy:
     5:
     0,0,0,0,0:
0000
0000
0000
0000
,
0000
0000
0000
0000
,
0000
0000
0000
0000
,
0000
0000
0000
0000
,
0010
0010
0010
0000
,
1001
0000
1000
0000
,
0100
0010
0200
0300
,
0010
0000
0001
0000
,
0100
0100
0100
0100
,
0001
0000
1000
0000
,
0010
1000
0020
0030
,
0100
0000
0001
0000
,
0010
0010
0010
0010
,
0002
0000
0000
0003
,
0100
0000
0010
0000
,
1000
0000
0010
0000
,
0100
0100
0100
0100
,
0001
0000
1000
0000
,
0001
0000
0010
0020
,
0030
0200
0300
1000
,
0010
0010
0100
0010
,
2000
0000
0000
3000
,
0100
0010
0100
0000
,
0020
0000
0000
0030
,
0001
1000
0001
0000
,
0100
0000
0010
0010
,
1000
0000
0010
0010
,
0100
0000
0001
0000
,
0010
0010
0010
0000
,
0001
1000
1001
0000
,
0100
0010
0110
0000
,
1000
0001
1001
0000
,
0010
0010
0010
0010
,
0001
1000
1001
0000
,
0100
0010
0110
0000
,
1000
0001
1001
0000
,
0110
0000
0001
1000
,
0002
0000
0100
0000
,
0100
0000
0003
0000
,
2000
0000
0100
3000
,
1000
0001
1000
0000
,
0010
1000
0000
0100
,
0010
0001
0000
0100
,
0010
1000
0000
0001
,
0010
0100
0020
0030
,
0002
0000
0003
0100
,
0020
0000
0030
1000
,
0002
0000
0003
0010
,
0100
0100
0100
1000
,
0001
0100
1001
0000
,
0001
0010
0110
0000
,
1000
0100
1001
0000
,
1000
1000
1000
0020
,
0030
0200
0000
0000
,
0300
0000
0000
0000
;

//--------------- dance-single - ~Princess Pamela~ ----------------
#NOTES:
     dance-single:
     ~Princess Pamela~:
     Medium:
     7:
     0,0,0,0,0:
0000
0000
0000
0000
,
0000
0000
0000
0000
,
0000
0000
0000
0000
,
0000
0000
0000
0000
,
1001
0110
1001
0010
,
1000
0000
0100
0000
1000
0001
0010
0000
,
0001
1000
0001
0000
0200
0000
0300
0000
,
0001
0010
0001
0000
0010
0100
1000
0000
,
1001
0110
1001
0110
,
0001
0000
0100
0000
0001
1000
0010
0000
,
1000
0001
1000
0000
0200
0000
0300
0000
,
0010
0000
0100
0000
0010
0001
1000
0000
,
1001
0110
1001
0110
,
1000
0000
0010
0010
0010
0000
0100
0000
,
0001
0010
1001
0000
,
0001
0000
0010
0010
0010
0000
0001
0000
,
0110
1001
0110
1001
,
0001
0000
0100
0100
0100
0000
0001
0000
,
0010
0000
0100
1000
0001
0000
0100
0000
,
0010
0010
0100
0001
,
1001
0110
1001
0010
,
2000
0000
0100
3100
,
1000
0001
0010
0000
,
0002
0000
0100
0103
,
0001
1000
0010
0000
,
0200
0000
0301
0100
,
0020
0000
1030
0010
,
0100
0100
0001
0000
,
1001
0110
1001
0000
,
1000
0000
0000
1000
0000
0000
0200
0000
0000
0000
0310
0000
0010
0000
0000
0000
,
0001
0000
0000
0001
0000
0000
0200
0000
0000
0000
0310
0000
1000
0000
0000
0000
,
0001
0000
0000
0001
0000
0000
0020
0000
0000
0000
0130
0000
1000
0000
0000
0000
,
0110
1001
0110
1001
,
1000
0000
0000
1000
0000
0000
0020
0000
0000
0000
0130
0000
0100
0000
0000
0000
,
0001
0000
0000
0001
0000
0000
0020
0000
0000
0000
0130
0000
1000
0000
0000
0000
,
0010
0000
0000
0010
0000
0000
0200
0000
0000
0000
0301
0000
1000
0000
0000
0000
,
1001
0000
0110
0002
,
1003
0000
1000
0000
1000
1000
1000
0000
,
0100
0001
0010
1000
,
0001
0000
0001
0000
0001
0001
0001
0000
,
1001
0110
1001
0000
,
0001
0100
1000
0100
,
0001
0010
1000
0010
,
0001
0100
1000
0010
,
0110
1001
0220
0330
,
0002
0000
0000
0000
0103
0100
0100
0000
,
0200
0000
0000
0000
0310
0010
0010
0000
,
0020
0000
0000
0000
1030
1000
1000
0000
,
1001
0110
1001
0010
,
0001
0000
0000
0100
0000
0000
0002
0000
0000
0000
1003
0000
0010
0000
0000
0000
,
1000
0000
0000
0100
0000
0000
2000
0000
0000
0000
3010
0000
0010
0000
0000
0000
,
0100
0000
0000
0001
0000
0000
2000
0000
0000
0000
3001
0000
0010
0000
0000
0000
,
0110
0000
1001
0000
0110
0000
1000
0002
,
0000
0103
0020
0000
0000
0000
0000
0000
,
0030
0000
0000
0000
;

//--------------- dance-single - ~Princess Pamela~ ----------------
#NOTES:
     dance-single:
     ~Princess Pamela~:
     Hard:
     10:
     0,0,0,0,0:
0000
0000
0000
0000
,
0000
0000
0000
0000
,
0000
0000
0000
0000
,
0000
0000
0000
0000
,
1001
0000
0000
0000
0000
0000
0110
0000
0000
0000
0000
0000
1000
0000
0001
0000
0000
2000
0000
0000
0000
3000
0000
0000
,
0001
0010
0010
0001
0010
0100
1000
0000
,
0001
0100
0100
0010
2000
0000
0000
3000
,
0100
0010
0010
0100
0010
0001
1000
0000
,
0011
1100
0011
1100
,
1000
0010
0010
1000
0010
0100
0001
0000
,
1000
0100
0100
0010
0002
0000
0000
0003
,
0100
0010
0010
0100
0010
1000
0001
0000
,
0101
1010
0101
1010
,
1001
0000
0000
0001
0001
0100
0001
0000
,
1000
0000
0000
1000
0000
0000
0010
0000
0100
0000
0000
0000
1001
0000
0000
0000
,
0001
0000
0000
0001
0000
0000
0010
0000
0000
0000
0001
0000
1000
0000
0000
0000
,
1100
0011
1100
0011
,
0001
0000
0000
0001
0000
0000
1000
0000
0010
0000
0100
0000
0100
0000
0000
0000
,
0010
0000
0000
0010
0000
0000
1000
0000
0001
0000
0010
0000
0100
0000
2000
0000
,
0000
3000
0010
0200
0000
0300
0001
0010
,
0100
0000
0000
0000
0000
0000
0110
0000
0000
0000
0000
0000
0001
0000
1000
0000
0000
0001
0000
0000
0000
0000
0000
0000
,
2000
0010
0001
3010
,
1000
0100
0001
0000
0100
1000
0001
0020
,
0001
0000
0100
0000
0031
0010
0001
1000
,
0010
0000
0100
0000
0001
1000
0001
0000
,
0010
0200
1000
0000
0010
0010
0310
0000
,
0001
0000
1000
0010
0100
0001
1000
0000
,
0100
0010
0001
0000
0100
0010
1000
0000
,
0011
0000
1010
0000
1001
0000
1000
0100
,
0010
0000
0001
0010
0000
0001
0010
0000
0100
0000
1000
0000
1000
0000
0000
0000
,
0010
0000
1000
0010
0000
1000
0010
0000
0100
0000
0001
0000
0001
0000
0000
0000
,
0010
0000
0100
0010
0000
0100
0010
0000
0001
0000
1000
0000
1000
0000
0000
0000
,
1010
0011
1010
0011
,
0001
0000
0010
0100
0000
0010
0100
0000
1000
0000
0001
0000
0001
0000
0000
0000
,
1000
0000
0001
0100
0000
0001
0100
0000
0010
0000
1000
0000
1000
0000
0000
0000
,
0100
0000
0010
0001
0000
0010
0001
0000
1000
0000
0010
0000
0010
0000
0000
0000
,
0100
0000
0000
0110
0000
0000
0000
0000
0000
0000
0000
0000
0001
0000
1000
0000
0000
0002
0000
0000
0000
0003
0000
0000
,
1000
0100
0001
0100
1000
0100
0001
0100
,
1000
0010
0001
0010
1000
0010
0001
0010
,
1000
0100
0001
0100
1000
0010
0001
0000
,
1010
0101
1010
0000
,
0001
0010
1000
0010
0001
0010
1000
0010
,
0001
0100
1000
0100
0001
0100
1000
0100
,
0001
0010
1000
0010
0001
1000
0010
0000
,
1000
0100
0001
0010
2000
0000
3000
0000
,
0001
0000
0000
0001
0000
0000
0100
0000
0000
0000
0010
0000
1000
0000
0000
0000
,
0001
0000
0000
0001
0000
0000
0010
0000
0000
0000
0100
0000
1000
0000
0000
0000
,
0010
0000
0000
0010
0000
0000
0100
0000
0000
0000
0001
0000
1000
0000
0000
0000
,
1001
0000
0000
0000
0000
0000
0110
0000
0000
0000
0000
0000
1000
0000
0001
0000
0000
1000
0000
0000
0000
0000
0000
0000
,
0010
0000
0100
0001
0000
0100
0010
0000
1000
0000
0100
0000
1100
0000
0000
0000
,
0001
0000
0010
0100
0000
0010
0001
0000
1000
0000
0010
0000
0110
0000
0000
0000
,
0001
0000
1000
0100
0000
1000
0001
0000
0100
0000
0010
0000
1010
0000
0000
0000
,
0101
0000
1100
0000
0101
0000
1000
0020
,
0000
0130
0002
0000
0000
0000
0000
0000
,
0003
0000
0000
0000
;

//--------------- dance-single - ~Princess Pamela~ ----------------
#NOTES:
     dance-single:
     ~Princess Pamela~:
     Challenge:
     12:
     0,0,0,0,0:
0000
0000
0000
0000
,
0000
0000
0000
0000
,
0000
0000
0000
0000
,
0000
0000
0000
0000
,
1100
0000
0000
1000
0000
0000
0011
0000
0000
0001
0000
0000
0100
0000
0010
0000
0000
0220
0000
0000
0000
0330
0000
0000
,
0100
0001
0100
0000
0010
0000
0100
0001
1000
0000
0010
0000
0010
0000
0000
0000
,
1000
0100
1000
0000
0100
0000
0010
0000
0002
0000
0000
0000
0000
0000
0003
0000
,
1000
0010
1000
0000
0010
0000
1000
0010
0100
0000
0001
0000
0001
0000
0000
0000
,
1010
0010
0101
0100
1010
0010
0101
0100
,
0001
0010
0001
0000
0010
0000
0001
0010
0100
0000
1000
0000
1000
0000
0000
0000
,
0001
0100
0001
0000
1000
0000
0010
0000
0200
0000
0000
0000
0000
0000
0300
0000
,
0001
1000
0001
0000
0010
0000
0001
1000
0100
0000
0010
0000
0010
0000
0000
0000
,
1001
0100
1001
0010
1001
0100
1001
0010
,
0110
0000
0000
1000
0000
0000
1000
0000
0000
0000
0001
0000
0010
0000
0000
0000
,
0001
0000
0000
0001
0000
0000
0100
0000
0110
0000
0000
0000
1000
0000
0000
0000
,
0001
0000
0000
0001
0000
0000
0010
0000
0000
0000
0001
0000
0100
0000
0000
0000
,
0101
0001
1100
1000
0101
0001
1100
1000
,
0010
0000
0000
0010
0000
0000
0100
0000
0000
0000
0001
0000
0011
0000
0000
0000
,
0001
0000
0000
0001
0000
0000
0100
0000
0010
0000
1000
0000
0100
0000
0002
0000
,
0000
1003
0010
0002
0000
1003
0001
0100
,
0110
0000
0000
1000
0000
0000
0110
0000
0000
0001
0000
0000
0100
0000
0010
0000
0000
1001
0000
0000
0000
0000
0000
0000
,
1000
0000
0000
0100
0002
0000
0000
0000
0103
0000
1000
0000
0001
0000
0010
0000
,
0001
0000
0000
0100
1000
0000
0000
0000
0100
0000
0001
0000
1000
0000
0010
0000
,
0100
0000
0000
0001
0020
0000
0000
0000
0130
0000
0001
0000
0100
0000
1000
0000
,
0010
0000
0000
0100
1000
0000
0000
0000
0100
0000
0000
0001
1000
0000
0000
0000
,
0010
0100
0002
0000
0013
0100
2000
0000
,
3010
0000
0100
0010
0100
0000
0000
0000
0001
0000
1000
0001
1000
0000
0000
0000
,
0100
1000
1100
0000
0010
0001
0011
0000
,
1001
0000
0000
0100
0000
0000
1001
0000
0000
0010
0000
0000
0100
0000
0010
0000
0000
0110
0000
0000
0000
0000
0000
0000
,
0001
0000
0100
1000
0000
0100
0001
0000
1000
0000
1010
0000
0101
0000
0000
0000
,
1000
0000
0100
0001
0000
0100
1000
0000
0001
0000
0011
0000
0101
0000
0000
0000
,
0001
0000
1000
0100
0000
0001
0100
0000
1000
0000
1001
0000
0011
0000
0000
0000
,
0101
1000
1010
0001
0011
1000
1100
0001
,
1000
0000
0010
0100
0000
1000
0100
0000
0001
0000
0011
0000
1100
0000
0000
0000
,
0001
0000
0010
0100
0000
0001
0100
0000
1000
0000
1010
0000
0101
0000
0000
0000
,
1000
0000
0010
0001
0000
0010
1000
0000
0001
0000
1001
0000
0110
0000
0000
0000
,
1100
0000
0000
0001
0000
0000
0000
0000
0000
0000
0000
0000
0010
0000
0100
0000
0000
0220
0000
0000
0000
0330
0000
0000
,
0002
0000
0100
0000
1000
1000
0013
0001
,
2000
0000
0100
0000
0001
0001
3010
1000
,
0002
0000
0100
0000
1000
1000
0013
0001
,
0101
0000
1000
0000
1010
0000
0001
0000
0101
0000
1000
0000
0000
0000
0001
1000
,
0002
0000
0100
0000
0100
0000
1000
0000
1000
0000
0010
0000
0013
0001
0010
0100
,
2000
0000
0100
0000
0100
0000
0001
0000
0001
0000
3010
1000
0002
0000
0003
0000
,
0200
0000
1000
0000
1000
0000
0010
0000
0010
0000
0001
0000
0301
0100
0010
0000
,
1010
0000
0100
0000
0011
0000
0100
0000
1001
0000
0000
0000
1000
0100
0010
0001
,
2000
0000
0000
0010
0000
0000
3002
0000
0000
0000
0103
0000
1010
0000
0000
0000
,
0002
0000
0000
0010
0000
0000
2003
0000
0000
0000
3100
0000
0011
0000
0000
0000
,
0020
0000
0000
1000
0000
0000
0031
0000
0000
0000
0100
0000
1001
0000
0000
0000
,
1100
0000
0000
0010
0000
0000
0101
0000
0000
0010
0000
0000
1000
0000
0001
0000
0000
2002
0000
0000
0000
3003
0000
0000
,
0001
0000
0100
1000
0000
0100
0001
0000
1000
0010
0100
0000
0101
0000
0000
0000
,
1000
0000
0100
0001
0000
0100
1000
0000
0001
0010
0100
0000
1100
0000
0000
0000
,
0001
0000
0010
1000
0000
0010
0001
0000
1000
0010
0100
0000
1001
0000
0000
0000
,
0011
0001
1100
1000
0101
0001
1010
2000
,
0000
3100
0002
0000
0000
0000
0000
0000
,
0003
0000
0000
0000
;
