#TITLE:that's not true...;
#SUBTITLE:-DreamElectro_RETUNED-;
#ARTIST:deadmau5 ,,ALTER by KSM;
#TITLETRANSLIT:;
#SUBTITLETRANSLIT:;
#ARTISTTRANSLIT:;
#GENRE:;
#CREDIT:KAYSTAR;
#MUSIC:thats not true (DreamElectroRETUNED).ogg;
#BANNER:thats not true (DreamElectroRETUNED).png;
#BACKGROUND:thats not true (DreamElectroRETUNED)-bg.png;
#CDTITLE:;
#SAMPLESTART:80.000;
#SAMPLELENGTH:10.000;
#SELECTABLE:YES;
#OFFSET:0.000;
#BPMS:0.000=147.000
,158.000=73.500
,167.000=147.000
,179.000=73.500
,180.000=147.000
;
#STOPS:128.000=0.816
,158.000=0.816
,179.000=0.816
;
#BGCHANGES:20.246=thats not true (DreamElectroRETUNED).avi=1.000=0=0=1===CrossFade_Fastest==,
308.000=thats not true (DreamElectroRETUNED)-bg.png=1.000=0=0=1,
99999.000=-nosongbg-=1.000=0=0=0=StretchNoLoop====
;
#FGCHANGES:;

//--------------- dance-single - KAYSTAR ----------------
#NOTES:
     dance-single:
     KAYSTAR:
     Beginner:
     3:
     0,0,0,0,0:
0000
0000
0000
0000
,
0000
0000
0000
0000
,
0000
0000
0000
0000
,
0000
0000
0000
0000
,
0000
0000
0000
0000
,
1000
0000
1000
0000
,
0001
0000
0001
0000
,
1000
0000
1000
0000
,
0001
0000
0001
0000
,
0020
0000
0000
0000
,
0030
0000
0000
0000
,
0002
0000
0000
0000
,
0003
0000
0000
0000
,
2000
0000
0000
0000
,
3000
0000
0000
0000
,
0020
0000
0000
0000
,
0030
0000
0000
0000
,
1000
0000
1000
0000
,
0100
0000
0100
0000
,
0010
0010
0000
0000
,
0001
0000
0001
0000
,
0100
0000
0100
0000
,
0010
0000
0010
0000
,
1000
1000
0000
0000
,
0001
0001
0000
0000
,
1000
0000
1000
0000
,
0010
0000
0010
0000
,
0100
0100
0000
0000
,
0001
0000
0010
0000
,
0100
0100
0000
0000
,
0010
0010
0000
0000
,
0002
0000
0000
0003
,
0000
0000
1000
0000
,
0000
0000
0001
0000
,
0000
0000
1000
0000
,
0000
0000
0001
0000
,
0000
0000
1000
0000
,
0100
0000
0010
0000
,
0001
0000
0100
0100
,
0200
0300
0000
0002
,
0000
0003
0000
2000
,
0000
3000
0000
0001
,
0000
0100
0000
0010
,
0000
1000
0000
0100
,
0100
0100
0000
0000
,
1000
0000
0010
0000
,
0100
0000
0001
0001
,
0001
0000
0010
0000
,
0100
0000
1000
1000
,
0000
0010
0010
0000
,
0100
0000
0001
0000
,
1000
1000
0000
0001
,
0002
0000
0003
0000
,
0001
0000
0010
0000
,
0100
0000
1000
1000
,
1000
0000
0010
0000
,
0100
0000
0001
0001
,
0000
0010
0010
0000
,
0100
0000
1000
0000
,
0001
0001
0000
1000
,
2000
0000
3000
0000
,
1000
0000
0010
0010
,
0010
0000
0100
0100
,
0100
0000
0001
0000
,
0010
0000
0100
0000
,
1000
1000
0000
0001
,
0001
0000
0100
0000
,
0010
0000
1000
0000
,
0100
0000
0010
0000
,
0002
0000
0000
0000
,
0003
0000
0000
1000
,
2000
0000
0000
0000
,
3000
0000
0001
0001
,
0001
0000
0010
0000
,
0100
0000
1000
0000
,
0010
0010
0000
0100
,
0200
0000
0300
0000
,
2002
0000
0000
0000
,
3003
0000
0000
0000
;

//--------------- dance-single - KAYSTAR ----------------
#NOTES:
     dance-single:
     KAYSTAR:
     Easy:
     8:
     0,0,0,0,0:
0000
0000
0000
0000
,
0000
0000
0000
0000
,
0000
0000
0000
0000
,
0000
0000
0000
0000
,
0000
0000
0000
0000
,
1000
0000
1000
0000
,
0001
0000
0010
0100
,
1000
0000
0010
0100
,
0001
0000
0010
0000
,
2002
0000
0000
0000
,
3003
0000
0000
0000
,
1000
0000
1000
0000
,
0001
0000
0001
0000
,
0200
0000
0000
0000
,
0300
0000
0000
0000
,
0010
0000
0010
0000
,
1001
0000
0000
0000
,
1000
0100
0010
0000
,
0100
0010
0001
0000
,
0100
1000
0000
0100
,
0001
0010
0100
1000
,
0001
0100
0010
0000
,
0100
0010
1000
0000
,
0100
0100
0010
0010
,
0001
0100
0010
1000
,
0001
0010
0100
0000
,
0010
0100
1000
0000
,
0010
0001
0000
0010
,
1000
0100
0010
0001
,
1000
0010
0100
0002
,
0000
1000
1003
0000
,
0001
0010
0100
1000
,
0010
0000
1001
0000
,
1000
0100
1001
0000
,
0001
0100
1001
0000
,
1000
0010
1001
0000
,
0001
0010
0100
0000
,
0110
0000
1001
0000
,
0110
0000
1000
0010
,
0100
0001
0010
0002
,
0000
0003
0000
2000
,
0000
3000
0000
1001
,
0000
0110
0000
1001
,
1000
0200
0000
0301
,
0100
2000
0000
3001
,
1000
0010
0100
0001
,
0010
0100
2000
0000
,
3010
1000
0100
0010
,
0001
0100
0002
0000
,
0003
1001
1000
0100
,
1000
0010
0020
0000
,
0130
0001
0010
0010
,
1000
0010
0001
0100
,
0001
0010
0100
1000
,
0010
0100
0002
0000
,
0013
0001
0100
0010
,
1000
0100
2000
0000
,
3000
1001
0001
0100
,
0001
0010
0020
0000
,
0100
0130
0000
0010
,
0002
0000
0000
0000
0003
1000
0001
1000
,
0001
0000
0100
0010
,
1000
0100
0001
0100
,
1000
0000
1000
0000
,
0001
0000
0001
0000
,
1000
0010
0001
0010
,
0100
0001
1000
0000
,
0100
0010
0001
0000
,
0010
1000
0010
0001
,
0200
0000
0010
0000
,
0310
0000
0000
0000
0000
1000
0001
0000
,
0020
0000
0100
0000
,
0130
0000
0000
0000
1000
0001
1000
0000
,
0010
0000
1001
0000
,
0100
0000
1001
0000
,
1000
0100
0010
0001
,
0100
1000
0100
0002
,
2000
0000
0000
0000
,
3003
0000
0000
0000
;

//--------------- dance-single - KAYSTAR ----------------
#NOTES:
     dance-single:
     KAYSTAR:
     Medium:
     12:
     0,0,0,0,0:
0000
0000
0000
0000
,
0000
0000
0000
0000
,
0000
0000
0000
0000
,
0000
0000
0000
0000
,
0000
0000
0000
0000
,
1000
0100
0010
0001
,
0100
0000
0010
0000
1000
0100
1000
0000
,
0010
0000
0100
0000
0001
0010
0001
0000
,
0100
0000
0010
0000
1000
0100
0010
0001
,
2000
0001
0000
0100
,
3200
1000
0000
0001
,
0302
0100
0000
1000
,
2003
3020
0032
1003
,
0002
1000
0000
0100
,
0203
0001
0000
1000
,
2300
0000
0100
0000
0000
0000
3001
0010
,
2000
3200
0320
0032
,
1003
0001
0100
0000
0010
1000
0100
0100
,
1000
0001
0010
0000
0100
1000
0010
0100
,
0002
0000
1003
0000
0001
1000
0001
0000
,
0010
0000
0001
0000
1000
0100
0000
0100
1000
0000
0001
0000
0100
0000
0010
0000
,
1000
0001
0010
0000
0100
1000
0010
0010
,
1000
0001
0000
0001
0000
0001
0100
0000
,
0010
1000
0100
0000
0010
0001
0100
0000
,
1000
0100
0001
0010
0100
1000
0010
0100
,
0001
1000
0100
0000
0010
0001
0100
0100
,
0001
1000
0010
0000
0100
0001
0010
0100
,
2000
0000
3001
0000
1000
0001
1000
0000
,
0010
0000
1000
0000
0001
0100
0000
0100
0001
0000
1000
0000
0100
0000
0010
0000
,
0001
0001
0000
1000
1000
0010
0100
0001
,
0010
1000
0010
0001
0200
0000
0310
0000
,
1000
0100
0001
0100
1000
0010
0100
0001
,
0010
0000
1001
0000
,
0010
1000
0100
0000
1001
0000
0000
0000
,
0010
0001
0100
0010
0110
0000
0000
0000
,
1000
0001
0010
0000
0110
0000
0001
1000
,
0100
0010
0002
0000
0103
0000
0010
0000
,
1100
0000
0010
0000
1001
0000
1000
0010
,
0200
0301
1010
1001
,
0011
1001
0110
2000
,
3200
0320
0032
0203
,
0320
0000
2030
0000
0001
0001
3001
0000
,
0000
1100
0000
1001
,
0001
0100
0010
0020
0000
0000
1030
0100
,
0010
0001
0100
1000
0100
0001
0000
0000
,
1000
0100
0010
0000
1000
0010
0001
0000
,
0010
0100
1000
0000
0001
0100
1000
0100
,
0001
0010
0100
0000
0001
0100
1000
0000
,
0100
0010
0001
0000
1000
0010
0001
0010
,
0200
0000
0301
0000
1000
0010
0100
0000
,
0001
1000
0100
0001
0100
0020
0000
0000
,
0031
0010
0100
1000
0010
1000
0001
0000
,
0100
1000
0100
0010
0001
0010
1000
0000
,
0001
0100
0010
0000
0001
0010
1000
0000
,
0010
0100
0001
0000
1000
0100
0001
0100
,
1000
0010
0100
0000
1000
0100
0001
0000
,
0100
0010
1000
0000
0001
0010
1000
0010
,
0200
0000
1300
0000
0001
0010
0100
0000
,
1000
0001
0100
1000
0100
0020
0000
0000
,
1030
0010
0100
0000
0001
0010
0100
0000
,
2002
0000
0000
3003
,
1000
0000
0100
0001
0100
1000
0010
0100
,
0001
1000
0010
0001
0010
0100
0002
0000
,
1003
0001
0010
0000
0100
0001
0100
0000
,
0010
1000
0010
0000
0001
0010
0100
1000
,
0020
0000
0130
0000
0001
1000
0010
1000
,
0100
0001
0100
1000
0010
0100
0001
0000
,
1000
0100
0010
0000
0001
0100
0010
0000
,
1000
0001
0100
1000
0100
0010
0001
0010
,
1000
0000
0000
0100
0000
0000
0010
0000
,
0000
0001
0000
0000
0000
0100
0010
1000
,
0100
0000
0000
1000
0000
0000
0010
0000
,
0102
0000
0000
0000
1003
0100
0010
0000
,
0002
0100
2003
0100
,
3002
0023
0230
0000
,
0301
0000
0100
0000
0010
0000
0001
0000
1000
0000
0000
0100
1000
0000
0001
0000
,
0200
0000
1300
0100
0001
0010
0100
2000
,
0002
0000
0000
0000
,
3003
0000
0000
0000
;

//--------------- dance-single - KAYSTAR ----------------
#NOTES:
     dance-single:
     KAYSTAR:
     Hard:
     14:
     0,0,0,0,0:
0000
0000
0000
0000
,
0000
0000
0000
0000
,
0000
0000
0000
0000
,
0000
0000
0000
0000
,
0000
0000
0000
0000
,
0000
0000
1010
0000
0000
0000
1000
0001
0000
0001
0000
0000
0100
0000
1000
0000
,
0100
0000
0000
0010
1000
0000
0000
0000
0001
0000
0010
0000
0100
0000
0000
0000
,
0001
0000
0000
0100
0010
0000
0000
0010
0001
0000
1000
0000
0100
0000
0000
0000
,
1000
0000
0000
1000
0010
0000
0000
0000
0100
0000
0001
0000
0010
0000
0100
0000
,
2000
0010
0100
3010
,
1000
0000
0000
0001
0000
0000
0010
0000
0000
0000
1000
0000
0000
0010
0000
0000
,
0100
1000
0000
0000
0000
0000
0001
0000
0000
0000
0100
0000
0000
0000
0000
0000
,
0010
0000
0000
0001
0000
0000
0010
0000
0000
0000
1000
0000
0000
0100
1000
0000
,
0002
0100
0010
0103
,
0001
1000
0010
0001
0010
1000
0200
0000
,
0301
0000
0100
0000
2000
0000
0000
0000
0001
0000
0000
0000
3001
0000
1000
0100
,
0010
0000
0001
0000
0100
0000
0010
0000
1000
0000
0100
0010
0001
0010
0100
0000
,
1000
0000
0000
0001
0000
0100
0000
1000
0000
0000
0100
0000
0010
1000
0010
0000
,
1000
0000
0000
0001
0000
0010
0000
1000
0000
0000
0010
0000
0001
1000
0100
0000
,
2000
0000
0000
0000
3010
0000
0000
1000
0000
0000
0001
0000
0100
0010
0100
0000
,
1000
0000
0100
0000
0010
1000
0000
1000
0001
0000
0010
0100
1000
0000
0100
0010
,
0001
0000
0000
1000
0000
0100
0000
0001
0000
0000
0100
0000
0010
0001
0010
0000
,
0001
0000
2000
0100
0000
0000
3002
0000
0000
0000
0103
0000
0001
1000
0001
0000
,
1000
0000
0002
0010
0000
0000
2003
0000
0000
0000
3010
0000
1000
0100
0010
0001
,
1000
0000
0010
0100
0001
0000
0100
0010
1000
0000
0100
0000
0100
0000
1000
0000
,
0001
0000
0000
1000
0000
0010
0000
0001
0000
0000
0010
0000
0100
0001
0100
0000
,
0001
0000
0000
1000
0000
0100
0000
0001
0000
0000
0100
0000
0010
0001
0010
0000
,
0002
0000
0000
0000
0103
0000
0000
0001
0000
0000
1000
0000
0010
0100
0010
0000
,
0001
0000
0010
0000
0100
0001
0000
0001
1000
0000
0100
0010
0001
0000
0010
0100
,
1000
0010
0100
0001
0010
2000
0000
0000
,
3001
0000
0100
0000
1000
0000
0010
0000
0002
0000
0000
0000
1003
0000
0001
0010
,
0100
0000
0001
0000
1000
0000
0100
0010
0001
0000
0100
0010
1000
0010
0100
0000
,
0001
0000
0000
0000
0000
0000
0000
0000
1001
0000
0000
0000
1000
0100
0000
0100
,
0010
0000
0001
0000
0100
0000
0000
0000
1001
0000
0000
0000
0001
0010
0000
0010
,
0100
0000
0001
0000
0100
0000
1000
0000
1001
0000
0000
0000
0001
0100
0000
0100
,
0010
1000
0100
0000
1001
0000
1000
0010
,
0001
0000
0000
0010
0000
0000
1000
0000
0100
0000
0010
0000
0002
0000
0000
0000
0000
0000
0103
0000
0000
0000
0000
0000
,
2001
0000
3100
0000
0021
0000
1030
0010
,
0200
0000
0000
0000
1300
0000
0000
0000
0011
0000
0000
0010
0001
0000
0000
0001
,
1000
0000
0000
1000
0010
0000
0100
0000
0001
0000
0000
0000
0201
0000
0000
0000
,
0320
2030
3200
0302
,
0203
0000
2300
0010
3002
0100
1003
0000
,
0001
0010
0100
0000
1000
0010
0100
0000
,
1000
0000
0100
0000
0001
0000
2000
0000
0000
0000
0000
0000
3001
0000
1000
0100
,
0010
0000
0001
0000
0100
0000
0010
0000
1000
0000
0100
0010
0002
0000
1003
0000
,
1001
0000
0001
0100
0000
0001
0100
0000
0010
0000
1000
0100
0000
1000
0100
0000
,
0001
0000
0100
0010
0000
0100
0010
0000
0001
0000
0100
0000
0010
0000
1000
0000
,
0100
0000
1000
0001
0000
1000
0001
0000
0100
0000
0010
1000
0000
0010
1000
0000
,
0100
0000
0010
0001
0000
0010
0001
0000
0100
0000
1000
0000
0100
0000
0001
0000
,
0020
0000
0000
0000
0130
0000
0000
0000
0010
0000
0001
1000
0000
0001
1000
0000
,
0010
0000
1000
0000
0001
0100
0010
0000
1000
0010
0200
0000
0000
0000
0000
0000
,
1300
0000
0100
0000
0001
0000
0010
0000
0100
0000
1000
0001
1000
0000
0001
0100
,
0010
0000
1000
0100
0010
0000
0001
0010
0100
0000
1000
0010
0100
0010
1000
0000
,
0001
0000
1000
0100
0000
1000
0100
0000
0010
0000
0100
0001
0000
0100
0001
0000
,
1000
0000
0010
0100
0000
0010
0100
0000
1000
0000
0001
0000
0010
0000
0001
0000
,
0100
0000
0010
1000
0000
0010
1000
0000
0001
0000
0100
1000
0000
0100
1000
0000
,
0001
0000
0010
0100
0000
0010
0100
0000
0001
0000
0010
0000
0100
0000
1000
0000
,
0020
0000
0000
0000
0130
0000
0000
0000
0010
0000
1000
0001
0000
1000
0001
0000
,
0010
0000
0001
0000
1000
0100
0010
0000
0001
0010
0200
0000
0000
0000
0000
0000
,
0301
0000
0100
0000
1000
0000
0000
0000
0001
0000
1000
0000
0010
0000
0100
0001
,
0200
0000
1000
0000
0000
0000
0000
0000
0301
0000
0100
0010
0100
0010
1000
0000
,
0100
0000
0000
0000
1000
0001
0010
0000
0001
0000
0100
0000
0010
0000
1000
0000
,
0000
0100
1000
0000
1000
0001
0000
0000
0000
0100
0001
0000
0010
0001
0010
0000
,
0001
0000
1000
0100
0000
0100
1000
0000
0010
0000
0100
0001
0000
0001
0100
0000
,
0010
0000
1000
0100
0000
0100
0010
0000
1000
0000
0001
0100
0000
0100
0010
0000
,
0002
0000
0000
0000
1003
0000
0000
0000
0001
0000
0010
0100
1000
0000
0001
0000
,
1000
0100
0010
0000
0001
0000
0100
0000
1000
0000
0100
0000
0010
0000
0000
0000
,
2010
0000
3001
1000
0100
0001
0100
0010
,
0001
0000
1000
0100
0010
0000
0001
0100
0010
0000
1000
0001
0010
0100
1000
0000
,
0020
0001
0000
1000
,
0000
0000
0130
0000
0010
1000
0100
0000
,
0120
0001
0000
1000
,
0000
0000
0000
0000
0130
0000
0000
0000
0010
0000
0001
0000
0100
0000
0001
1000
,
0001
0000
1000
0100
0000
0010
0001
0000
0100
0000
0010
1000
0000
0010
0001
0000
,
0010
0000
0100
0001
0000
1000
0010
0000
1000
0000
0200
0000
0000
0000
0000
0000
,
0301
0000
0100
0000
1000
0000
0001
0000
0100
0000
0010
1000
0000
1000
0001
0000
,
1001
0000
1000
0100
0010
0000
0001
0100
0010
0000
1000
0010
0100
0001
0010
0000
,
0200
0000
0000
0000
,
0300
0000
0000
0000
;

//--------------- dance-double - KAYSTAR ----------------
#NOTES:
     dance-double:
     KAYSTAR:
     Easy:
     8:
     0,0,0,0,0:
00000000
00000000
00000000
00000000
,
00000000
00000000
00000000
00000000
,
00000000
00000000
00000000
00000000
,
00000000
00000000
00000000
00000000
,
00000000
00000000
00000000
00000000
,
00010000
00000000
01000000
00000000
,
10000000
00000000
00100000
00100000
,
01000000
00000000
00010000
00010000
,
00100000
00000000
00001000
00000000
,
00022000
00000000
00033000
00000000
,
00001000
00000000
00000100
00000000
,
00000002
00000000
00000010
00000000
,
00002003
00000000
00000100
00000000
,
00003001
00000000
00001000
00000100
,
00000000
00010000
00002000
00000000
,
01000000
01003000
00000000
00020000
,
20000000
00000000
30030000
00000000
,
10000000
01000000
00010000
00000000
,
01000000
10000000
00100000
00000000
,
00020000
00002000
00000000
00033000
,
00001000
00000010
00000001
00000000
,
00001000
00000100
00010000
00000000
,
00001000
01000000
00010000
00000000
,
00100000
00100000
00001000
00010000
,
00000010
00000020
00000200
00000330
,
00000001
00000100
00001000
00000000
,
00000100
00000001
00000010
00000000
,
00002000
00020000
00000000
00033000
,
00010000
01000000
10000000
00000000
,
00010000
00100000
00002000
00000000
,
00010000
00010000
00013000
00000000
,
00001000
00000100
00000001
00000020
,
00000130
00000000
00001001
00000000
,
00000100
00010000
00011000
00000000
,
00001000
01000000
10010000
00000000
,
00100000
00001000
00011000
00000000
,
00010000
00000010
00002002
00003003
,
00000220
00000330
00001001
00000110
,
00002002
00003003
00010000
01000000
,
10000000
00200000
01300000
20020000
,
00030000
01000000
30010000
20020000
,
30000000
00000000
01030000
00000000
00001000
00010000
00022000
00000000
,
00033000
00001000
00000000
00000010
,
00000001
00000200
00000000
00000310
,
00001000
00000100
00020000
00030000
,
00010000
01000000
10000000
00000000
,
00100000
00010000
00002000
00003000
,
00001000
00000100
00000001
00000000
,
00000010
00001000
00020000
00030000
,
00010000
00022000
00000000
00033000
,
00001000
00000100
00000001
00000000
,
00001000
00000010
00010000
00001000
,
00100000
00010000
02000000
03000000
,
01000000
00100000
10000000
00000000
,
01000000
00010000
00002000
00003000
,
00001000
00000100
00000001
00000000
,
00000010
00001000
00020000
00030000
,
00010000
00022000
00000000
00033000
,
00010000
01000000
10000000
00000000
,
00100000
01000000
00010000
00100000
,
00002000
00000000
00010000
00013000
,
00011000
00000000
00001000
00000100
,
00000001
00000010
00000100
00020000
,
00001000
00000000
00000100
00000000
,
00032000
00000000
01000000
00000000
,
00010000
00003000
00000000
00000000
00000000
00000000
00000000
00000000
00000000
00000000
00000000
00000000
00000000
00000000
00000000
00000000
00000000
00000000
00000000
00000000
00000000
00000000
00000000
00000000
00000000
00000000
00000000
00000000
00000000
00000000
00000000
00000000
00000000
00000000
00000000
00000000
00000000
00000000
00000000
00000000
00000000
00000000
00000000
00000000
00000000
00000000
00000000
00000000
00022000
00000000
00000000
00000000
00000000
00000000
00000000
00000000
00000000
00000000
00000000
00000000
00000000
00000000
00000000
00000000
00000000
00000000
00000000
00000000
00000000
00000000
00000000
00000000
00000000
00000000
00000000
00000000
00000000
00000000
00000000
00000000
00000000
00000000
00000000
00000000
00000000
00000000
00000000
00000000
00000000
00000000
00000000
00000000
00000000
00000000
00000000
00000000
00000000
00000000
00000000
00000000
00000000
00000000
00000000
00000000
00000000
00000000
00000000
00000000
00000000
00000000
00000000
00000000
00000000
00000000
00000000
00000000
00000000
00000000
00000000
00000000
00000000
00000000
00000000
00000000
00000000
00000000
00000000
00000000
00000000
00000000
00000000
00000000
00000000
00000000
00000000
00000000
00000000
00000000
00000000
00000000
00000000
00000000
00000000
00000000
00033000
00000000
00000000
00000000
00000000
00000000
00000000
00000000
00000000
00000000
00000000
00000000
00000000
00000000
00000000
00000000
00000000
00000000
00000000
00000000
00000000
00000000
00000000
00000000
00000000
00000000
00000000
00000000
00000000
00000000
00000000
00000000
00000000
00000000
00000000
00000000
00000000
00000000
00000000
00000000
00000000
00000000
00000000
00000000
00000000
00000000
00000000
00000000
,
00010000
01000000
10000000
00000000
,
20020000
00000000
30030000
00000000
,
10000000
00100000
00010000
00002000
,
00020000
00000000
00000000
00000000
,
00000000
00033000
00001000
00000010
,
00000002
00000000
00000000
00000000
,
00001003
00000000
00000000
00000000
00000001
00001000
00000000
00000000
,
00000200
00000000
00020300
00000000
,
00032000
00000000
02003000
00000000
,
03100000
10000000
01000000
00100000
,
00002000
00000000
00000000
00000000
,
00020000
00000000
00000000
00000000
,
00033000
00000000
00000000
00000000
;

//--------------- dance-double - KAYSTAR ----------------
#NOTES:
     dance-double:
     KAYSTAR:
     Medium:
     11:
     0,0,0,0,0:
00000000
00000000
00000000
00000000
,
00000000
00000000
00000000
00000000
,
00000000
00000000
00000000
00000000
,
00000000
00000000
00000000
00000000
,
00000000
00000000
00000000
00000000
,
00010000
00010000
00001000
00001000
,
00010000
00000000
01000000
00000000
00100000
00001000
00010000
00000000
,
00001000
00000000
00000100
00000000
00000010
00010000
00001000
00000000
,
00010000
01000000
00100000
00001000
,
00020000
00000100
00000000
00001000
,
00032000
00000010
00000000
00000001
,
00003002
00001000
00000000
00000100
,
00000203
00001000
00000000
00010300
,
00002000
01000000
00000000
00010000
,
00023000
00100000
00000000
10000000
,
20030000
00010000
00000000
01000000
,
31000000
00000000
00000000
00000000
10000000
01000000
00100000
10000000
,
00010000
00000000
01010000
00000000
00010000
10000000
00100000
00000000
,
10000000
00000000
11000000
00000000
10000000
00010000
00100000
00000000
,
00002000
00000000
00013000
00000000
00001000
00000100
00000010
00000000
,
00001000
00000000
00001001
00000000
00000001
00000100
00000010
00001000
,
00000100
00000000
00001100
00000000
00001000
00000001
00000010
00000000
,
00000001
00000000
00000101
00000000
00000001
00001000
00000010
00000000
,
00010000
00001000
00100000
00000000
00001000
00010000
00000010
00000000
,
00001000
00000100
00010000
00001000
01000000
00000000
10010000
00000000
,
00001000
00000000
00110000
00000000
00010000
10000000
01000000
00000000
,
10000000
00000000
10100000
00000000
10000000
00010000
01000000
00000000
,
00002000
00000000
00013000
00000000
00001000
00000010
00000100
00000000
,
00001000
00000000
00001001
00000000
00000001
00000010
00000100
00001000
,
00000001
00000000
00000100
00000010
00001000
00000100
00020000
00000000
,
00031000
00000000
00011000
00000000
00010000
00100000
01000000
00000000
,
00010000
00000000
10000000
00100000
01000000
00010000
00100000
01000000
,
10000000
00000000
10010000
00000000
,
00100000
00001000
00010000
00000000
00011000
00000000
00000000
00000000
,
00000010
00001000
00000001
00001000
00001001
00000000
00000000
00000000
,
00000100
00010000
00001000
00000000
00011000
00000000
00000000
00000000
,
01000000
00010000
10000000
00000000
20010000
00000000
31000000
00000000
,
10020000
00000000
01030000
00000000
10010000
00000000
00001000
00010000
,
00000100
00000000
00002001
00003010
,
00001002
00000013
00001001
00002000
,
00000100
00000001
00000010
00023000
,
01000000
00000000
10000000
00000000
00100000
00130000
10010000
00000000
,
00000000
00101000
00000000
00010100
,
00000001
00000010
00000001
00002000
00000000
00000000
00003010
00000000
,
00010010
01001000
20020000
30030000
,
10000000
00100000
01000000
00000000
00001000
00100000
00010000
00000000
,
01000000
00001000
00010000
00000000
00000010
00001000
00000100
00000010
,
00000001
00000100
00000010
00000000
00010000
00000100
00001000
00000000
,
00000010
00010000
00001000
00000000
01000000
00010000
00100000
01000000
,
10000000
00000000
10010000
00000000
00010000
01000000
00100000
00000000
,
10000000
01000000
00100000
00010000
01000000
00002000
00000000
00000000
,
00013000
00000000
00000000
00001000
00010000
00000000
00000000
00010000
00000100
00000000
00000000
00000100
00001000
00000000
00000000
00000000
,
00000001
00000010
00000100
00001000
00000010
00000100
00001000
00010000
,
00000000
00000000
00011000
00000000
00010000
00000010
00001000
00000000
,
00000100
00010000
00001000
00000000
00100000
00010000
01000000
10000000
,
01000000
00010000
10000000
00000000
00100000
01000000
00010000
00000000
,
00100000
00001000
00010000
00000000
00000010
00001000
00000100
00000001
,
00000100
00000000
00001001
00000000
00001000
00000010
00000100
00000000
,
00000001
00000010
00000100
00001000
00000010
00020000
00000000
00000000
,
00031000
00000000
00011000
00000000
00010000
01000000
00100000
00020000
,
20000000
00000000
00000000
30030000
,
10010000
00000000
10000000
00100000
01000000
00010000
00100000
00000000
,
00001000
00010000
00000010
00000000
00001000
00000001
00000200
00000000
,
00001300
00000100
00000010
00000000
00001000
00000100
00010000
00000000
,
01000000
00100000
00010000
00000000
10000000
00100000
02000000
00000000
,
03010000
00000000
10010000
00000000
00001000
01000000
00000000
00100000
,
00010000
00000000
00001000
00010000
00000000
00000000
00011000
00000000
,
00001000
00010000
00000100
00000000
00001000
00000010
00000100
00000000
,
00000001
00000010
00000100
00001000
00000010
00010000
00001000
00010000
,
00000100
00000000
00000010
00001000
00000000
00010000
00001000
00000000
,
00000000
00000000
00011000
00000000
00000000
00010000
00100000
10000000
,
00020000
01000000
00000000
00100000
,
00032000
00000100
00000000
00003010
,
00001001
00000000
00010100
00000000
,
01001000
00000000
10010000
00000000
,
10000000
00000000
01000000
00000000
00010000
00000000
01000000
00000000
00100000
00000000
00000000
00001000
00010000
00000000
00000010
00000000
,
00002000
00000000
00003001
00000100
00000010
00001000
00000100
00000010
,
00000002
00000000
00000000
00000000
,
00000003
00000000
00000000
00000000
;

//--------------- dance-double - KAYSTAR ----------------
#NOTES:
     dance-double:
     KAYSTAR:
     Hard:
     14:
     0,0,0,0,0:
00000000
00000000
00000000
00000000
,
00000000
00000000
00000000
00000000
,
00000000
00000000
00000000
00000000
,
00000000
00000000
00000000
00000000
,
00000000
00000000
00000000
00000000
,
00000000
00000000
00010000
00000000
00000000
00000000
00000100
00010000
00000000
00010000
00000000
00000000
00001000
00000000
01000000
00000000
,
00010000
00000000
00000000
10000000
01000000
00000000
00000000
00000000
00010000
00000000
00001000
00000000
00100000
00000000
00001000
00010000
,
00001000
00000000
00000000
00010000
00000010
00000000
00000000
00000100
00001000
00000000
00010000
00000000
00000010
00000000
00000000
00000000
,
00001000
00000000
00000000
00000100
00010000
00000000
00000000
00000000
00001000
00000000
01000000
00000000
00100000
00000000
10000000
00000000
,
02000000
00010000
10000000
03010000
,
01000000
00000000
00000000
10000000
00000000
00000000
00100000
00000000
00000000
00000000
00010000
00000000
00000000
00011000
00000000
00000000
,
00001000
00000100
00000000
00000000
00000000
00000000
00000001
00000000
00000000
00000000
00000010
00000000
00000000
00000000
00000000
00000000
,
00001000
00000000
00000000
00000010
00000000
00000000
00000001
00000000
00000000
00000000
00000100
00000000
00000000
00000010
00001000
00000000
,
00000001
00000200
00001000
00000000
00000001
00000000
00001300
00000000
,
00000100
00000001
00000010
00000100
00001000
00000010
00020000
00000000
,
00031000
00000000
00011000
00000000
00010000
02000000
00000000
13000000
,
00100000
00000000
10000000
00000000
01000000
00000000
00100000
00000000
00010000
00000000
01000000
00000000
00001000
00010000
00001000
00000000
,
00010000
00000000
00000000
00000010
00000000
00001000
00000000
00000001
00000000
00000000
00000100
00000000
00000010
00001000
00000010
00000000
,
00010000
00000000
00000000
00001000
00000000
01000000
00000000
00010000
00000000
00000000
10000000
00000000
01000000
00100000
01000000
00000000
,
00020000
00000000
00000000
00000000
00031000
00000000
00000000
00010000
00000000
00000000
01000000
00000000
00100000
00010000
00100000
00000000
,
00001000
00000000
00010000
00000000
00000010
00001000
00000000
00001000
00000002
00000000
00000203
00000000
00002300
00000000
00003200
00000000
,
00000301
00000000
00000000
00001000
00000000
00000100
00000000
00000010
00000000
00000000
00000001
00000000
00001000
00000010
00001000
00000000
,
00000001
00000000
00000100
00001000
00000000
00000000
00010000
00000000
00000000
00000000
01000000
00000000
10000000
01000000
10000000
00000000
,
00000000
00000000
01000000
00010000
00000000
00000000
00001000
00000000
00000000
00000000
00000100
00000000
00000001
00000000
00001000
00000010
,
00001000
00000000
00000001
00000100
00000001
00000000
00001000
00000000
00000200
00000000
00020300
00000000
02030000
00000000
23000000
00000000
,
30010000
00000000
00000000
10000000
00000000
00100000
00000000
01000000
00000000
00000000
00001000
00000000
01000000
00010000
01000000
00000000
,
00001000
00000000
00000000
00010000
00000000
00000010
00000000
00001000
00000000
00000000
00000001
00000000
00000010
00000100
00000010
00000000
,
00002000
00000000
00000000
00000000
00013000
00000000
00000000
00001000
00000000
00000000
00000010
00000000
00000100
00001000
00000100
00000000
,
00010000
00000000
00001000
00000000
01000000
00010000
00000000
00010000
20000000
00000000
30200000
00000000
00320000
00000000
00230000
00000000
,
10300000
00000000
00000000
00000000
10000000
01000000
10000000
00000000
01000000
00100000
01000000
00000000
00020000
00000000
00000000
00000000
,
00031000
00000000
00010000
00000000
01000000
00000000
00100000
00000000
00002000
00000000
00000000
00000000
00013000
00000000
00001000
00000100
,
00001000
00000000
00000100
00000000
00000001
00000000
00000010
00000000
00000100
00000000
00001000
00000000
00000001
00000010
00000001
00000000
,
00000000
00000000
00000000
00000000
00000000
00000000
00000000
00000000
00001001
00000000
00000000
00000000
00001000
00000100
00000000
00000100
,
00010000
00000000
00001000
00000000
01000000
00000000
00000000
00000000
10010000
00000000
00000000
00000000
00010000
00100000
00000000
00100000
,
00001000
00000000
00010000
00000000
00000010
00000000
00000100
00000000
00000110
00000000
00000000
00000000
00000100
00001000
00000000
00001000
,
00010000
00000000
00001000
00000000
00100000
00000000
00000000
00000000
01100000
00000000
00000000
00000000
01000000
00010000
00000000
00010000
,
00001000
00000000
00000000
00010000
00000000
00000000
00000100
00000000
00001000
00000000
00000100
00000000
00020000
00000000
00000000
00000000
00000000
00000000
00031000
00000000
00000000
00000000
00000000
00000000
,
00012000
00000000
00003100
00000000
00021000
00000000
00130000
01000000
,
00020000
00000000
00000000
00000000
10030000
00000000
00000000
00000000
11000000
00000000
00000000
01000000
00010000
00000000
00000000
00010000
,
00001000
00000000
00000000
00001000
00000010
00000000
00000001
00000000
00001000
00000000
00000000
00000000
00000201
00000000
00000000
00000000
,
00002300
00023000
00030020
00002030
,
00003200
00000000
00020300
00000000
02030000
10000000
13000000
00000000
,
10000000
01000000
10000000
00000000
00010000
00000000
00100000
00000000
00001000
00000000
00000000
00000000
00010000
00000000
00000010
00000000
,
00001000
00000010
00001000
00000000
00000001
00000000
00000200
00000000
00000000
00000000
00000000
00000000
00001300
00000000
00000000
00000100
,
00001000
00000000
00000000
00001000
00010000
00000000
00000000
00010000
00100000
00000000
10000000
00000000
00010000
00000000
00000000
00000000
,
01000000
00000000
00100000
10000000
00000000
00100000
10000000
00000000
00010000
00000000
10000000
01000000
00000000
10000000
01000000
00000000
,
00100000
00000000
01000000
00010000
00000000
01000000
00010000
00000000
00001000
00000000
00100000
00000000
00001000
00000000
00010000
00000000
,
00000010
00000000
00000100
00000001
00000000
00000100
00000001
00000000
00001000
00000000
00000001
00000010
00000000
00000001
00000010
00000000
,
00000100
00000000
00000010
00001000
00000000
00000010
00001000
00000000
00010000
00000000
01000000
00000000
10000000
00000000
00100000
00000000
,
00020000
00000000
00000000
00000000
00031000
00000000
00000000
00000000
00010000
00000000
00100000
01000000
00000000
00100000
01000000
00000000
,
00010000
00000000
10000000
00100000
00000000
10000000
00100000
00000000
01000000
00000000
00010000
00000000
20000000
00000000
00000000
00000000
,
31000000
00000000
10000000
00000000
00010000
00000000
00100000
00000000
00001000
00000000
00010000
00000000
00000010
00000000
00001000
00000001
,
00001000
00000000
00000001
00000000
00000100
00000000
00001000
00000000
00010000
00000000
00001000
00000000
00000010
00000000
00000001
00001000
,
00000001
00000000
00000100
00000001
00000000
00000100
00000001
00000000
00001000
00000000
00000001
00000010
00000000
00000001
00000010
00000000
,
00000100
00000000
00000010
00001000
00000000
00000010
00001000
00000000
00010000
00000000
00000100
00000000
00010000
00000000
00001000
00000000
,
01000000
00000000
00100000
10000000
00000000
00100000
10000000
00000000
00010000
00000000
10000000
01000000
00000000
10000000
01000000
00000000
,
00100000
00000000
01000000
00010000
00000000
01000000
00010000
00000000
00001000
00000000
00000010
00000000
00000001
00000000
00000100
00000000
,
00002000
00000000
00000000
00000000
00013000
00000000
00000000
00000000
00001000
00000000
00000100
00000010
00000000
00000100
00000010
00000000
,
00001000
00000000
00000001
00000100
00000000
00000001
00000100
00000000
00000010
00000000
00001000
00000000
00000200
00000000
00000000
00000000
,
00000301
00000000
00000100
00000000
00001000
00000000
00000000
00000000
00000100
00000000
00010000
00000000
00001000
00000000
01000000
00010000
,
02000000
10000000
00000000
00000000
03010000
00100000
01000000
10000000
,
10010000
00000000
00000000
00000000
10000000
01000000
10000000
00000000
00010000
00000000
01000000
00000000
00001000
00000000
00010000
00000000
,
00000000
00000100
00001000
00000100
00000000
00000001
00000100
00000000
00000000
00001000
00000010
00000000
00000100
00000000
00001000
00000000
,
00010000
00000000
00000000
00000010
00000000
00000010
00010000
00000000
00001000
00000000
00000000
01000000
00000000
01000000
00001000
00000000
,
00010000
00000000
00000000
00001000
00000000
00001000
00100000
00000000
00010000
00000000
10000000
00000000
01000000
00000000
00010000
00000000
,
00002000
00000000
00003010
00001000
00010000
00000100
00001000
00000001
,
00000100
00000010
00000100
00000000
00000001
00000000
00001000
00000100
00001000
00000000
00000001
00000000
00000100
00000000
00001000
00000000
,
00020000
00000000
00130000
00010000
00001000
01000000
00010000
10000000
,
01000000
00000000
00100000
00000000
00010000
00000000
00001000
00000000
00000100
00000000
00000010
00000000
00000001
00000000
00000100
00001000
,
00020000
00001000
00000000
01000000
,
00000000
00000000
10030000
00000000
00010000
01000000
10000000
00000000
,
00012000
00010000
00000000
00000100
,
00000000
00000000
00000000
00000000
00003001
00000000
00000000
00000000
00001000
00000000
00000100
00000000
00000001
00000000
00001000
00000001
,
00001000
00000000
00000100
00000010
00000000
00000100
00001000
00000000
00000001
00000000
00000100
00000010
00000000
00000100
00001000
00000000
,
00010000
00000000
00001000
00100000
00000000
00010000
00100000
00000000
01000000
00000000
00020000
00000000
00000000
00000000
00000000
00000000
,
00031000
00000000
00010000
00000000
01000000
00000000
10000000
00010000
10000000
00000000
00100000
01000000
00000000
01000000
00001000
00000000
,
00012000
00000000
00013000
00001000
00000100
00000001
00000010
00002000
,
00020000
00000000
00000000
00000000
,
00033000
00000000
00000000
00000000
;
