#TITLE:pray nightly;
#SUBTITLE:;
#ARTIST:BEMANI Sound Team "猫叉Master";
#TITLETRANSLIT:;
#SUBTITLETRANSLIT:;
#ARTISTTRANSLIT:;
#GENRE:;
#CREDIT:;
#MUSIC:pray nightly.ogg;
#BANNER:;
#BACKGROUND:;
#CDTITLE:;
#SAMPLESTART:78.706;
#SAMPLELENGTH:11.647;
#SELECTABLE:YES;
#OFFSET:0.000;
#BPMS:0.000=170.000;
#STOPS:;
#BGCHANGES:;
#FGCHANGES:;

//--------------- dance-single - Pandemonium X ----------------
#NOTES:
     dance-single:
     Pandemonium X:
     Beginner:
     3:
     0,0,0,0,0:
0000
0000
0000
0000
,
0000
0000
0000
0000
,
0000
0000
0000
0000
,
0000
0000
0000
0000
,
0000
0000
0000
0000
,
0000
0000
0000
0000
,
0000
0010
0000
0000
,
0000
0000
0000
0000
,
0000
0000
0000
0000
,
0000
0000
0000
0000
,
0100
0000
0000
0000
0000
0000
0000
0001
,
0000
0000
0000
0000
,
1000
0000
0000
0000
0000
0000
0000
0100
,
0000
0000
0000
0000
,
0000
1000
0000
0000
,
0000
0000
0000
0000
,
0001
0000
0000
0000
0000
0000
0000
0100
,
0000
0000
0000
0000
,
0010
0000
0000
0000
,
1000
0000
0000
0000
,
0001
0000
0000
0000
,
0010
0000
0000
0000
,
0100
0000
0000
0000
,
0010
0000
0000
0000
,
0002
0000
0000
0003
0000
0000
0000
0000
,
1000
0000
0000
0000
,
0100
0000
0000
0000
,
1000
0000
0000
0000
,
0010
0000
0000
0000
,
0100
0000
0000
0000
,
0001
0000
0000
0000
,
0010
0000
0000
0000
,
0200
0000
0000
0300
0000
0000
0000
0000
,
1000
0000
0000
0000
,
0001
0000
0000
0000
,
1000
0000
0000
0000
,
0010
0000
0000
0000
,
0100
0000
0000
0000
,
0001
0000
0000
0000
,
0100
0000
0000
0000
,
0010
0000
0000
0000
,
1000
0000
0000
0000
,
0001
0000
0000
0000
0000
0000
0000
1000
,
0000
0000
0000
0000
,
0001
0000
0000
0000
0000
0000
0000
0100
,
0000
0000
0000
0000
,
0001
0000
0000
0000
,
1000
0000
0000
0000
,
0010
0000
0000
0000
,
0100
0000
0010
0000
,
0001
0000
0001
0000
,
0001
0000
0001
0000
,
1000
0000
1000
0000
,
1000
0000
1000
0000
,
0110
0000
0000
0000
,
0000
0000
0000
0000
,
0001
0000
0000
0000
,
0000
0000
0000
1000
,
0100
0000
0000
0000
,
0000
0000
0000
0010
,
0010
0000
0000
0000
,
0000
0000
0000
0001
,
0100
0000
0010
1001
,
0000
0000
0000
0000
,
0001
0000
0000
0000
,
0000
0000
0000
1000
,
0010
0000
0000
0000
,
0000
0000
0000
0100
,
0100
0000
0000
0000
,
0000
0000
0000
0010
,
1000
0000
0001
0110
,
0000
0000
0000
0000
,
1000
0000
0000
0000
,
0000
0000
0000
0000
,
0001
0000
0000
0000
,
0000
0000
0000
0000
,
0000
0010
0000
0000
,
0000
0000
0000
0000
,
0100
0000
0000
0000
0000
0000
0000
0010
,
0000
0000
0000
0001
0000
0000
0000
1000
;

//--------------- dance-single - Pandemonium X ----------------
#NOTES:
     dance-single:
     Pandemonium X:
     Easy:
     6:
     0,0,0,0,0:
0000
0000
0000
0000
,
0000
0000
0000
0000
,
0000
0000
0000
0000
,
0000
0000
0000
0000
,
0000
0000
0000
0000
,
0000
0000
0000
0000
,
0000
0000
0110
0000
0000
0000
0000
0001
,
0000
0000
0000
0001
0000
0000
0000
0000
,
1000
0000
0000
0000
0000
0000
0000
0001
,
0000
1000
0000
0001
0000
1000
0010
0000
,
0200
0000
0000
0000
0300
0000
0000
0010
,
0000
0000
0000
1000
0000
0000
0000
0000
,
0001
0000
0000
0000
0000
0000
0000
0010
,
0000
0100
0000
0010
0000
0000
0001
0000
,
0000
0000
1001
0000
0000
0000
0000
1000
,
0000
0000
0000
0001
0000
0000
0100
0000
,
0010
0000
0000
0000
0000
0000
0000
0100
,
0000
0010
0000
1000
0000
0001
0000
0000
,
1001
0000
0000
0000
,
0001
0000
0000
0001
0000
0000
0000
0000
,
1000
0000
0000
1000
0000
0000
0000
0000
,
0010
0000
0000
0010
0000
0000
0000
0000
,
0100
0000
0000
0100
0000
0000
0000
0000
,
0010
0000
0000
1000
0000
0000
0000
0000
,
0002
0000
0000
0013
0000
0000
0000
0000
,
0100
0000
0000
0100
0000
0000
0000
0000
,
0010
0000
0000
1001
0000
0000
0000
0000
,
0001
0000
0000
0001
0000
0000
0000
0000
,
1000
0000
0000
1000
0000
0000
0000
0000
,
0010
0000
0000
0010
0000
0000
0000
0000
,
0100
0000
0000
0100
0000
0000
0000
0000
,
0010
0000
0000
1000
0000
0000
0000
0000
,
0200
0000
0000
0310
0000
0000
0000
0000
,
0001
0000
0000
0010
0000
0000
0001
0000
,
1000
0000
0001
0000
,
0100
0000
1000
0000
,
0100
0000
0001
0000
,
1000
0000
0001
0000
,
0010
0000
1000
0000
,
0010
0000
0001
0000
,
0100
0000
1000
0000
,
0100
0000
0010
0000
,
1000
0000
0100
0000
0010
0000
0000
1001
,
0000
0001
0010
0100
,
1001
0000
0001
0000
0010
0000
0000
1001
,
0000
1000
0100
0010
,
0100
0100
1000
1000
,
0010
0010
0100
0100
,
0001
0001
1000
1000
,
0001
1000
0010
0100
,
0001
0020
0031
2000
,
3100
0020
0130
2000
,
3010
0200
0310
2000
,
3001
0200
0301
2000
,
0002
0000
0000
0000
,
3003
0000
0000
0000
,
0001
0000
0000
1000
0000
0100
0000
1000
,
0000
0010
0000
0100
0000
0000
0002
0000
,
0103
0000
0000
0001
0000
0010
0000
0100
,
0000
0010
0000
0001
0000
0000
0000
0000
,
1000
0000
0000
0001
0000
0100
0000
0001
,
0000
1000
0000
0100
0000
0000
0020
0000
,
0130
0000
1000
0001
1000
0000
0110
0000
,
0000
0000
0000
0000
,
0001
0000
0000
1000
0000
0010
0000
0100
,
0000
0010
0000
1000
0000
0000
0000
0000
,
1001
0000
0000
1000
0000
0001
0000
0010
,
0000
0100
0000
0010
0000
0000
0000
0000
,
1001
0000
0000
0001
0000
0100
0000
0010
,
0000
0100
0000
0001
0000
0000
1000
0000
,
0001
0000
0001
0010
0100
0000
2100
0000
,
0000
0000
0000
0001
0000
0000
0001
0000
,
3001
0000
0000
0000
0000
0000
0000
0100
,
0000
0000
0000
0010
0000
0000
0000
0000
,
1000
0000
0000
0000
0000
0000
0000
0001
,
0000
0010
0000
0001
0000
0000
0100
0000
,
0000
0000
1001
0000
0000
0000
0000
1000
,
0000
0000
0000
0100
0000
0000
0000
0000
,
1000
0000
0000
0000
0000
0000
0000
0001
,
0000
0100
0000
0010
0000
1000
0000
1001
;

//--------------- dance-single - Pandemonium X ----------------
#NOTES:
     dance-single:
     Pandemonium X:
     Medium:
     10:
     0,0,0,0,0:
0000
0000
0000
0000
,
0000
0000
0000
0000
,
0000
0000
0000
0000
,
0000
0000
0000
0000
,
0000
0000
0000
0000
,
0000
0000
0000
0000
,
0000
0000
0101
0000
0000
0000
0000
0001
,
0000
0000
0000
1000
0000
0000
0000
0000
,
0001
0000
0000
0000
0000
0000
0000
0010
,
0000
1000
0000
0010
0000
0001
0100
0000
,
0020
0000
0000
0000
0030
0000
0000
0100
,
0000
0000
0000
1000
0000
0000
0000
0000
,
0100
0000
0000
0000
0000
0000
0000
0001
,
0000
0100
0000
0010
0000
0000
1000
0000
,
0000
0000
1001
0000
0000
0000
0000
1000
,
0000
0000
0000
0100
0000
0000
0001
0000
,
0100
0000
0000
0000
0000
0000
0000
0010
,
0000
0001
0000
0010
0000
0100
0000
0000
,
0021
0000
0000
0000
,
0130
0000
0000
1001
0000
0000
0000
0000
,
0010
0000
0000
1001
0000
0000
0000
0000
,
0001
0000
0000
1100
0000
0000
0000
1000
,
0100
0000
0000
0011
0000
0000
0001
0100
,
0010
0000
0000
1001
0000
0000
0000
0000
,
0002
0000
0000
0013
0000
0000
0000
0100
,
1000
0000
0000
0001
0000
0100
0010
0100
,
0001
0010
0100
1000
0000
0000
0001
1000
,
2001
0000
0000
3010
0000
0000
0000
0000
,
1002
0000
0000
0013
0000
0000
0000
0000
,
2001
0000
0000
3100
0000
0000
0000
0000
,
1002
0000
0000
0103
0000
0000
0001
1000
,
0002
0000
0010
0013
0000
0000
0000
0000
,
0200
0000
0000
1300
0000
0000
0000
0100
,
0010
0000
0000
0010
0000
0001
0010
0100
,
1100
1000
1010
0010
,
0110
0100
0101
0001
,
0011
0010
0110
0100
,
1100
1000
1010
0010
,
1001
0001
0011
0010
,
0110
0100
1100
1000
,
1010
0010
0110
0100
,
0101
0000
0001
0000
0011
0000
0010
0100
,
1100
0000
0001
0000
0100
0000
0010
1000
,
0000
0100
0010
0000
0001
0010
0100
0000
,
0010
0000
0001
0000
0100
0000
0010
1000
,
0000
0100
0010
0001
2000
0000
3020
0000
,
0130
0011
0101
1001
,
1010
1000
1100
0110
,
0011
0110
1100
0110
,
0011
0001
1001
1000
,
1100
2000
3010
2000
,
3001
2000
3010
1000
,
1001
0002
0013
0002
,
1003
0002
0103
0002
,
2000
0000
0000
0000
,
3003
0000
0000
0000
0000
0000
1000
0100
,
0010
0000
0000
0100
0000
1000
0000
0010
,
0000
0100
0001
0010
0000
0000
0200
0000
,
1300
0000
0001
1000
0000
0010
0000
0001
,
0000
0010
0000
0200
0000
0001
0302
0000
,
1003
0000
0100
1000
0000
0010
0000
0001
,
0000
0010
0100
0001
0000
0000
1000
0000
,
1001
0000
0001
0010
0100
0000
0012
0000
,
0000
0100
0000
0203
0000
0000
0310
0000
,
1001
1000
0001
0010
0000
1000
0000
0010
,
0000
0001
0010
0100
0000
0000
0020
0000
,
0031
0000
0100
0001
0000
1000
0000
0010
,
0000
0001
0000
0020
0000
0100
0130
0000
,
0010
1000
0001
0010
0000
1000
0000
0010
,
0000
0100
0010
0001
0000
0000
2000
0000
,
3001
0000
0001
1000
0010
0000
0201
0000
,
0000
0000
0000
0010
0000
0000
0310
0000
,
1001
0000
0000
0000
0000
0000
0000
0001
,
0000
0000
0000
1000
0000
0000
0000
0000
,
0001
0000
0000
0000
0000
0000
0000
0010
,
0000
0100
0000
0010
0000
0000
0001
0000
,
0000
0000
1100
0000
0000
0000
0000
0100
,
0000
0000
0000
0001
0000
0000
0000
0000
,
0100
0000
0000
0000
0000
0000
0000
1000
,
0000
0100
0000
0010
0000
0001
0000
1001
;

//--------------- dance-single - Pandemonium X ----------------
#NOTES:
     dance-single:
     Pandemonium X:
     Hard:
     13:
     0,0,0,0,0:
0000
0000
0000
0000
,
0000
0000
0000
0000
,
0000
0000
0000
0000
,
0000
0000
0000
0000
,
0000
0000
0000
0000
,
0000
0000
0000
0000
,
0000
0000
0000
0000
,
0000
0000
0000
0000
,
0000
0000
0000
0000
,
0000
0000
0000
0000
,
0002
0000
0000
0003
0000
0000
0000
2000
,
0000
3000
0000
0200
0000
0300
0000
0000
,
0002
0000
0000
0003
0000
0000
0000
0200
,
0000
0320
0000
0032
0000
0003
2000
0000
,
3000
0000
0012
0000
0000
0003
0000
2000
,
0000
3000
0000
0002
0000
0003
0020
0000
,
0032
0000
0000
0000
0003
0000
0000
0020
,
0000
2030
0000
3020
0000
0230
0000
0000
,
2300
0000
0000
0000
0000
0002
0000
0000
0000
0000
0000
0000
0000
0000
0000
0000
0000
0000
0000
0000
0000
0000
0000
0000
0000
0000
0000
0000
0000
0000
0000
0000
0000
0000
0000
0000
3003
0000
0000
0000
0000
0000
0000
0000
0000
0000
0000
0000
0000
0000
0000
0000
0000
0000
0000
0000
0000
0000
0000
0000
0000
0000
0000
0000
0000
0000
0000
0000
0000
0000
0000
0000
0000
0000
0000
0000
0000
0000
0000
0000
0000
0000
0000
0000
0000
0000
0000
0000
0000
0000
0000
0000
0000
0000
0000
0000
,
2100
0000
0000
3001
0000
1000
0001
0000
,
0102
0000
0000
1003
0000
0001
1000
0000
,
0201
0000
0000
0000
0000
0000
0310
0000
0000
0000
1000
0000
0001
0000
0010
0100
,
1000
0010
0100
0001
0000
0000
0001
1000
,
0020
0000
0000
0000
0100
0000
0130
0000
0000
0000
0000
0000
0000
0000
0010
0100
,
0001
0000
0000
0000
0010
0000
0000
0000
0100
0000
0000
0000
1000
0000
0000
0000
0000
0000
1001
0000
0000
0000
0000
0000
0000
0000
0000
0000
0000
0000
0000
0000
0000
0000
0000
0000
0000
0000
0000
0000
0000
0000
0001
0000
0000
0010
0000
0000
,
0001
0000
0000
1000
0000
0001
0010
0100
,
1000
0010
0100
1001
0000
0000
0000
0000
,
1010
0000
0010
0110
0000
1000
0001
0000
,
0011
0000
0010
0110
0000
1000
0001
0000
,
1100
0000
0000
0000
0010
0000
1010
0000
0000
0000
1000
0000
0001
0000
1000
0001
,
0100
0001
0010
0110
0000
0000
0010
0001
,
1000
0000
0010
0000
1000
0000
1001
0000
0000
0000
0000
0000
0000
0000
1000
0100
,
0010
0000
0000
0000
0100
0000
0000
0000
1000
0000
0000
0000
0001
0000
0000
0000
0000
0000
1001
0000
0000
0000
0000
0000
0000
0000
0000
0000
0000
0000
0000
0000
0000
0000
0000
0000
0000
0000
0000
0000
0000
0000
0001
0000
0000
0100
0000
0000
,
0010
0000
0000
0110
0000
0010
0100
0001
,
1002
0000
0103
0000
0020
1000
1030
0000
,
2100
3001
0201
0310
,
1020
0000
0130
0000
2000
0100
3100
0000
,
0012
1003
2100
3001
,
0102
0000
0013
0000
0200
1000
1300
0000
,
0021
0130
2100
3001
,
0201
0000
0310
0000
2000
0001
3001
0000
,
2100
0000
3010
0000
0201
0000
0310
0100
,
0001
0001
0100
1000
0100
0010
1000
1001
,
0000
0001
0001
0010
1000
0010
0001
0000
,
0011
0010
1000
0010
0001
0010
0100
1001
,
0000
0000
0001
0000
0001
0000
1000
0000
0100
0010
0100
0010
0001
1000
0001
1000
,
0001
0000
0000
0001
0010
0000
0000
0010
0100
0000
0000
0100
1000
0000
0000
1000
,
0010
0000
0000
0000
0100
0000
0000
0001
0010
0000
0000
0100
1000
0000
0000
1000
,
0001
0000
0000
0001
0010
0000
0000
0010
0100
0000
0000
0100
1000
0000
0000
1000
,
0010
0000
0000
0000
1000
0000
0000
0001
1000
0000
0000
0000
0001
0000
0000
1000
,
0001
0000
0000
1000
1000
0100
0010
0000
0010
0100
0100
0010
,
0001
0000
0001
0010
0010
0001
0100
0000
0100
0010
0010
0100
,
0001
0000
0001
0100
0100
0010
1000
0000
1000
0001
0001
0010
,
0100
0000
0100
0010
0010
0001
1000
0000
1000
0001
0001
0100
,
0020
0000
0000
0000
,
0030
0000
0000
0000
0000
0000
0000
0000
0000
0000
0000
0000
1000
0100
0010
0001
,
1000
0010
0100
0001
0000
1100
0000
0011
,
0000
0000
0001
0000
1000
0000
0200
0000
0000
0000
0000
0000
1300
0100
0010
0001
,
1000
0100
0010
0100
0000
1100
0000
1010
,
0000
0101
0000
1001
0000
0001
0020
0000
,
0130
0010
0001
1000
0000
1010
0000
1001
,
0000
0000
0001
0000
1000
0000
0001
0000
0000
0000
0000
0000
1000
0100
0010
0001
,
1000
0000
0001
0010
0100
0000
2001
0000
,
0000
0000
3001
0000
0000
0000
1002
0000
0000
0000
0000
0000
1003
0100
0010
0001
,
1000
0100
0010
0100
0000
1100
0000
1001
,
0000
0000
0001
0000
1000
0000
0100
0000
0000
0000
0000
0000
1000
0100
0010
0001
,
1000
0010
0100
0001
0000
0110
0000
1001
,
0000
1100
0000
1020
0000
0100
0230
0000
,
0301
0100
0010
0100
0000
0110
0000
1001
,
0000
0000
0001
0000
0100
0000
0001
0000
0000
0000
0000
0000
1000
0100
0010
0001
,
1000
0000
0001
0010
0100
0000
1002
0000
,
0000
0000
0000
0100
0000
0000
1003
0000
,
0102
0000
0000
0000
0003
0000
0000
2000
,
0000
0000
3000
0002
0000
0000
0003
0000
,
0020
0000
0000
0000
0030
0000
0000
2000
,
0000
3020
0000
0032
0000
0000
0200
0000
,
0303
0000
2001
0000
0000
0000
3000
0002
,
0000
0000
0003
0200
0000
0000
0300
0000
,
2000
0000
0000
0000
3000
0000
0000
0200
,
0000
0302
0000
0023
0000
0230
0000
0020
,
0000
0000
0000
0000
,
0000
0000
0000
0000
,
0000
0000
0000
0330
;
