#VERSION:0.83;
#TITLE:Yuurei Tokyo;
#SUBTITLE:;
#ARTIST:Ayase feat. Hatsune Miku;
#TITLETRANSLIT:;
#SUBTITLETRANSLIT:;
#ARTISTTRANSLIT:;
#GENRE:J-MUSIC;
#ORIGIN:;
#CREDIT:MUINELIM;
#BANNER:Yuurei Tokyo.png;
#BACKGROUND:Yuurei Tokyo-bg.png;
#PREVIEWVID:;
#JACKET:Yuurei Tokyo-jacket.png;
#CDIMAGE:;
#DISCIMAGE:;
#LYRICSPATH:;
#CDTITLE:;
#MUSIC:Yuurei Tokyo.ogg;
#OFFSET:0.362000;
#SAMPLESTART:71.984718;
#SAMPLELENGTH:14.758064;
#SELECTABLE:YES;
#DISPLAYBPM:124.000000;
#BPMS:0.000=124.000;
#STOPS:;
#DELAYS:;
#WARPS:;
#TIMESIGNATURES:0.000=4=4;
#TICKCOUNTS:0.000=4;
#COMBOS:0.000=1;
#SPEEDS:0.000=1.000=0.000=0;
#SCROLLS:0.000=1.000;
#FAKES:;
#LABELS:0.000=Song Start;
#BGCHANGES:;
#KEYSOUNDS:;
#ATTACKS:
;

//---------------dance-single - ----------------
#NOTEDATA:;
#CHARTNAME:;
#STEPSTYPE:dance-single;
#DESCRIPTION:;
#CHARTSTYLE:;
#DIFFICULTY:Beginner;
#METER:3;
#RADARVALUES:0.113119,0.153946,0.007688,0.007688,0.000000,103.000000,102.000000,1.000000,1.000000,0.000000,0.000000,0.000000,0.000000,0.000000,0.113119,0.153946,0.007688,0.007688,0.000000,103.000000,102.000000,1.000000,1.000000,0.000000,0.000000,0.000000,0.000000,0.000000;
#CREDIT:MUINELIM;
#DISPLAYBPM:124.000000;
#NOTES:
// measure 0
0000
0000
0000
0000
,  // measure 1
0000
0000
0000
0000
,  // measure 2
0000
0000
0000
0000
,  // measure 3
0000
0000
0000
0000
,  // measure 4
0000
0000
0000
0000
,  // measure 5
1000
0000
1000
0000
,  // measure 6
1000
0000
1000
0000
,  // measure 7
0001
0000
0001
0000
,  // measure 8
0001
0000
0001
0000
,  // measure 9
1000
0000
0000
0000
,  // measure 10
0100
0000
0000
0000
,  // measure 11
0010
0000
0000
0000
,  // measure 12
0001
0000
0000
0000
,  // measure 13
0100
0000
0100
0000
,  // measure 14
0010
0000
0010
0000
,  // measure 15
0100
0000
0010
0000
,  // measure 16
0100
0000
0100
0000
,  // measure 17
0001
0000
0001
0000
,  // measure 18
0001
0000
0001
0000
,  // measure 19
1000
0000
1000
0000
,  // measure 20
1000
0000
1000
0000
,  // measure 21
0001
0000
0000
0000
,  // measure 22
0100
0000
0000
0000
,  // measure 23
0010
0000
0000
0000
,  // measure 24
1000
0000
0000
0000
,  // measure 25
0100
0000
0100
0000
,  // measure 26
0010
0000
0010
0000
,  // measure 27
0100
0000
0010
0000
,  // measure 28
0100
0000
0100
0000
,  // measure 29
1000
0000
0000
0000
,  // measure 30
0001
0000
0000
0000
,  // measure 31
0010
0000
0100
0000
,  // measure 32
0010
0000
0100
0000
,  // measure 33
1000
0000
0000
0000
,  // measure 34
0001
0000
0000
0000
,  // measure 35
0100
0000
0010
0000
,  // measure 36
0100
0000
0010
0010
,  // measure 37
0000
0000
0000
0000
,  // measure 38
1000
0000
1000
0000
,  // measure 39
0010
0000
0010
0000
,  // measure 40
0100
0000
0100
0000
,  // measure 41
0001
0000
0001
0000
,  // measure 42
1000
0000
0010
0000
,  // measure 43
0100
0000
0001
0000
,  // measure 44
1000
0000
0010
0000
,  // measure 45
0100
0000
0001
0000
,  // measure 46
1000
0000
0001
0000
,  // measure 47
1001
0000
0000
0000
,  // measure 48
0000
0000
0000
0000
,  // measure 49
1000
0000
0000
0000
,  // measure 50
0001
0000
0001
0000
,  // measure 51
0001
0000
0000
0000
,  // measure 52
0100
0000
0000
0000
,  // measure 53
1000
0000
0000
0000
,  // measure 54
0010
0000
0000
0000
,  // measure 55
0001
0000
0001
0000
,  // measure 56
0010
0000
0010
0000
,  // measure 57
0100
0000
0100
0000
,  // measure 58
1000
0000
1000
0000
,  // measure 59
0001
0000
0010
0000
,  // measure 60
0100
0000
1000
0000
,  // measure 61
0001
0000
0010
0000
,  // measure 62
0100
0000
1000
0000
,  // measure 63
0010
0000
0010
0010
,  // measure 64
0020
0000
0000
0000
,  // measure 65
0030
0000
0000
0000
,  // measure 66
0100
0000
0100
0100
;

//---------------dance-single - ----------------
#NOTEDATA:;
#CHARTNAME:;
#STEPSTYPE:dance-single;
#DESCRIPTION:;
#CHARTSTYLE:;
#DIFFICULTY:Easy;
#METER:5;
#RADARVALUES:0.191094,0.257057,0.076877,0.076877,0.000000,174.000000,164.000000,10.000000,10.000000,0.000000,0.000000,0.000000,0.000000,0.000000,0.191094,0.257057,0.076877,0.076877,0.000000,174.000000,164.000000,10.000000,10.000000,0.000000,0.000000,0.000000,0.000000,0.000000;
#CREDIT:MUINELIM;
#DISPLAYBPM:124.000000;
#NOTES:
0000
0000
0000
0000
,
0000
0000
0000
0000
,
0000
0000
0000
0000
,
0000
0000
0000
0000
,
0000
0000
0000
0000
,
1000
0000
0001
0000
,
1000
0000
0001
0000
,
0100
0000
0010
0000
,
0100
0000
0010
0000
,
1000
1000
1000
0000
,
0001
0010
0001
0100
,
0010
0010
0010
0000
,
1000
0001
1000
0100
,
0010
0001
0100
0000
,
0010
1000
0100
0000
,
0010
0000
0100
0000
,
0020
0030
0001
1000
,
0001
0000
1000
0000
,
0001
0000
1000
0000
,
0100
0000
0010
0000
,
0100
0000
0010
0000
,
0001
0001
0001
0000
,
1000
0010
1000
0100
,
0010
0010
0010
0000
,
0001
1000
0001
0100
,
0010
1000
0100
0000
,
0010
0001
0100
0000
,
0010
0000
0100
0000
,
0020
0030
1000
0001
,
1001
0000
0000
0000
,
1001
0000
0000
0000
,
1001
0000
1001
0000
,
1000
0001
0100
0010
,
0110
0000
0000
0100
,
0110
0000
0000
0010
,
0110
0000
1000
0001
,
1000
0100
0010
0001
,
2002
0000
3003
0000
,
1000
0000
0010
0000
,
0001
0000
0100
0000
,
1000
0000
0010
0000
,
0001
0000
0100
0000
,
1000
0010
0200
0300
,
0001
0010
0100
0100
,
0000
1000
0001
1000
,
0010
0100
0001
1000
,
0010
0100
0002
0003
,
1001
0000
0000
0000
,
0000
0000
0000
0000
,
2000
3000
0000
0001
,
1000
0001
1000
0100
,
0010
0000
0010
0000
,
0100
0000
0100
0000
,
0010
0000
0100
0000
,
0010
0100
0010
1000
,
0001
0000
0010
0000
,
1000
0000
0100
0000
,
0001
0000
0010
0000
,
1000
0000
0100
0000
,
0001
0010
0200
0300
,
1000
0010
0100
0100
,
0000
0001
1000
0001
,
0010
0100
1000
0001
,
0010
0100
2000
3000
,
1001
0000
0001
1000
,
0010
0001
0100
2000
,
3000
0000
0010
0000
0100
0000
0010
0010
;

//---------------dance-double - ----------------
#NOTEDATA:;
#CHARTNAME:;
#STEPSTYPE:dance-double;
#DESCRIPTION:;
#CHARTSTYLE:;
#DIFFICULTY:Easy;
#METER:5;
#RADARVALUES:0.187799,0.257057,0.076877,0.061502,0.000000,171.000000,161.000000,10.000000,8.000000,0.000000,0.000000,0.000000,0.000000,0.000000,0.187799,0.257057,0.076877,0.061502,0.000000,171.000000,161.000000,10.000000,8.000000,0.000000,0.000000,0.000000,0.000000,0.000000;
#CREDIT:MUINELIM;
#DISPLAYBPM:124.000000;
#NOTES:
00000000
00000000
00000000
00000000
,
00000000
00000000
00000000
00000000
,
00000000
00000000
00000000
00000000
,
00000000
00000000
00000000
00000000
,
00000000
00000000
00000000
00000000
,
01000000
00000000
00001000
00000000
,
01000000
00000000
00001000
00000000
,
00010000
00000000
00000010
00000000
,
00010000
00000000
00000010
00000000
,
00001000
00001000
00001000
00000000
,
00000001
00000001
00000001
00000100
,
00001000
00010000
00001000
00000000
,
00010000
00001000
00010000
00100000
,
10000000
10000000
10000000
00000000
,
00010000
00010000
00010000
00000000
,
01000000
00000000
00001000
00000000
,
00010000
00000000
00000010
00001000
,
00000100
00000000
00010000
00000000
,
00000100
00000000
00010000
00000000
,
00001000
00000000
00100000
00000000
,
00001000
00000000
00100000
00000000
,
00010000
00010000
00010000
00000000
,
10000000
10000000
10000000
01000000
,
00010000
00001000
00010000
00000000
,
00001000
00010000
00001000
00000010
,
00000001
00000001
00000001
00000000
,
00001000
00001000
00001000
00000000
,
00000100
00000000
00010000
00000000
,
00001000
00000000
00100000
00010000
,
10010000
00000000
00000000
00000000
,
01100000
00000000
00000000
00000000
,
10010000
00000000
01100000
00000000
,
00100000
00010000
00001000
00000100
,
00000001
00000010
00000100
00000000
,
00000010
00001000
00010000
00000000
,
00011000
00000000
00001000
00010000
,
01000000
00100000
01000000
10000000
,
20020000
00000000
30030000
00000000
,
00010000
00000000
00100000
00000000
,
00001000
00000000
00000010
00000000
,
00010000
00000000
00100000
00000000
,
00001000
00000000
00000010
00000000
,
00010000
00100000
02000000
03000000
,
10000000
00100000
00010000
00001000
,
00000000
00010000
00001000
00000100
,
00000001
00000000
00000010
00000000
,
00001000
00010000
00002000
00003000
,
00011000
00000000
00000000
00000000
,
00000000
00000000
00000000
00000000
,
02000000
03000000
00000000
01000000
,
00001000
00010000
00000010
00001000
,
00000100
00000000
00000010
00000000
,
00001000
00000000
00010000
00000000
,
01000000
00000000
00100000
00000000
,
00001000
00010000
00000100
00001001
,
00001000
00000000
00000010
00000000
,
00010000
00000000
00100000
00000000
,
00001000
00000000
00000010
00000000
,
00010000
00000000
00100000
00000000
,
00001000
00000010
00000200
00000300
,
00000001
00000010
00001000
00010000
,
00000000
00001000
00010000
01000000
,
10000000
00000000
00100000
00000000
,
00010000
00001000
00020000
00030000
,
00011000
00000000
00011000
00000000
,
00001000
00000100
00000001
00000020
,
00000030
00000000
00001000
00000000
00010000
00000000
00001000
00001000
;

//---------------dance-single - ----------------
#NOTEDATA:;
#CHARTNAME:;
#STEPSTYPE:dance-single;
#DESCRIPTION:;
#CHARTSTYLE:;
#DIFFICULTY:Medium;
#METER:7;
#RADARVALUES:0.322883,0.385586,0.192192,0.161442,0.000000,294.000000,269.000000,25.000000,21.000000,0.000000,0.000000,0.000000,0.000000,0.000000,0.322883,0.385586,0.192192,0.161442,0.000000,294.000000,269.000000,25.000000,21.000000,0.000000,0.000000,0.000000,0.000000,0.000000;
#CREDIT:MUINELIM;
#DISPLAYBPM:124.000000;
#NOTES:
0000
0000
0000
0000
,
0000
0000
0000
0000
,
0000
0000
0000
0000
,
0000
0000
0000
0000
,
0000
0000
0000
0000
,
1000
0100
1000
0001
,
0010
0001
1000
1001
,
0001
0100
0001
1000
,
0010
1000
0001
1001
,
1000
0000
1000
0000
1000
0000
0010
1000
,
0010
0100
0010
0100
,
0001
0000
0001
0000
0001
0000
0100
0001
,
0100
0010
0100
0010
,
1000
0100
1000
0100
1000
0000
0000
0000
,
0001
0010
0001
0010
0001
0000
0000
0000
,
1001
0100
1001
0010
,
1001
0000
0100
0010
0100
0000
0010
0000
,
0001
0100
0001
1000
,
0010
1000
0001
1001
,
1000
0100
1000
0001
,
0010
0001
1000
1001
,
0001
0000
0001
0000
0001
0000
0100
0001
,
0010
0100
0010
0100
,
1000
0000
1000
0000
1000
0000
0010
1000
,
0100
0010
0100
0010
,
0001
0100
0001
0100
0002
0000
1003
0000
,
1000
0010
1000
0010
2000
0000
3001
0000
,
0201
0310
1020
0130
,
2002
0000
3003
0000
1000
0100
0010
0001
,
0100
0100
0200
0300
,
0010
0010
0020
0030
,
1010
0100
0101
0010
,
1010
0000
0100
0000
0001
1000
0001
0000
,
0100
0001
0020
0130
,
0100
1000
0020
0130
,
0100
0000
0001
0000
1000
0010
1000
0010
,
0000
0100
0000
0001
0010
0100
1000
0000
,
2002
0000
0000
3003
,
0001
0100
1000
0100
,
0001
0010
1000
0010
,
0001
0100
1000
0100
,
0001
0010
1000
0010
,
0001
0101
1000
1100
,
0001
0010
0001
0010
0000
0100
1000
0100
,
0000
1000
0010
0000
0100
0000
0001
0000
,
1000
1100
0001
0101
,
1000
0100
1000
0100
0010
0010
0000
0000
,
0002
0100
0000
0103
,
2000
0010
0000
3010
,
0002
0010
0000
0013
,
2000
0100
0000
3100
,
0001
0010
0200
0300
,
1000
0100
0020
0030
,
0001
0100
1000
0010
,
0001
1000
0001
2000
0002
0000
3003
0000
,
1000
0100
0001
0100
,
1000
0010
0001
0010
,
1000
0100
0001
0100
,
1000
0010
0001
0010
,
1000
1100
0001
0101
,
1000
0010
1000
0010
0000
0100
0001
0100
,
0000
0001
0010
0000
0100
0000
1000
0000
,
0001
0101
1000
1100
,
0001
0100
0001
0100
0010
0010
0000
0000
,
1001
0100
0010
0100
,
0001
0010
0001
1000
0100
1000
0010
0020
,
0000
0130
0100
0000
0001
0000
1001
1001
;

//---------------dance-double - ----------------
#NOTEDATA:;
#CHARTNAME:;
#STEPSTYPE:dance-double;
#DESCRIPTION:;
#CHARTSTYLE:;
#DIFFICULTY:Medium;
#METER:8;
#RADARVALUES:0.318490,0.385586,0.207568,0.099940,0.000000,290.000000,263.000000,27.000000,13.000000,0.000000,0.000000,0.000000,0.000000,0.000000,0.318490,0.385586,0.207568,0.099940,0.000000,290.000000,263.000000,27.000000,13.000000,0.000000,0.000000,0.000000,0.000000,0.000000;
#CREDIT:MUINELIM;
#DISPLAYBPM:124.000000;
#NOTES:
00000000
00000000
00000000
00000000
,
00000000
00000000
00000000
00000000
,
00000000
00000000
00000000
00000000
,
00000000
00000000
00000000
00000000
,
00000000
00000000
00000000
00000000
,
00001000
01000000
00001000
00010000
,
00000010
00010000
00001000
00011000
,
00010000
00000100
00010000
00001000
,
00100000
00001000
00010000
00011000
,
00000100
00000100
00000100
00000010
,
00000001
00000100
00001000
00010000
,
00100000
00100000
00100000
10000000
,
01000000
00010000
00001000
00000010
,
00000001
00000100
00000001
00000100
00000001
00000000
00000000
00000000
,
00001000
00000010
00001000
00000010
00001000
00000000
00000000
00000000
,
00001001
00000100
00011000
01000000
,
10010000
00000000
00100000
01000000
00100000
00000000
01000000
00000000
,
00010000
00000100
00010000
00001000
,
00100000
00001000
00010000
00011000
,
00001000
01000000
00001000
00010000
,
00000010
00010000
00001000
00011000
,
01000000
01000000
01000000
00100000
,
10000000
01000000
00010000
00001000
,
00000010
00000010
00000010
00000001
,
00000100
00001000
00010000
00100000
,
10000000
01000000
10000000
01000000
10000000
00000000
00000000
00000000
,
00010000
00100000
00010000
00100000
00010000
00000000
00000000
00000000
,
10010000
01000000
00011000
00000100
,
00001001
00000000
00000010
00000100
00000010
00000000
00001000
00000000
,
00000001
00000100
00002000
00003000
,
00010000
00100000
20000000
30000000
,
10100000
00100000
01100000
01000000
,
01010000
00000000
00010000
00000000
00100000
00001000
00100000
00000000
,
00010000
01000000
00001000
00011000
,
00010000
00000010
00001000
00001001
,
00000001
00000000
00000100
00000000
00000010
00001000
00000010
00010000
,
00000000
00001000
00000000
01000000
00010000
01000000
00100000
00000000
,
02200000
00000000
00000000
03300000
,
10000000
01000000
00010000
00001000
,
00010000
00100000
10000000
01000000
,
00010000
01000000
10000000
00100000
,
00010000
00001000
00010000
01000000
,
10000000
10100000
00010000
01010000
,
01000000
00001000
00010000
00000100
00000000
00001000
00000100
00000010
,
00000000
00000010
00000001
00000000
00000100
00000000
00001000
00000000
,
00010000
00010010
00001000
00101000
,
00100000
00010000
01000000
00100000
10000000
01000000
00000000
00000000
,
00020000
00001000
00000000
00030010
,
00002000
00010000
00000000
00103000
,
00020000
00001000
00000000
00030100
,
00002000
00010000
00000000
01003000
,
00010000
00001000
00000200
00000300
,
00001000
00010000
00200000
00300000
,
10000000
01000000
00010000
00001000
,
00000010
00000100
00000010
00000200
00000020
00000000
00000330
00000000
,
00000001
00000100
00001000
00010000
,
00001000
00000010
00000001
00000100
,
00001000
00000100
00000001
00000010
,
00001000
00010000
00001000
00000100
,
00000001
00000011
00001000
00001100
,
00000100
00010000
00001000
01000000
00000000
00010000
01000000
00100000
,
00000000
00100000
10000000
00000000
01000000
00000000
00010000
00000000
,
00001000
00101000
00010000
00010010
,
00000010
00001000
00000100
00000010
00000001
00000100
00000000
00000000
,
00011000
00010000
01000000
10000000
,
00100000
01000000
00100000
01000000
00001000
00010000
00001000
00020000
,
00000000
00030100
00000100
00000000
00000010
00000000
00001001
00001001
;

//---------------dance-single - ----------------
#NOTEDATA:;
#CHARTNAME:;
#STEPSTYPE:dance-single;
#DESCRIPTION:;
#CHARTSTYLE:;
#DIFFICULTY:Hard;
#METER:11;
#RADARVALUES:0.433806,0.462703,0.284445,0.176817,0.061502,395.000000,358.000000,37.000000,23.000000,0.000000,0.000000,0.000000,0.000000,0.000000,0.433806,0.462703,0.284445,0.176817,0.061502,395.000000,358.000000,37.000000,23.000000,0.000000,0.000000,0.000000,0.000000,0.000000;
#CREDIT:MUINELIM;
#DISPLAYBPM:124.000000;
#NOTES:
0000
0000
0000
0000
,
0000
0000
0000
0000
,
0000
0000
0000
0000
,
0000
0000
0000
0000
,
0000
0000
0000
0000
,
1001
1000
0010
0100
,
0001
0000
0010
0000
0100
0010
0100
0000
,
1001
0001
0100
0010
,
1000
0000
0100
0000
0010
0100
0010
0000
,
1001
0000
0011
0000
1100
0000
1000
0010
,
0100
0001
0100
0010
1000
0010
0100
0001
,
1001
0000
1010
0000
0101
0000
0001
0010
,
0100
1000
0100
0010
0001
0100
0010
0100
,
0001
0010
0100
0010
0001
0100
0000
0100
,
0010
0100
0001
0010
0100
0010
0000
0010
,
0002
0103
2000
3010
,
1001
0000
0001
0100
1000
0100
0001
0000
,
1001
1000
0100
0010
,
0001
0000
0100
0000
0010
0100
0010
0000
,
1001
0001
0010
0100
,
1000
0000
0010
0000
0100
0010
0100
0000
,
1001
0000
1010
0000
0011
0000
0001
0010
,
0100
0001
0100
1000
0100
0001
0100
1000
,
0010
0100
0001
0010
0100
0000
1000
0100
,
0010
1000
0010
0001
0010
1000
0010
0001
,
1000
0100
0001
0100
1000
0010
0000
0010
,
0100
0010
1000
0100
0001
0100
0000
0100
,
2000
3010
0002
0103
,
1001
0000
1000
0010
0001
0010
1000
0100
,
0010
0000
0000
0010
0000
0000
0020
0000
0000
0000
0031
0000
0001
0000
0010
0000
,
0100
0000
0000
0100
0000
0000
0200
0000
0000
0000
1300
0000
1000
0000
0000
1010
,
0000
0000
0001
0000
0001
0000
0000
0101
0000
0000
1000
0000
1000
0000
0010
0000
,
0100
0001
0010
0100
1000
0010
0100
0000
,
0001
0000
0000
0001
0000
0000
0002
0000
0000
0000
0103
0000
0100
0000
0010
0000
,
1000
0000
0000
1000
0000
0000
2000
0000
0000
0000
3010
0000
0010
0000
0100
0000
,
0001
0010
1000
0010
0001
0100
0010
1000
,
0000
1100
0000
0100
0010
0001
0100
0000
,
0220
0000
0000
0330
,
0010
0000
0000
1000
0000
0000
0010
0000
0100
0000
0001
0000
0101
0000
0000
0000
,
0100
0000
0000
0001
0000
0000
0100
0000
0010
0000
1000
0000
1100
0000
0000
0000
,
0100
0000
0000
1000
0000
0000
0100
0000
0010
0000
0001
0000
0011
0000
0000
0000
,
0010
0000
0000
0001
0000
0000
0010
0000
0100
0000
1000
0000
1010
0000
0000
0000
,
0210
0301
0120
1030
,
1000
0100
0010
0001
0000
0001
0100
1000
,
0000
1000
0100
0001
0010
0100
0001
0100
,
2000
3020
0230
0302
,
1003
0100
0010
1000
0010
0001
0000
0000
,
2001
0000
0010
0000
0000
0010
3010
0000
,
1002
0000
0100
0000
0000
0100
0103
0000
,
2001
0000
0100
0000
0000
0100
3100
0000
,
1002
0000
0010
0000
0000
0010
0013
0000
,
1000
0010
0001
0110
,
0001
0100
1000
0110
,
1000
0010
0001
0100
,
1000
0000
0001
0000
1000
0000
0001
0000
0100
0000
0000
0010
0100
0000
0100
0000
,
0001
0000
0000
0010
0000
0000
0100
0000
0010
0000
0001
0000
0100
0000
0010
0000
,
1000
0000
0000
0100
0000
0000
0010
0000
0100
0000
1000
0000
0010
0000
0100
0000
,
0001
0000
0000
0010
0000
0000
1000
0000
0010
0000
0001
0000
0100
0000
0010
0000
,
1000
0000
0000
0100
0000
0000
0001
0000
0100
0000
1000
0000
0010
0000
0100
0000
,
0102
0013
2100
3010
,
0010
0100
0001
1000
0000
1000
0010
0001
,
0000
0001
0010
1000
0100
0010
1000
0010
,
0001
0001
0100
0100
0010
0010
1000
1000
,
0100
0000
0001
0000
0100
0000
0010
0000
0001
0000
1000
0000
0000
0010
0000
0000
,
0110
1000
0110
0001
,
1000
0100
0001
1000
0010
0001
0100
0020
,
0000
1030
0001
0010
0100
1000
1001
1001
;

//---------------dance-double - ----------------
#NOTEDATA:;
#CHARTNAME:;
#STEPSTYPE:dance-double;
#DESCRIPTION:;
#CHARTSTYLE:;
#DIFFICULTY:Hard;
#METER:11;
#RADARVALUES:0.418430,0.436997,0.222943,0.115315,0.057658,381.000000,352.000000,29.000000,15.000000,0.000000,0.000000,0.000000,0.000000,0.000000,0.418430,0.436997,0.222943,0.115315,0.057658,381.000000,352.000000,29.000000,15.000000,0.000000,0.000000,0.000000,0.000000,0.000000;
#CREDIT:MUINELIM;
#DISPLAYBPM:124.000000;
#NOTES:
00000000
00000000
00000000
00000000
,
00000000
00000000
00000000
00000000
,
00000000
00000000
00000000
00000000
,
00000000
00000000
00000000
00000000
,
00000000
00000000
00000000
00000000
,
00011000
00001000
00100000
00010000
,
01000000
00001000
00010000
00001000
,
00011000
00010000
00000100
00001000
,
00000010
00010000
00001000
00010000
,
00011000
00000000
01000000
00000000
10010000
00000000
10000000
00100000
,
01000000
00100000
10000000
01000000
00100000
01000000
10000000
00000000
,
10010000
00000000
00100000
00000000
00011000
00000000
00001000
00100000
,
00010000
00100000
00001000
00010000
00100000
00010000
00001000
00100000
,
01000000
00010000
00001000
00000010
00000100
00001000
00000000
00001000
,
00000100
00000010
00001000
00010000
01000000
00100000
00000000
00100000
,
00020000
01030000
20000000
30100000
,
10010000
00000000
00010000
00100000
01000000
00010000
00001000
00000000
,
00011000
00010000
00000010
00001000
,
00000100
00010000
00001000
00010000
,
00011000
00001000
01000000
00010000
,
00100000
00001000
00010000
00001000
,
00011000
00000000
00000100
00000000
00001001
00000000
00000001
00000010
,
00000100
00000010
00000001
00000100
00000010
00000100
00000001
00000010
,
00000100
00000010
00000001
00000100
00001000
00000000
00010000
00000010
,
00001000
00000010
00010000
00001000
00000010
00001000
00010000
00000010
,
00000100
00001000
00010000
00100000
01000000
00010000
00000000
00010000
,
01000000
00100000
00010000
00001000
00000100
00000010
00000000
00000010
,
00002000
00003100
00000002
00000013
,
00001001
00000000
00001000
00000010
00000100
00001000
00010000
00100000
,
10000000
00000000
00000000
10000000
00000000
00000000
20000000
00000000
00000000
00000000
31000000
00000000
01000000
00000000
00010000
00000000
,
00001000
00000000
00000000
00001000
00000000
00000000
00002000
00000000
00000000
00000000
00103000
00000000
00100000
00000000
00000000
00110000
,
00000000
00000000
01000000
00000000
01000000
00000000
00000000
11000000
00000000
00000000
10000000
00000000
10000000
00000000
00100000
00000000
,
00010000
00001000
00010000
00001000
00000100
00000001
00001000
00000000
,
00000001
00000000
00000000
00000001
00000000
00000000
00000002
00000000
00000000
00000000
00000103
00000000
00000100
00000000
00001000
00000000
,
00010000
00000000
00000000
00010000
00000000
00000000
00020000
00000000
00000000
00000000
00031000
00000000
00001000
00000000
00000100
00000000
,
00000001
00000010
00000100
00001000
00000010
00000100
00001000
00010000
,
00000000
00011000
00000000
00001000
00010000
00100000
01000000
00000000
,
20020000
00000000
00000000
30030000
,
10000000
00000000
00000000
01000000
00000000
00000000
00010000
00000000
00001000
00000000
00010000
00000000
00000100
00000000
00001000
00000000
,
00000001
00000000
00000000
00000100
00000000
00000000
00001000
00000000
00010000
00000000
00001000
00000000
00100000
00000000
00010000
00000000
,
10000000
00000000
00000000
01000000
00000000
00000000
00010000
00000000
00001000
00000000
00010000
00000000
00000010
00000000
00001000
00000000
,
00000001
00000000
00000000
00000010
00000000
00000000
00001000
00000000
00010000
00000000
00001000
00000000
01000000
00000000
00010000
00000000
,
10000000
01000000
00100000
00010000
,
00100000
00001000
00010000
00100000
00000000
00100000
00001000
00000010
,
00000000
00000010
00000100
00000010
00001000
00000100
00000010
00000001
,
00000100
00001010
00010000
00101000
,
00100000
01000000
10000000
00100000
00010000
00001000
00000000
00000000
,
00021000
00000100
00000000
00030010
,
00012000
00100000
00000000
01003000
,
00021000
00000010
00000000
00030100
,
00012000
01000000
00000000
00103000
,
00001000
00010000
00001000
01001000
,
00010000
00001000
00010000
00010010
,
00001000
00010000
00001000
00011000
,
00010000
01000000
10000000
00100000
00010000
00001000
00000100
00000001
,
00000010
00000000
00000000
00000100
00000000
00000000
00010000
00000000
00001000
00000000
00010000
00000000
00100000
00000000
10000000
00000000
,
01000000
00000000
00000000
00100000
00000000
00000000
00001000
00000000
00010000
00000000
00001000
00000000
00000010
00000000
00000001
00000000
,
00000100
00000000
00000000
00000010
00000000
00000000
00010000
00000000
00001000
00000000
00010000
00000000
01000000
00000000
10000000
00000000
,
00100000
00000000
00000000
01000000
00000000
00000000
00001000
00000000
00010000
00000000
00001000
00000000
00000100
00000000
00000001
00000000
,
00000010
00001000
00010000
01000000
,
10000000
00100000
01000000
10000000
00000000
10000000
01000000
00001000
,
00000000
00001000
00010000
00100000
00010000
00001000
00000010
00001000
,
00010000
01000000
10000000
00100000
00010000
00001000
00000100
00000001
,
00000010
00000000
00001000
00000000
00010000
00000000
01000000
00000000
10000000
00000000
00010000
00000000
00000000
10000000
00000000
00000000
,
10010000
00100000
00011000
00000010
,
00001001
00000000
00000001
00000100
00000010
00001000
00000100
00000020
,
00000000
00001030
00010000
01000000
10000000
00100000
00010000
00011000
;

//---------------dance-single - ----------------
#NOTEDATA:;
#CHARTNAME:;
#STEPSTYPE:dance-single;
#DESCRIPTION:;
#CHARTSTYLE:;
#DIFFICULTY:Challenge;
#METER:13;
#RADARVALUES:0.565595,0.642643,0.422823,0.238319,0.257538,515.000000,460.000000,55.000000,31.000000,0.000000,0.000000,0.000000,0.000000,0.000000,0.565595,0.642643,0.422823,0.238319,0.257538,515.000000,460.000000,55.000000,31.000000,0.000000,0.000000,0.000000,0.000000,0.000000;
#CREDIT:MUINELIM;
#DISPLAYBPM:124.000000;
#NOTES:
0000
0000
0000
0000
,
0000
0000
0000
0000
,
0000
0000
0000
0000
,
0000
0000
0000
0000
,
0000
0000
0000
0000
,
1001
0000
0000
0000
1000
0000
0001
0000
0200
0000
0000
0320
0000
0000
0230
0000
,
0000
0301
0010
0100
1000
0010
0110
0000
,
1001
0000
0000
0000
0001
0000
1000
0000
0020
0000
0000
0230
0000
0000
0320
0000
,
0000
1030
0100
0010
0001
0100
0110
0000
,
1010
0000
0101
0000
2002
3003
0001
0100
,
0010
1000
0100
0010
0001
1000
0010
0100
,
0101
0000
1010
0000
1001
1000
0100
0010
,
0001
0100
0010
1000
0001
0010
0100
1000
,
0001
0100
0001
0100
0001
0000
0010
0000
0002
0000
0103
0000
0100
0000
0001
0000
,
1000
0010
1000
0010
1000
0000
0100
0000
2000
0000
3010
0000
0010
0100
0010
0100
,
0010
0000
1000
0100
0000
1000
0001
1000
0001
0000
0010
0001
0000
0100
0010
0000
,
0110
0000
1000
0100
0001
0100
1000
0010
,
0110
0000
0000
0000
0100
0000
0010
0000
2000
0000
0000
3002
0000
0000
2003
0000
,
0000
3100
0010
0100
1000
0001
1001
0000
,
0110
0000
0000
0000
0010
0000
0100
0000
0002
0000
0000
2003
0000
0000
3002
0000
,
0000
0013
0100
0010
0001
1000
1001
0000
,
0011
0000
1100
0000
0110
0000
0010
0100
,
1000
0010
0001
0010
1000
0100
0001
0100
,
1000
0010
0001
1000
0100
0000
0001
0010
,
1000
0001
0100
1000
0010
0001
0010
1000
,
0100
1000
0100
1000
0100
0000
1000
0000
0020
0000
0130
0000
0100
0000
0001
0000
,
0010
0001
0010
0001
0010
0000
0001
0000
0200
0000
0310
0000
0010
1000
0010
1000
,
0010
0000
0100
0010
0000
0100
0001
0100
0001
0000
0010
0100
0000
1000
0001
2000
,
0002
3003
0001
0010
1000
0010
0001
0100
,
0110
0000
0000
1010
0000
0000
0101
0000
0000
0000
0001
0000
0010
0000
0100
0000
,
0110
0000
0000
1100
0000
0000
0011
0000
0000
0000
0001
0000
0100
0010
0000
0200
,
0000
0000
1300
0000
0100
0000
0010
0200
0000
0000
0301
0000
0100
0000
0010
0000
,
1000
0100
0010
0001
0100
0010
0110
0000
,
1010
0000
0000
0011
0000
0000
0101
0000
0000
0000
0100
0000
0010
0000
0100
0000
,
0101
0000
0000
1100
0000
0000
1010
0000
0000
0000
0010
0000
0100
0000
0010
0000
,
1000
0100
0001
1000
0010
0001
0100
1000
,
0000
0110
0000
0001
0010
1000
0100
0000
,
0220
0000
0000
0000
0030
0000
0010
0310
,
0110
0000
0000
0010
0001
0000
0100
0000
0010
0000
1000
0000
0100
0000
0010
0000
,
0110
0000
0000
0100
1000
0000
0010
0000
0100
0000
0001
0000
0010
0000
0100
0000
,
0110
0000
0000
0001
0100
0000
0010
0000
1000
0000
0001
0000
0010
0000
0100
0000
,
0110
0000
0000
1000
0010
0000
0100
0000
0001
0000
1000
0000
0100
0000
0010
0000
,
0110
0000
0000
0001
0100
0000
0000
0100
0010
0000
0000
0010
1000
0000
0100
0010
,
0100
1000
0010
0001
0000
0001
0100
1000
,
0000
1000
0010
0001
0010
1000
0100
0010
,
0001
0000
0000
0001
0100
0000
0000
0100
0010
0000
0000
0010
1000
0000
0000
1000
,
0001
0010
0100
1000
1010
0101
0000
0000
,
0120
0000
0001
0000
0000
1000
1030
0000
,
1000
0010
0210
0000
0000
0001
0301
0000
,
2001
0000
0010
0000
0000
0100
3100
0000
,
0100
1000
1002
0000
0000
0010
0013
0000
,
0001
0010
0100
1000
0001
0010
0100
0000
,
1000
0100
0010
0001
1000
0100
0010
0000
,
0001
0100
0010
1000
0001
0100
0010
1000
,
0001
1000
0001
1000
0001
1000
0001
1000
0002
0000
0000
0103
0010
0000
1000
0000
,
1010
0000
0000
0010
1000
0000
0100
0000
0001
0000
0100
0000
1000
0000
0001
0000
,
0101
0000
0000
0100
0001
0000
0010
0000
1000
0000
0010
0000
0001
0000
1000
0000
,
1100
0000
0000
0100
1000
0000
0010
0000
0001
0000
0010
0000
1000
0000
0001
0000
,
0011
0000
0000
0010
0001
0000
0100
0000
1000
0000
0100
0000
0001
0000
1000
0000
,
1001
0000
0000
0001
0010
0000
0000
0010
0100
0000
0000
0100
1000
0000
0010
0100
,
0010
1000
0100
0001
0000
0001
0010
1000
,
0000
1000
0100
0001
0100
1000
0010
0100
,
0001
0000
0010
0001
0010
0000
0100
0010
0100
0000
1000
0100
1000
0000
0001
1000
,
0001
0000
0100
0000
0010
0000
1000
0000
1100
0000
0011
0000
0000
0110
0000
0000
,
1001
0001
0100
1000
0001
0010
1000
0100
,
0010
0000
0001
0100
0010
0000
1000
0010
0100
0000
0001
1000
0200
0000
0320
0000
,
0000
0031
0100
1000
0001
0010
0110
0110
;

//---------------dance-double - ----------------
#NOTEDATA:;
#CHARTNAME:;
#STEPSTYPE:dance-double;
#DESCRIPTION:;
#CHARTSTYLE:;
#DIFFICULTY:Challenge;
#METER:13;
#RADARVALUES:0.548023,0.616938,0.384385,0.192192,0.215255,499.000000,449.000000,50.000000,25.000000,0.000000,0.000000,0.000000,0.000000,0.000000,0.548023,0.616938,0.384385,0.192192,0.215255,499.000000,449.000000,50.000000,25.000000,0.000000,0.000000,0.000000,0.000000,0.000000;
#CREDIT:MUINELIM;
#DISPLAYBPM:124.000000;
#NOTES:
00000000
00000000
00000000
00000000
,
00000000
00000000
00000000
00000000
,
00000000
00000000
00000000
00000000
,
00000000
00000000
00000000
00000000
,
00000000
00000000
00000000
00000000
,
00011000
00000000
00000000
00000000
00001000
00000000
00010000
00000000
02000000
00000000
00000000
00100000
00000000
00000000
03100000
00000000
,
00000000
00100000
01000000
10000000
00100000
00010000
00001000
00000000
,
00011000
00000000
00000000
00000000
00010000
00000000
00001000
00000000
00000020
00000000
00000000
00000100
00000000
00000000
00000130
00000000
,
00000000
00000100
00000010
00000001
00000100
00001000
00010000
00000000
,
00010010
00000000
01001000
00000000
00011000
00000000
00010000
00000100
,
00001000
00000010
00010000
00001000
00100000
00010000
01000000
00001000
,
00010000
00000000
00010100
00000000
00101000
00100000
01000000
00010000
,
00001000
00000010
00000100
00010000
00001000
00100000
01000000
00010000
,
00001000
00010000
00001000
00000000
00010000
00001000
00010000
00000000
00000200
00000000
00000310
00000000
00000010
00000000
00001000
00000000
,
00010000
00001000
00010000
00000000
00001000
00010000
00001000
00000000
00200000
00000000
01300000
00000000
01000000
10000000
01000000
00000000
,
10000000
00000000
00100000
01000000
00000000
00010000
00100000
00010000
00100000
00000000
00001000
00010000
00000000
00000100
00001000
00000000
,
00001001
00000000
00000010
00000001
00001000
00000100
00000010
00001000
,
00011000
00000000
00000000
00000000
00010000
00000000
00001000
00000000
00000200
00000000
00000000
00000010
00000000
00000000
00000310
00000000
,
00000000
00000010
00000100
00000001
00000010
00001000
00010000
00000000
,
00011000
00000000
00000000
00000000
00001000
00000000
00010000
00000000
00200000
00000000
00000000
01000000
00000000
00000000
01300000
00000000
,
00000000
01000000
00100000
10000000
01000000
00010000
00001000
00000000
,
00101000
00000000
00010100
00000000
00011000
00000000
00001000
01000000
,
00010000
00100000
01000000
00010000
00001000
00000010
00000100
00001000
,
00000010
00010000
00001000
00010000
00011000
00000000
00001000
00000100
,
00000001
00000010
00001000
00010000
01000000
10000000
00100000
00010000
,
00001000
00010000
00001000
00000000
00010000
00001000
00010000
00000000
00200000
00000000
01300000
00000000
00010000
00000000
00100000
00000000
,
00001000
00010000
00001000
00000000
00010000
00001000
00010000
00000000
00000200
00000000
00000310
00000000
00000010
00000001
00000010
00000000
,
00000001
00000000
00000100
00000010
00000000
00001000
00000100
00001000
00000100
00000000
00010000
00001000
00000000
01000000
00010000
00000000
,
20020000
30030000
00010000
01000000
00001000
00010000
00000100
00001000
,
00001010
00000000
00000000
00000011
00000000
00000000
00001001
00000000
00000000
00000000
00000001
00000000
00000100
00000000
00001000
00000000
,
00011000
00000000
00000000
00010010
00000000
00000000
00101000
00000000
00000000
00000000
00100000
00000000
00010000
01000000
00000000
00002000
,
00000000
00000000
00013000
00000000
00000100
00000000
00001000
00000020
00000000
00000000
00010030
00000000
00001000
00000000
00100000
00000000
,
00010000
01000000
00100000
10000000
01000000
00100000
01100000
00000000
,
00110000
00000000
00000000
10100000
00000000
00000000
10010000
00000000
00000000
00000000
10000000
00000000
01000000
00000000
00010000
00000000
,
00011000
00000000
00000000
00101000
00000000
00000000
00010010
00000000
00000000
00000000
00000010
00000000
00001000
00000000
00000100
00000000
,
00000010
00000001
00000100
00001000
00010000
00100000
10000000
01000000
,
00000000
00110000
00000000
00001000
00000010
00000001
00000100
00000000
,
00022000
00000000
00000000
00000000
00030000
00000000
00010000
00013000
,
00011000
00000000
00000000
00001000
01000000
00000000
00100000
00000000
10000000
00000000
01000000
00000000
00100000
00000000
00001000
00000000
,
00011000
00000000
00000000
00010000
00000010
00000000
00000100
00000000
00000001
00000000
00000010
00000000
00000100
00000000
00010000
00000000
,
00011000
00000000
00000000
00001000
00100000
00000000
01000000
00000000
10000000
00000000
00100000
00000000
00010000
00000000
00001000
00000000
,
00011000
00000000
00000000
00010000
00000100
00000000
00000010
00000000
00000001
00000000
00000100
00000000
00001000
00000000
00010000
00000000
,
00011000
00000000
00000000
00001000
00100000
00000000
00000000
00100000
01000000
00000000
00000000
01000000
10000000
00000000
00100000
01000000
,
00100000
10000000
01000000
00010000
00000000
00001000
00000010
00000001
,
00000000
00000100
00001000
00010000
00001000
00000100
00001000
00010000
,
01000000
00000000
00000000
01000000
10000000
00000000
00000000
10000000
00100000
00000000
00000000
00100000
00010000
00000000
00000000
00010000
,
00001000
00000100
00000001
00000010
00000100
00001100
00000000
00000000
,
00021000
00000000
00100000
00000000
00000000
00000010
00030010
00000000
,
00000010
00010000
00012000
00000000
00000000
00100000
00103000
00000000
,
00021000
00000000
01000000
00000000
00000000
00000100
00030100
00000000
,
00000100
00010000
00012000
00000000
00000000
01000000
01003000
00000000
,
01000000
00010000
00100000
00001000
00010000
00000010
00001000
00000000
,
00000100
00001000
00000010
00010000
00001000
00100000
00010000
00000000
,
01000000
00001000
00010000
00000010
00001000
00000100
00000010
00000001
,
00000100
00000000
00001000
00000000
00010000
00000000
00100000
00000000
20000000
00000000
00000000
30010000
01000000
00000000
00100000
00000000
,
01100000
00000000
00000000
10000000
01000000
00000000
00010000
00000000
00001000
00000000
00000010
00000000
00000001
00000000
00000100
00000000
,
00000110
00000000
00000000
00000001
00000010
00000000
00001000
00000000
00010000
00000000
01000000
00000000
10000000
00000000
00100000
00000000
,
01100000
00000000
00000000
10000000
00100000
00000000
00010000
00000000
00001000
00000000
00000100
00000000
00000001
00000000
00000010
00000000
,
00000110
00000000
00000000
00000001
00000100
00000000
00001000
00000000
00010000
00000000
00100000
00000000
10000000
00000000
01000000
00000000
,
01100000
00000000
00000000
00100000
00001000
00000000
00000000
00001000
00010000
00000000
00000000
00010000
00000100
00000000
00000010
00000100
,
00000010
00000001
00000100
00001000
00000000
00010000
00100000
10000000
,
00000000
01000000
00010000
00001000
00010000
01000000
00010000
00001000
,
00000200
00000301
00000002
00000013
00000020
00001030
00002000
00013000
,
00010000
00000000
01000000
00000000
10000000
00000000
00100000
00000000
00010000
00000000
00011000
00000000
00000000
01001000
00000000
00000000
,
00010100
00000100
00000010
00001000
00010000
01000000
00100000
00010000
,
01000000
00000000
00001000
00010000
00001000
00000000
00010000
00000010
00010000
00000000
00001000
01000000
00002000
00000000
00023000
00000000
,
00000000
00030100
00000010
00000001
00000100
00001000
00011000
00011000
;
