#TITLE:You Raise Me Up;
#SUBTITLE:;
#ARTIST:Interface;
#TITLETRANSLIT:;
#SUBTITLETRANSLIT:;
#ARTISTTRANSLIT:;
#GENRE:;
#CREDIT:Braeden;
#MUSIC:You Raise Me Up.ogg;
#BANNER:;
#BACKGROUND:;
#CDTITLE:;
#SAMPLESTART:55.527;
#SAMPLELENGTH:12.000;
#SELECTABLE:YES;
#OFFSET:-0.033;
#BPMS:0.000=144.000
,68.000=72.000
,86.000=144.000
;
#STOPS:;
#BGCHANGES:;
#FGCHANGES:;

//--------------- dance-single - ----------------
#NOTES:
     dance-single:
     :
     Beginner:
     3:
     0.119123,0.172729,0.009927,0,0,84,83,1,0,0,0,0.119123,0.172729,0.009927,0,0,84,83,1,0,0,0:
0000
0000
0000
0000
,
0000
0000
0000
0000
,
1001
0000
1001
0000
,
0001
0000
1000
0000
,
0010
0000
0100
0000
,
0001
0000
1000
0000
,
0010
0000
1000
0000
,
0001
0000
0000
0000
,
1001
0000
1000
0000
,
0010
0000
0000
0000
,
0100
0000
0000
0000
,
0010
0000
0000
0000
,
1001
0000
0000
0000
,
0100
0000
0000
0000
,
0001
0000
0000
0000
,
1000
0000
0001
0000
,
1000
0000
0000
0000
,
1001
0000
0200
0300
,
0010
0000
0000
0000
,
0000
0000
2000
3000
,
0010
0000
2000
3000
,
0000
0000
0001
0001
,
0000
0000
0100
0000
,
0000
0000
0010
0000
,
0000
0000
1000
0000
,
0000
0000
0020
0000
,
0030
0000
1000
0000
,
0000
0000
0001
0000
,
0000
0000
0000
0000
,
1000
0000
0020
0000
,
0000
0030
0100
0000
,
0010
0000
1000
0000
,
0010
0000
0000
0000
,
1000
0000
0020
0000
,
0030
0000
1000
0000
,
0001
0000
0100
0000
,
0010
0000
1000
0000
,
0001
0000
2000
0000
,
3000
0000
0001
0000
,
1000
0000
0001
0000
,
1000
0000
0010
0000
,
0100
0000
0001
0000
,
1000
0000
0010
0000
,
1000
0000
0001
0000
,
0010
0000
0100
0000
,
0000
0000
1001
0000
,
0001
0000
1000
0000
,
1000
0000
0001
0000
,
0001
0000
0100
0000
,
0100
0000
0110
0000
,
0010
0000
1000
0000
,
0001
0000
1000
0000
,
0010
0000
0100
0000
,
0010
0000
0110
0000
;

//--------------- dance-single - ----------------
#NOTES:
     dance-single:
     :
     Easy:
     6:
     0.161667,0.291604,0.059562,0.238247,0,114,108,6,24,0,0,0.161667,0.291604,0.059562,0.238247,0,114,108,6,24,0,0:
0000
0000
0000
0000
,
0000
0000
0000
0000
,
1001
0000
1001
0000
,
1000
0001
1000
0010
,
1001
0001
0100
0010
,
1000
0001
0010
0000
,
0100
1000
0001
0100
,
0010
1000
0001
1000
,
1001
0000
0001
0000
0100
0010
1000
0000
,
0001
1000
0000
0100
,
1000
0000
0000
0001
0000
0000
1000
0000
0000
0000
0000
0000
0010
0000
0000
0000
,
0100
0000
0000
0001
0000
0000
0100
0000
0000
0000
0000
0000
0010
0000
0000
0000
,
1010
1000
0001
0100
,
0010
1000
0010
0000
0000
0000
1000
0000
,
0001
0000
0000
1000
0000
0000
0000
0010
0000
0000
0000
0000
0100
0000
0000
0000
,
0001
0000
0000
1000
0000
0000
0000
0010
0000
0000
0000
0000
1000
0000
0000
0000
,
0020
0000
0000
0030
,
0002
0000
0203
0300
,
0010
1000
0200
0300
,
0000
1000
0020
0030
,
1000
0000
2000
0000
,
3000
0001
2000
0001
,
0000
3100
0000
0000
0001
0000
2000
0000
,
0000
3010
0200
0300
,
0001
0000
0100
0000
,
0010
0000
2000
0010
,
0000
3010
0000
0000
0100
0000
0001
1000
,
0000
0000
0000
0010
0000
0000
0200
0000
,
0000
0000
0300
0000
,
0010
1000
1001
0001
,
1000
0010
0100
0001
,
0100
0000
0001
1000
0010
0000
1000
0000
,
0100
0000
0010
0000
0001
0000
1000
0010
,
1000
0001
0020
0100
,
0031
0000
0010
0100
0010
0000
0100
0000
,
0001
1000
0010
0100
,
0001
0010
0100
1000
,
0001
1000
1001
0001
,
0100
0010
1000
0001
,
0100
0010
1000
0100
,
0010
0001
0100
0010
,
1000
0001
0010
0001
,
1000
0010
0100
0001
,
0010
0100
1000
0001
,
1000
0010
0100
0010
,
0000
1000
0001
1000
0010
0000
0100
0000
,
0001
0010
0100
1000
,
0020
0130
0001
1000
,
0010
0000
0000
0000
0100
0000
0000
0000
0001
0000
0000
1000
0000
0000
0001
0000
,
0100
0010
1010
0100
,
0001
1000
0010
0100
,
0020
0130
0001
1000
,
0100
0010
0001
1000
,
0001
1000
0001
0000
2200
0000
3300
0000
;

//--------------- dance-single - ----------------
#NOTES:
     dance-single:
     :
     Medium:
     11:
     0.333261,0.409983,0.069489,0.198539,0.079416,235,228,7,20,0,0,0.333261,0.409983,0.069489,0.198539,0.079416,235,228,7,20,0,0:
0000
0000
0000
0000
,
0000
0000
0000
0000
,
1001
0000
0110
0000
,
1001
0000
1000
0000
0001
0100
0001
0000
,
0101
0000
0000
0001
0000
0000
0100
0000
0010
0000
0000
0000
1000
0000
1000
0000
,
0001
0000
0000
0010
0000
0000
1000
0000
0020
0000
0000
0000
0031
0000
0000
0000
,
1000
0000
0000
0100
0000
0000
0001
0000
0100
0000
0000
0000
1000
0000
0010
0000
,
1000
0001
1000
0001
,
1001
0000
0000
1000
0000
0000
0001
0000
0100
0000
1000
0000
0100
0000
0001
0000
,
1000
0000
0001
0000
1000
0010
0000
1000
0000
0001
0000
0000
1000
0000
0100
0000
,
1000
0000
0000
0001
0000
0000
2000
0000
0000
0000
3010
0000
0100
0000
0001
0000
,
1000
0000
0000
0010
0000
0000
2000
0000
0000
0000
3001
0000
0100
0000
0001
0000
,
1000
0000
0000
0100
0000
0001
0000
0100
0000
0000
1000
0000
0001
0000
0100
0000
,
0010
0000
1000
0000
0010
0000
0000
0100
0000
0001
0000
0000
0010
0000
0100
0000
,
1000
0000
0000
0001
0000
0100
0000
0001
0000
0100
0000
0000
0010
0000
1000
0000
,
0001
0000
0000
0010
0000
0100
0000
1000
0000
0100
0000
0000
0010
0000
0001
0000
,
1000
0000
0000
0010
0000
0000
0000
0100
0000
0000
0000
0000
0001
0000
1000
0000
,
2002
0000
0000
3003
0200
0000
0300
0000
,
0020
2030
3001
0000
,
0000
1000
0001
0000
0200
0000
0300
0000
,
0010
0000
0000
0000
1000
0000
0000
0000
0000
0000
0001
0000
0000
1000
0000
0000
0020
0000
0000
0000
0000
0000
0000
0000
0000
0000
0000
0000
0000
0000
0000
0000
,
0030
0000
0000
1000
0001
0000
1000
0000
0002
0000
0000
0000
0103
0000
1000
0000
,
0000
0100
0010
1000
0001
0000
2000
0000
,
3000
0000
0001
0100
0002
0000
0000
0000
,
1003
0000
0001
0000
,
2000
0000
0000
3010
0100
0000
1000
0100
,
0000
0010
0100
0001
0200
0000
0301
0010
,
0000
0100
1000
0001
0100
0000
0010
1000
,
0000
0001
0100
0010
1000
0000
0000
0001
,
2000
0000
3010
0000
1000
0010
0001
0010
,
1000
0010
0001
0010
0100
0000
0001
0000
,
1000
0000
0010
0100
0001
0100
1000
0100
,
0010
0100
0001
0100
0010
0000
1000
0001
,
2000
0000
3002
0000
0013
1000
0010
0100
,
1000
0001
1000
0010
0200
0000
0302
0000
,
0203
0000
0301
1000
0010
0100
0001
0010
,
0100
1000
0001
0100
0001
0010
0001
1000
,
0010
0000
1000
0000
0001
0100
1000
0000
,
0100
0010
1000
0000
0001
1000
0010
0000
,
0001
0010
0100
0000
0001
1000
0010
0000
,
1000
0100
0010
0000
0001
0100
0010
0000
,
1000
0001
0010
0001
1000
0010
1000
0100
,
1000
0001
0010
0100
1000
0001
1000
0001
,
0100
0010
0100
0010
1000
0001
0010
0100
,
1000
0010
0100
0001
1000
0100
0010
0001
,
1000
0000
0010
0000
0100
0000
0010
0000
1010
0000
0000
1000
0000
0000
0100
0000
,
0010
0000
0000
0000
0001
0000
1000
0000
0100
0000
0000
0001
0000
0000
0100
0000
,
2000
0000
0000
0000
3010
0000
0000
0000
1000
0000
0000
0010
0000
0000
0001
0000
,
0010
0000
0000
0000
0100
0000
0010
0000
1000
0000
0000
0001
0000
0000
1000
0000
,
0001
0000
0100
0000
0010
0000
0000
0000
1010
0000
0000
0010
0000
0000
0100
0000
,
0001
0000
0000
0000
1000
0000
0010
0000
0001
0000
0000
0010
0000
0000
1000
0000
,
0020
0000
0000
0000
0130
0000
0000
0000
0010
0000
0000
1000
0000
0000
0010
0000
,
1000
0000
0000
0000
0001
0000
0100
0000
0010
0000
0000
1000
0000
0000
0001
0000
,
1000
0100
0010
0000
0220
0000
0330
0000
;

//--------------- dance-single - ----------------
#NOTES:
     dance-single:
     :
     Hard:
     15:
     0.482166,0.585689,0.079416,0.188612,0.263064,340,332,8,19,0,0,0.482166,0.585689,0.079416,0.188612,0.263064,340,332,8,19,0,0:
0000
0000
0000
0000
,
0000
0000
0000
0000
,
1001
0000
0000
0001
0000
0001
1000
0000
1010
0000
0000
0010
0100
0010
0100
0000
,
0101
0000
0001
0010
0000
0010
0100
0000
1000
0001
1000
0001
1000
0000
0001
0000
,
0101
0000
0000
0001
0000
0100
0010
0000
1000
0000
0000
0001
0010
0100
1000
0000
,
0100
0000
0000
0010
0000
0001
1000
0000
0002
0000
0000
0000
1003
0000
0000
0000
,
0001
0000
0000
0100
0000
0100
0010
0000
1000
0000
0000
0001
0100
0010
1000
0000
,
0100
0000
0010
0001
0000
0010
0001
0000
1000
0000
0010
0000
0100
0000
0000
0000
,
0101
0000
0001
0010
0000
0001
0010
0000
0100
1000
0100
0000
0001
0000
0100
0000
,
1000
0000
0001
0100
0010
1000
0000
0010
0000
0010
0000
0010
0100
0000
0001
0000
,
1000
0000
0001
0100
0000
0001
0200
0000
0000
0310
1000
0010
1000
0010
1000
0000
,
0100
0000
0010
0001
0000
0010
0002
0000
0000
0103
0010
0100
0010
0100
0010
0000
,
1000
0001
1000
0100
0000
0001
0000
0100
0000
1000
0010
1000
0001
0010
0001
0000
,
1000
0100
0010
0001
0100
0010
0000
1000
0000
0010
0000
0100
0001
1000
0001
0000
,
1000
0000
0001
1000
0000
0010
0000
0001
0000
0010
0000
1000
0001
1000
0001
0000
,
1000
0000
0001
0100
0000
0010
0000
0001
0000
0010
0000
0100
0001
1000
0001
0000
,
1000
0000
0001
0100
0000
0010
0000
1000
0000
0001
0000
1000
0100
0010
0001
0000
,
0202
0000
0000
0000
0303
0000
0000
0000
0200
0000
0000
0000
0000
0000
0000
0310
,
1000
0000
0000
0001
0010
0000
0000
0100
2000
0000
0000
0000
0000
0000
0000
0000
,
3000
0000
0001
0000
1000
0010
0000
0000
0200
0000
0000
0000
0300
0000
0000
0001
,
1000
0000
0000
0000
0001
0000
0000
0000
0000
0000
0100
0000
0000
0010
0000
0000
2000
0000
0000
0000
0000
0000
0000
0000
0000
0000
0000
0000
0000
0000
0000
0000
,
3000
0000
0000
0001
0100
0000
0010
0000
2000
0000
0000
0000
0001
0000
0010
0000
,
0000
3001
0000
0100
0010
0000
2000
0000
,
3001
0000
0100
0010
0200
0000
0000
0000
,
0301
0000
0000
0010
0000
0000
0100
0000
1000
0000
0000
0001
0000
0000
1000
0000
,
0020
0000
0000
1030
0002
0000
0010
1000
,
0000
1003
0000
0001
0200
0000
0310
2000
,
0001
0000
0000
0001
0000
0000
0000
0000
3001
0000
0000
0100
0000
0000
0010
0000
,
1000
0000
0000
0001
0000
0000
0010
0000
0002
0000
0000
0000
1003
0000
0010
0000
,
2000
0000
0000
0000
3001
0000
0000
0000
1001
0000
0001
0010
0100
1000
0100
0000
,
0010
0000
0001
0000
1000
0000
0010
0000
1000
0100
1000
0000
0001
0010
0001
0000
,
1000
0010
1000
0000
0001
0000
1000
0100
0010
0001
1000
0010
1000
0000
0001
0000
,
0100
0000
0010
0100
0001
0100
0010
0000
1000
0000
0001
0000
1000
0100
1000
0000
,
0001
0000
0100
0000
0010
0000
1000
0100
0010
0001
1000
0010
1000
0000
0001
0000
,
0100
0000
0010
0000
0100
0000
0010
0000
0100
0001
1000
0000
0001
0010
0100
0000
,
1000
0001
1000
0000
0001
0000
0100
0000
0010
1000
0001
0100
0010
1000
0001
0000
,
1000
0100
0010
0001
0010
0100
1000
0000
0001
0010
0100
1000
0001
0100
0010
1000
,
0001
0010
0100
1000
0001
0100
0010
0000
1010
0000
1000
0001
1000
0010
0100
0000
,
0001
0000
0100
0000
0010
0000
1000
0000
0001
0010
0001
0000
1000
0010
1000
0000
,
0001
0010
0001
1000
0010
0000
1000
0000
0001
0010
0001
1000
0010
1000
0001
0000
,
1000
0100
1000
0000
0001
0000
0100
0000
0010
1000
0010
0000
1000
0000
0010
0000
,
0001
0000
0010
0000
1000
0000
0001
0000
0100
0010
0100
0001
1000
0010
1000
0000
,
0100
0010
0100
0000
1000
0001
1000
0000
0001
0100
0001
0000
1000
0000
0010
0000
,
0100
0010
0100
0000
0001
0000
1000
0000
0100
0010
0001
0010
0100
1000
0001
0000
,
1000
0010
1000
0100
1000
0001
1000
0000
0001
0100
0010
1000
0001
1000
0010
0000
,
1000
0001
0100
0000
0100
0000
0010
0000
1010
0000
0000
1000
0000
0100
0010
0000
,
0001
0000
0000
1000
0010
0100
0001
0000
0100
0000
0000
0010
0000
0010
1000
0000
,
0002
0000
0000
0000
0103
0000
0000
0000
0110
0000
0000
0010
0000
1000
0100
0000
,
0010
0000
0000
0001
0100
0010
1000
0000
0001
0000
1000
0010
0000
1000
0010
0000
,
1000
0001
1000
0010
1000
0000
0001
0000
0101
0000
0000
0100
0000
0100
0010
0000
,
1000
0000
0000
0001
0100
0010
1000
0000
0100
0000
0000
1000
0000
0001
1000
0000
,
2000
0000
0000
0000
3010
0000
0000
0000
1000
0000
0000
1000
0000
1000
0100
0000
,
0010
0000
0000
0001
0100
0010
1000
0000
0001
0000
0100
0001
0000
1000
0010
0000
,
1000
0001
1000
0001
0010
0000
0100
0000
0220
0000
0000
0000
0330
0000
0000
0000
;
