#VERSION:0.83;
#TITLE:Wish;
#SUBTITLE:;
#ARTIST:Koyote;
#TITLETRANSLIT:;
#SUBTITLETRANSLIT:;
#ARTISTTRANSLIT:;
#GENRE:K-POP;
#ORIGIN:;
#CREDIT:MUINELIM;
#BANNER:Wish.png;
#BACKGROUND:Wish-bg.png;
#PREVIEWVID:;
#JACKET:Wish-jacket.png;
#CDIMAGE:;
#DISCIMAGE:;
#LYRICSPATH:;
#CDTITLE:;
#MUSIC:Wish.ogg;
#OFFSET:0.000000;
#SAMPLESTART:51.700306;
#SAMPLELENGTH:14.629227;
#SELECTABLE:YES;
#DISPLAYBPM:130.000000;
#BPMS:0.000=130.000,
176.000=128.000,
188.000=137.000,
192.000=130.000;
#STOPS:;
#DELAYS:;
#WARPS:;
#TIMESIGNATURES:0.000=4=4;
#TICKCOUNTS:0.000=4;
#COMBOS:0.000=1;
#SPEEDS:0.000=1.000=0.000=0;
#SCROLLS:0.000=1.000;
#FAKES:;
#LABELS:0.000=Song Start;
#BGCHANGES:0.000=Wish.avi=1.000=0=0=0=StretchNoLoop====,
99999=-nosongbg-=1.000=0=0=0 // don't automatically add -songbackground-
;
#KEYSOUNDS:;
#ATTACKS:
;

//---------------dance-single - ----------------
#NOTEDATA:;
#CHARTNAME:;
#STEPSTYPE:dance-single;
#DESCRIPTION:;
#CHARTSTYLE:;
#DIFFICULTY:Beginner;
#METER:3;
#RADARVALUES:0.123371,0.156811,0.022726,0.000000,0.000000,114.000000,111.000000,3.000000,0.000000,0.000000,0.000000,0.000000,0.000000,0.000000,0.123371,0.156811,0.022726,0.000000,0.000000,114.000000,111.000000,3.000000,0.000000,0.000000,0.000000,0.000000,0.000000,0.000000;
#CREDIT:MILEN;
#DISPLAYBPM:130.000000;
#NOTES:
0000
0000
0000
0000
,
0000
0000
0000
0000
,
0000
0000
0000
0000
,
0000
0000
0000
0000
,
1000
0000
1000
0000
,
1000
0000
1000
0000
,
1000
0000
1000
0000
,
1000
0000
0000
0000
,
0001
0000
0001
0000
,
0001
0000
0001
0000
,
0001
0000
0001
0000
,
0001
0000
0000
0000
,
0100
0000
0010
0000
,
0100
0000
0000
0000
,
0010
0000
0100
0000
,
0010
0000
0000
0000
,
1000
0000
0001
0000
,
1000
0000
0000
0000
,
0001
0000
1000
0000
,
0001
0000
0000
0000
,
1000
0000
1000
0000
,
0100
0000
0100
0000
,
0010
0000
0010
0000
,
0001
0000
0001
0000
,
0100
0000
0100
0000
,
0010
0000
0010
0000
,
0100
0000
0010
0000
,
0100
0000
0000
0000
,
0010
0000
1000
0000
,
0001
0000
0100
0000
,
0010
0000
0010
0000
,
0010
0000
0000
0000
,
0100
0000
0001
0000
,
1000
0000
0010
0000
,
0100
0000
0100
0000
,
0100
0000
0000
0000
,
0001
0000
0001
0000
,
1000
0000
1000
0000
,
0001
0000
1000
0000
,
0001
0000
0000
0000
,
0100
0000
0100
0000
,
0010
0000
0010
0000
,
0100
0000
0010
0000
,
0100
0000
0000
0000
,
0110
0000
0000
0000
,
0000
0000
0000
0000
,
1000
0000
0000
0000
,
0001
0000
0000
0000
,
1000
0000
1000
0000
,
0001
0000
0001
0000
,
1000
0000
0001
0000
,
1000
0000
0001
0000
,
1001
0000
0000
0000
,
1000
0000
1000
0000
,
0010
0000
0010
0000
,
0100
0000
0100
0000
,
0001
0000
0001
0000
,
0010
0000
0010
0000
,
0100
0000
0100
0000
,
0010
0000
0100
0000
,
0010
0000
0000
0000
,
0001
0000
0001
0000
,
0100
0000
0100
0000
,
1000
0000
1000
0000
,
0010
0000
0000
0000
,
1000
0000
1000
0000
,
0100
0000
0100
0000
,
0001
0000
0001
0000
,
0010
0000
0000
0000
,
1001
0000
0000
0000
;

//---------------dance-single - ----------------
#NOTEDATA:;
#CHARTNAME:;
#STEPSTYPE:dance-single;
#DESCRIPTION:;
#CHARTSTYLE:;
#DIFFICULTY:Easy;
#METER:6;
#RADARVALUES:0.242413,0.287487,0.083330,0.090905,0.000000,224.000000,213.000000,11.000000,12.000000,0.000000,0.000000,0.000000,0.000000,0.000000,0.242413,0.287487,0.083330,0.090905,0.000000,224.000000,213.000000,11.000000,12.000000,0.000000,0.000000,0.000000,0.000000,0.000000;
#CREDIT:MILEN;
#DISPLAYBPM:130.000000;
#NOTES:
0000
0000
0000
0000
,
0000
0000
0000
0000
,
0000
0000
0000
0000
,
0000
0000
0000
0000
,
1000
1000
1000
0000
,
0001
0001
0001
0000
,
1000
1000
0001
0001
,
1000
0001
1001
1001
,
0010
0010
0010
0000
,
0100
0100
0100
0000
,
0010
0010
0100
0100
,
0010
0100
0020
0130
,
0110
0000
1000
0000
,
0001
0000
1000
0000
,
0110
0000
0001
0000
,
1000
0000
0001
0000
,
0100
0010
0100
0010
,
1000
0001
1000
0001
,
0100
0010
1000
0001
,
0200
0300
0010
0010
,
1000
0100
1000
0000
,
0001
0010
0001
0000
,
1000
0010
1000
0000
,
0001
0100
0001
0000
,
1000
0001
0010
0000
,
0001
1000
0100
0000
,
1000
0001
0100
0010
,
1000
1000
0001
0001
,
1000
0100
1000
0100
,
0010
0001
0010
0001
,
1000
0100
0010
0001
,
1000
0100
0020
0030
,
0001
0100
0001
0100
,
0010
1000
0010
1000
,
0001
0100
0010
1000
,
0001
0100
0010
0110
,
1000
1000
1000
0000
,
0001
0001
0001
0000
,
1000
1000
0001
0001
,
1000
0001
2000
3001
,
0010
0010
0010
0000
,
0100
0100
0100
0000
,
0010
0010
0100
0100
,
0010
0100
0020
0130
,
0110
0000
0000
0000
,
0000
0000
1000
0001
,
1000
0000
0000
0000
,
0000
0000
0010
0100
,
0010
0000
0010
0000
,
0100
0000
0100
0000
,
0010
0100
0010
1000
,
0001
1000
0001
1000
,
2002
0000
0000
3003
,
0001
0100
0001
0100
,
1000
0010
1000
0010
,
0001
0100
1000
0010
,
0001
0100
0020
0030
,
1000
0100
1000
0100
,
0001
0010
0001
0010
,
1000
0100
0001
0010
,
1000
0100
0010
1001
,
0001
0100
0010
0000
,
1000
0100
0010
0000
,
0001
0100
0010
1000
,
0100
0010
0220
0330
,
1000
0010
0100
0000
,
0001
0010
0100
0000
,
1000
0010
0100
0001
,
0010
0100
0220
0330
,
1001
0000
0000
0000
;

//---------------dance-single - ----------------
#NOTEDATA:;
#CHARTNAME:;
#STEPSTYPE:dance-single;
#DESCRIPTION:;
#CHARTSTYLE:;
#DIFFICULTY:Medium;
#METER:9;
#RADARVALUES:0.374442,0.397709,0.181810,0.196961,0.000000,346.000000,322.000000,24.000000,26.000000,0.000000,0.000000,0.000000,0.000000,0.000000,0.374442,0.397709,0.181810,0.196961,0.000000,346.000000,322.000000,24.000000,26.000000,0.000000,0.000000,0.000000,0.000000,0.000000;
#CREDIT:MILEN;
#DISPLAYBPM:130.000000;
#NOTES:
0000
0000
0000
0000
,
0000
0000
0000
0000
,
0000
0000
0000
0000
,
0000
0000
0010
0010
,
1001
0000
1000
0100
2000
0000
0000
3001
,
0000
0001
0100
0001
0200
0000
0000
0000
,
0301
0000
0001
0010
0001
0000
1000
0100
,
1000
0000
0001
1000
0001
0000
1000
0000
,
1001
0000
0001
0100
0002
0000
0000
1003
,
0000
1000
0100
1000
0200
0000
0000
0000
,
1300
0000
1000
0010
1000
0000
0001
0100
,
0001
0000
1000
0001
1000
0000
1001
0000
,
0001
0100
0000
0100
0000
0010
0000
0010
,
0000
1000
0000
1000
0000
0100
0000
0100
,
0010
0100
0000
0010
0000
0010
0000
0001
,
0000
0001
0100
0000
0010
1000
0000
0001
,
0100
0010
0100
0101
,
0010
0100
0010
1010
,
1000
0100
1000
0000
0001
0010
0001
0000
,
2002
3003
1000
0001
,
0100
0010
0100
0000
0001
0000
1000
0000
,
0010
0100
0010
0000
1000
0000
0100
0000
,
1000
0010
1000
0000
0001
0000
0010
0000
,
0001
0100
0001
0000
1000
0000
0001
0000
,
0010
0010
0100
0100
,
1000
0010
0100
0000
0001
0010
0100
0000
,
1000
0100
0010
0000
0001
0100
0010
0000
,
0220
0330
0101
1010
,
1000
0100
1000
0000
0100
0000
0010
0000
,
0001
0010
0001
0000
0010
0000
0100
0000
,
1000
0010
1000
0000
0001
0100
0001
0000
,
1000
0001
1000
0001
0200
0000
0310
0000
,
0010
1000
0010
0000
1000
0000
0001
0000
,
0100
0001
0100
0000
0001
0000
1000
0000
,
0001
0010
0001
0000
1000
0100
1000
0000
,
0010
0100
0010
0100
0002
0000
1003
0000
,
1001
0000
0001
0100
0020
0000
0000
1030
,
0000
1000
0100
1000
0200
0000
0000
0000
,
0310
0000
0010
0100
1000
0000
0001
0010
,
0100
0000
1000
0001
1000
0000
0001
0000
,
1001
0000
1000
0100
0020
0000
0000
0031
,
0000
0001
0100
0001
0200
0000
0000
0000
,
0310
0000
0010
1000
0100
0000
0010
0001
,
0100
0000
0001
1000
0001
1000
0001
0000
,
2002
0000
0000
0000
,
0000
3003
0100
0010
,
0220
0000
0000
0000
,
0000
0330
0001
1000
,
0001
0001
0100
0100
,
1000
1000
0010
0010
,
0001
0100
0010
0000
1000
0100
0010
0000
,
0001
0100
0001
0100
0010
1000
0100
0000
,
0220
0000
0000
0330
,
0001
0010
0100
0000
0100
1000
0010
0000
,
0010
1000
0100
0000
0100
0010
0001
0000
,
0001
1000
0010
0000
0010
1000
0001
0000
,
0100
0010
1010
0000
0010
0100
0101
0000
,
1000
0010
0100
0000
0100
0001
0010
0000
,
0010
0001
0100
0000
0100
0010
1000
0000
,
1000
0001
0100
0000
0100
0001
1000
0000
,
2002
3003
1010
0101
,
0110
0000
0010
1000
0200
0000
0010
0310
,
0000
0010
0001
0100
0010
0000
1010
0000
,
1000
0000
0001
0010
0100
0000
0010
0100
,
1000
0000
0010
0100
0001
1000
0010
0000
,
0110
0000
0100
0001
0020
0000
0100
0130
,
0000
0100
1000
0010
0100
0000
0101
0000
,
0001
0000
0010
0100
1000
0000
0001
0010
,
0100
0000
1000
0010
0100
0001
1000
0000
,
2002
0000
0000
0000
,
3003
0000
0000
0000
;

//---------------dance-single - ----------------
#NOTEDATA:;
#CHARTNAME:;
#STEPSTYPE:dance-single;
#DESCRIPTION:;
#CHARTSTYLE:;
#DIFFICULTY:Hard;
#METER:12;
#RADARVALUES:0.496731,0.609821,0.469676,0.295441,0.049240,459.000000,397.000000,62.000000,39.000000,0.000000,0.000000,0.000000,0.000000,0.000000,0.496731,0.609821,0.469676,0.295441,0.049240,459.000000,397.000000,62.000000,39.000000,0.000000,0.000000,0.000000,0.000000,0.000000;
#CREDIT:MILEN;
#DISPLAYBPM:130.000000;
#NOTES:
0000
0000
0000
0000
,
0000
0000
0000
0000
,
0000
0000
0000
0000
,
0000
0000
0110
0110
,
1001
0000
0001
0200
0020
0330
0000
0110
,
0000
1000
0010
0200
0020
0000
0330
0000
,
0110
0000
0001
0010
0100
0000
1000
0100
,
0010
0000
0001
1000
1001
0000
1001
0000
,
0110
0000
0100
0002
2000
3003
0000
1001
,
0000
0010
1000
0002
2000
0000
3003
0000
,
1001
0000
0010
0001
1000
0000
0100
1000
,
0001
0000
1000
0010
0100
0001
1001
0000
,
1000
0100
0010
0002
0000
0103
0010
0110
,
0000
1010
0000
0101
0000
0110
0000
0001
,
0010
0100
1000
0020
0000
0130
0010
2000
,
0000
0001
3001
0000
0000
0011
0000
1100
,
0100
0010
0001
0200
0000
0310
1000
1010
,
0000
0101
0000
1001
0000
0001
0010
0200
,
0000
1300
0010
0100
0001
1000
0100
0010
,
0110
0002
0203
0320
,
1030
1100
0001
0101
,
1000
0010
0100
0001
0010
0100
1000
0000
,
0001
0011
1000
1010
,
0001
0100
0010
1000
0100
0010
0001
0000
,
0101
1100
1010
0011
,
0001
0100
0010
1000
0001
0100
0010
1000
,
0100
0100
0010
0010
0001
0001
1000
1000
,
1001
0020
0230
0320
,
1030
0100
0001
0100
1000
0010
0100
0000
,
0001
0010
1000
0010
0001
0100
0010
0000
,
1000
0100
0110
0000
0001
0010
0110
0000
,
1000
0010
0001
0010
1000
0001
1001
0000
,
1000
0010
0001
0010
1000
0100
0010
0000
,
0001
0100
1000
0100
0001
0010
0100
0000
,
1000
0010
0001
0010
1000
0001
0100
0010
,
0110
2000
3002
2003
,
3020
0000
0100
0100
0130
0000
0000
0101
,
0000
0002
0010
0013
0100
0000
1100
0000
,
2000
0000
0001
0001
3001
0000
0001
0100
,
0110
0000
0010
1000
0100
0010
0011
0000
,
0020
0000
0100
0100
0130
0000
0000
1100
,
0000
2000
0010
3010
0100
0000
0101
0000
,
0002
0000
1000
1000
1003
0000
1000
0010
,
0110
0000
0100
0001
0010
0100
1100
0000
,
2002
0000
0000
0000
,
0000
0000
3003
0000
0001
1000
0100
0010
,
0220
0000
0000
0000
,
0000
0000
0330
0000
0100
0010
0001
1000
,
1001
0010
1100
0001
,
1001
0010
0101
1000
,
0001
0010
0100
1000
0001
0010
0100
1000
,
0010
0001
0010
1000
0010
0001
0010
0100
,
0220
0000
0000
0330
,
1000
0010
0100
0001
0100
1000
0100
0010
,
1000
0100
0001
0100
0010
0100
1000
0010
,
0100
0001
0100
0000
0010
0000
0100
0000
0010
1000
0010
0000
0100
0000
0010
0000
,
1000
0100
1000
0000
0001
0010
0001
0000
0100
0010
0100
0000
0110
0000
0000
0000
,
0001
0010
0100
1000
0100
0001
0100
0010
,
0001
0100
1000
0100
0010
0100
0001
0010
,
0100
1000
0100
0000
1000
0000
0001
0000
0010
0001
0010
0000
0001
0000
1000
0000
,
0010
1000
0010
0000
0100
0001
0100
0000
0110
0000
0000
0000
1001
0000
0000
0000
,
1020
0000
0100
0100
0130
0001
0010
0110
,
0000
0001
0010
1000
0001
0100
0110
0000
,
0012
0000
1000
1000
1003
0000
1000
0010
,
0001
1000
0100
0001
0010
0100
0010
1001
,
0021
0000
0100
0100
0130
1000
0010
0110
,
0000
1000
0100
0001
1000
0010
0010
0110
,
0100
0001
0010
0000
0100
0000
1000
0000
0100
1000
0010
0000
0100
0000
0001
0000
,
0010
0001
1000
0000
0100
1000
0001
0000
0010
0000
0100
0000
1100
0000
0000
0000
,
0022
0000
0000
0000
,
0033
0000
0000
0000
;

//---------------dance-double - ----------------
#NOTEDATA:;
#CHARTNAME:;
#STEPSTYPE:dance-double;
#DESCRIPTION:;
#CHARTSTYLE:;
#DIFFICULTY:Easy;
#METER:6;
#RADARVALUES:0.242413,0.287487,0.113631,0.098480,0.000000,224.000000,209.000000,15.000000,13.000000,0.000000,0.000000,0.000000,0.000000,0.000000,0.242413,0.287487,0.113631,0.098480,0.000000,224.000000,209.000000,15.000000,13.000000,0.000000,0.000000,0.000000,0.000000,0.000000;
#CREDIT:MILEN;
#DISPLAYBPM:130.000000;
#NOTES:
00000000
00000000
00000000
00000000
,
00000000
00000000
00000000
00000000
,
00000000
00000000
00000000
00000000
,
00000000
00000000
00000000
00000000
,
01000000
00001000
00010000
00000000
,
00000010
00010000
00001000
00000000
,
01000000
00001000
00010000
00000010
,
00010000
00001000
00011000
00011000
,
00000100
00010000
00001000
00000000
,
00100000
00001000
00010000
00000000
,
00000100
00010000
00001000
00100000
,
00001000
00010000
00000200
00000310
,
00000110
00000000
00000001
00000000
,
00000100
00000000
00001000
00000000
,
00011000
00000000
00010000
00000000
,
00100000
00000000
10000000
00000000
,
01000000
00100000
01000000
00100000
,
00001000
00010000
00001000
00010000
,
00000100
00000010
00000001
00001000
,
00002002
00003003
00000010
00000100
,
00000010
00000000
00010000
00000000
,
00001000
00000000
01000000
00000000
,
00100000
00000000
00010000
00000000
,
00001000
00000000
00000100
00000000
,
00000010
00000100
00000010
00000000
,
00010000
00001000
00010000
00000000
,
00100000
01000000
00100000
10000000
,
01000000
00010000
00001000
00011000
,
00100000
00010000
00100000
00010000
,
01000000
00001000
01000000
00001000
,
00100000
00010000
01000000
00001000
,
00100000
00010000
02000000
03000000
,
00001000
00010000
00001000
00010000
,
00000010
00001000
00000010
00001000
,
00000100
00010000
00000010
00001000
,
00000100
00010000
00001000
00011000
,
00100000
00001000
00010000
00000000
,
00000010
00010000
00001000
00000000
,
00100000
00001000
00010000
00000010
,
00010000
00001000
00020000
00030100
,
00000100
00010000
00001000
00000000
,
01000000
00001000
00010000
00000000
,
00000100
00010000
00001000
01000000
,
00001000
00010000
00002000
00103000
,
00101000
00000000
00000000
00000000
,
00000000
00000000
00001000
00010000
,
00010010
00000000
00000000
00000000
,
00000000
00000000
00010000
00001000
,
00011000
00000000
00010000
00000000
,
00001000
00000000
00010000
00000000
,
00100000
01000000
00100000
00010000
,
00001000
00000100
00000010
00000100
,
00002002
00000000
00000000
00003003
,
00000001
00000010
00000001
00000010
,
00001000
00010000
00001000
00010000
,
01000000
10000000
00100000
00010000
,
00001000
00100000
00020000
00030000
,
10000000
00100000
10000000
00100000
,
00010000
00001000
00010000
00001000
,
00000100
00000001
00000010
00001000
,
00010000
00000010
00001000
00001001
,
00000001
00000100
00001000
00000000
,
00000100
00001000
00010000
00000000
,
00001000
00010000
00100000
10000000
,
01000000
00100000
20020000
30030000
,
10000000
01000000
00010000
00000000
,
01000000
00010000
00001000
00000000
,
00010000
00001000
00000010
00000001
,
00000100
00000010
00000220
00000330
,
00001001
00000000
00000000
00000000
;

//---------------dance-double - ----------------
#NOTEDATA:;
#CHARTNAME:;
#STEPSTYPE:dance-double;
#DESCRIPTION:;
#CHARTSTYLE:;
#DIFFICULTY:Hard;
#METER:12;
#RADARVALUES:0.491320,0.556793,0.431799,0.280290,0.022726,454.000000,397.000000,57.000000,37.000000,0.000000,0.000000,0.000000,0.000000,0.000000,0.491320,0.556793,0.431799,0.280290,0.022726,454.000000,397.000000,57.000000,37.000000,0.000000,0.000000,0.000000,0.000000,0.000000;
#CREDIT:;
#DISPLAYBPM:130.000000;
#NOTES:
// measure 0
00000000
00000000
00000000
00000000
,  // measure 1
00000000
00000000
00000000
00000000
,  // measure 2
00000000
00000000
00000000
00000000
,  // measure 3
00000000
00000000
00011000
00011000
,  // measure 4
00010010
00000000
00000010
00001000
00000200
00000000
00000000
00000310
,  // measure 5
00000000
00000010
00001000
00010000
00022000
00000000
00033000
00000000
,  // measure 6
00011000
00000000
00001000
00010000
01000000
00000000
10000000
00100000
,  // measure 7
00010000
00000000
00001000
00010000
00011000
00000000
00011000
00000000
,  // measure 8
01001000
00000000
01000000
00010000
00200000
00000000
00000000
01300000
,  // measure 9
00000000
01000000
00010000
00001000
00022000
00000000
00033000
00000000
,  // measure 10
00011000
00000000
00010000
00001000
00000010
00000000
00000001
00000100
,  // measure 11
00001000
00000000
00010000
00001000
00010000
00001000
00022000
00033000
,  // measure 12
00010000
00100000
10000000
02000000
00000000
03100000
01000000
10000000
,  // measure 13
00000000
00100000
00000000
00010000
00000000
00001000
00000000
00000100
,  // measure 14
00000001
00000010
00000100
00000120
00000000
00000031
00000100
00002000
,  // measure 15
00000000
00010000
00013000
00000000
00000000
00010100
00000000
00101000
,  // measure 16
00001000
00000010
00000001
00000200
00000000
00000310
00000100
00000001
,  // measure 17
00000000
00000010
00000000
00001000
00000000
00010000
00100000
20100000
,  // measure 18
00000000
31000000
00100000
00010000
01000000
00100000
00010000
00001000
,  // measure 19
00011000
01001000
00010010
00011000
,  // measure 20
00002000
00103000
00020000
00030100
,  // measure 21
00010000
00001000
00000100
00000001
00000010
00001000
00011000
00000000
,  // measure 22
00020000
00030010
00002000
01003000
,  // measure 23
00001000
00010000
01000000
10000000
00100000
00010000
00001000
00000000
,  // measure 24
00101000
00010010
01001000
00010100
,  // measure 25
00010000
00001000
00000100
00000010
00001000
00000100
00000010
00000001
,  // measure 26
00000100
00001000
00010000
00100000
10000000
01000000
00010000
00001000
,  // measure 27
00011000
02000000
03002000
00023000
,  // measure 28
00030010
00001000
00000100
00000010
00001000
00010000
00001000
00010000
,  // measure 29
00000010
00001000
00000100
00000010
00001000
00010000
00001000
00010000
,  // measure 30
01000000
10000000
00100000
00010000
00001000
00100000
01000000
00010000
,  // measure 31
00001000
00010000
01000000
00010000
00001000
00010000
01000000
00000000
,  // measure 32
00100000
00010000
01000000
00100000
00010000
00001000
00010000
00001000
,  // measure 33
00100000
00010000
01000000
00100000
00010000
00001000
00010000
00001000
,  // measure 34
00000100
00000001
00000010
00001000
00010000
00000010
00000100
00001000
,  // measure 35
00010000
00100000
01100000
00000000
20000000
00000000
32000000
00000000
,  // measure 36
03020000
00000000
00001000
00001000
00031000
00000000
00000000
00101000
,  // measure 37
00000000
00100000
01000000
00010000
00001000
00000000
00011000
00000000
,  // measure 38
00020000
00000000
00000100
00000100
00030100
00000000
00000100
00000010
,  // measure 39
00000011
00000000
00000001
00000010
00001000
00010000
00011000
00000000
,  // measure 40
00002000
00000000
00010000
00010000
00013000
00000000
00000000
00010010
,  // measure 41
00000000
00000010
00000100
00001000
00010000
00000000
00011000
00000000
,  // measure 42
00002000
00000000
01000000
01000000
01003000
00000000
01000000
00100000
,  // measure 43
10100000
00000000
10000000
01000000
00010000
00001000
00011000
00000000
,  // measure 44
00020020
00000000
00000000
00000000
,  // measure 45
00000000
00000000
00030030
00000000
00000010
00010000
00001000
01000000
,  // measure 46
02002000
00000000
00000000
00000000
,  // measure 47
00000000
00000000
03003000
00000000
01000000
00001000
00010000
00000010
,  // measure 48
00001010
00000101
00001100
00011000
,  // measure 49
00110000
10100000
01010000
10010000
,  // measure 50
10000000
01000000
00100000
00001000
00010000
00000100
00000010
00000001
,  // measure 51
00000100
00001000
00010000
00100000
10000000
01000000
00010000
00001000
,  // measure 52
00022000
00000000
00000000
00033000
,  // measure 53
00010000
00000100
00000010
00000001
00000100
00001000
00010000
00001000
,  // measure 54
00010000
00000100
00000010
00000001
00000100
00001000
00010000
00001000
,  // measure 55
00100000
00010000
00100000
00000000
00001000
00000000
00010000
00000000
00000100
00001000
00000100
00000000
00010000
00000000
00001000
00000000
,  // measure 56
00100000
01000000
10000000
00100000
00010000
00001000
00011000
00000000
,  // measure 57
00001000
01000000
00100000
10000000
01000000
00010000
00001000
00010000
,  // measure 58
00001000
01000000
00100000
10000000
01000000
00010000
00001000
00010000
,  // measure 59
00000010
00001000
00000010
00000000
00010000
00000000
00001000
00000000
01000000
00010000
01000000
00000000
00001000
00000000
00010000
00000000
,  // measure 60
00000010
00001000
00000100
00000010
00000011
00000000
00001100
00000000
,  // measure 61
00001002
00000000
00000010
00000010
00000013
00001000
00010000
00110000
,  // measure 62
00000000
10000000
01000000
00100000
00010000
00100000
00101000
00000000
,  // measure 63
00020010
00000000
00001000
00001000
00031000
00000000
00001000
00000100
,  // measure 64
00010000
01000000
00001000
00000100
00010000
01000000
00100000
10000000
,  // measure 65
20010000
00000000
00100000
00100000
30100000
00010000
00001000
00001010
,  // measure 66
00000000
00000001
00000100
00000010
00001000
00000010
00010000
00011000
,  // measure 67
00001000
00010000
00001000
00000000
00100000
00000000
01000000
00000000
00010000
00001000
00010000
00000000
00000100
00000000
00000010
00000000
,  // measure 68
00000001
00000100
00001000
00010000
00100000
10000000
01010000
00000000
,  // measure 69
00022000
00000000
00000000
00000000
,  // measure 70
00033000
00000000
00000000
00000000
;

//---------------dance-double - ----------------
#NOTEDATA:;
#CHARTNAME:;
#STEPSTYPE:dance-double;
#DESCRIPTION:;
#CHARTSTYLE:;
#DIFFICULTY:Medium;
#METER:9;
#RADARVALUES:0.359291,0.397709,0.196961,0.189385,0.000000,332.000000,306.000000,26.000000,25.000000,0.000000,0.000000,0.000000,0.000000,0.000000,0.359291,0.397709,0.196961,0.189385,0.000000,332.000000,306.000000,26.000000,25.000000,0.000000,0.000000,0.000000,0.000000,0.000000;
#CREDIT:MILEN;
#DISPLAYBPM:130.000000;
#NOTES:
// measure 0
00000000
00000000
00000000
00000000
,  // measure 1
00000000
00000000
00000000
00000000
,  // measure 2
00000000
00000000
00000000
00000000
,  // measure 3
00000000
00000000
00001000
00010000
,  // measure 4
00011000
00000000
00001000
00010000
00000200
00000000
00000000
00001300
,  // measure 5
00000000
00001000
00000100
00010000
00002000
00000000
00000000
00000000
,  // measure 6
00013000
00000000
00010000
01000000
10000000
00000000
01000000
10000000
,  // measure 7
00100000
00000000
10000000
00100000
00010000
00000000
00001000
00000000
,  // measure 8
00011000
00000000
00010000
00001000
02000000
00000000
00000000
03010000
,  // measure 9
00000000
00010000
01000000
00001000
00020000
00000000
00000000
00000000
,  // measure 10
00031000
00000000
00001000
00000100
00000001
00000000
00000100
00000001
,  // measure 11
00000010
00000000
00000001
00000010
00001000
00000000
00011000
00000000
,  // measure 12
00010000
00000100
00000000
00001000
00000000
00000010
00000000
00000100
,  // measure 13
00000000
00000001
00000000
00001000
00000000
00000100
00000000
00010000
,  // measure 14
00001000
00010000
00000000
01000000
00000000
10000000
00000000
00100000
,  // measure 15
00000000
01000000
01000000
00000000
00100000
01100000
00000000
00000000
,  // measure 16
10010000
10000000
01000000
00010000
,  // measure 17
00011000
00001000
00000010
00000001
,  // measure 18
00000100
00000010
00000100
00000000
00001000
00010000
00001000
00000000
,  // measure 19
00022000
00033000
00010000
00001000
,  // measure 20
00000010
00000100
00000010
00000000
00000001
00000000
00000100
00000000
,  // measure 21
00001000
00010000
00001000
00000000
00010000
00000000
00100000
00000000
,  // measure 22
10000000
00010000
10000000
00000000
01000000
00000000
00100000
00000000
,  // measure 23
00001000
00010000
00001000
00000000
00000010
00000000
00000001
00000000
,  // measure 24
00000100
00000100
00000010
00000010
,  // measure 25
00001000
00000100
00010000
00000000
00001000
00100000
00010000
00000000
,  // measure 26
01000000
00100000
10000000
00000000
01000000
00010000
00001000
00000000
,  // measure 27
00022000
00033000
00010100
00101000
,  // measure 28
00001000
00010000
00100000
00001000
,  // measure 29
00000010
00010000
00001000
00000100
,  // measure 30
00010000
01000000
00100000
10000000
,  // measure 31
01000000
00010000
00001000
00011000
,  // measure 32
00010000
00001000
00000100
00010000
,  // measure 33
01000000
00001000
00010000
00100000
,  // measure 34
00001000
00000010
00000100
00000001
,  // measure 35
00000010
00001000
00020000
00031000
,  // measure 36
00011000
00000000
00010000
00001000
02000000
00000000
00000000
03010000
,  // measure 37
00000000
00010000
00100000
00010000
00200000
00000000
00000000
00000000
,  // measure 38
01300000
00000000
01000000
10000000
00100000
00000000
10000000
00100000
,  // measure 39
00010000
00000000
00100000
00010000
00001000
00000000
00010000
00000000
,  // measure 40
00011000
00000000
00001000
00010000
00000200
00000000
00000000
00001300
,  // measure 41
00000000
00001000
00000010
00001000
00000020
00000000
00000000
00000000
,  // measure 42
00000130
00000000
00000100
00000001
00000010
00000000
00000001
00000010
,  // measure 43
00001000
00000000
00000010
00001000
00010000
00000000
00001000
00000000
,  // measure 44
00022000
00000000
00000000
00000000
,  // measure 45
00000000
00033000
00001000
00010000
,  // measure 46
00022000
00000000
00000000
00000000
,  // measure 47
00000000
00033000
00010000
00001000
,  // measure 48
00100000
01000000
00010000
00001000
,  // measure 49
00000010
00000100
00010000
00001000
,  // measure 50
00000100
00010000
01000000
00001000
,  // measure 51
00010000
00001000
00010000
00001000
00010000
00001000
00010000
00000000
,  // measure 52
00022000
00000000
00000000
00033000
,  // measure 53
00001000
00100000
00010000
00000000
01000000
00001000
00010000
00000000
,  // measure 54
00001000
00100000
00010000
00000000
01000000
00001000
00010000
00000000
,  // measure 55
00100000
10000000
01000000
00000000
10000000
01000000
00100000
00000000
,  // measure 56
00100000
00001000
00011000
00000000
00000010
00010000
00011000
00000000
,  // measure 57
00010000
00000010
00001000
00000000
00000100
00010000
00001000
00000000
,  // measure 58
00010000
00000010
00001000
00000000
00000100
00010000
00001000
00000000
,  // measure 59
00000010
00000001
00000100
00000000
00000001
00000100
00000010
00000000
,  // measure 60
00000220
00000330
00000101
00001010
,  // measure 61
00001001
00000000
00000001
00000100
00002000
00000000
00010000
00013000
,  // measure 62
00000000
00001000
00010000
00100000
01000000
00000000
01100000
00000000
,  // measure 63
00100000
00000000
10000000
01000000
00100000
00000000
01000000
00100000
,  // measure 64
00010000
00000000
00100000
00001000
00010000
00100000
10000000
00000000
,  // measure 65
10010000
00000000
10000000
00100000
00020000
00000000
00001000
00031000
,  // measure 66
00000000
00010000
00001000
00000010
00000100
00000000
00000110
00000000
,  // measure 67
00000010
00000000
00000001
00000100
00001000
00000000
00010000
00100000
,  // measure 68
10000000
00000000
01000000
00010000
00001000
00010000
00001000
00000000
,  // measure 69
00022000
00000000
00000000
00000000
,  // measure 70
00033000
00000000
00000000
00000000
;
