#TITLE:Wish;
#SUBTITLE:;
#ARTIST:Z-I-v Sound Team "Karl with a K";
#TITLETRANSLIT:;
#SUBTITLETRANSLIT:;
#ARTISTTRANSLIT:;
#GENRE:;
#CREDIT:;
#BANNER:Wish-banner.png;
#BACKGROUND:Wish-bg.png;
#LYRICSPATH:;
#CDTITLE:;
#MUSIC:Wish.ogg;
#OFFSET:0.000000;
#SAMPLESTART:97.578941;
#SAMPLELENGTH:15.000000;
#SELECTABLE:YES;
#BPMS:0.000000=190.000000
,232.000000=95.000000
,260.000000=47.500000
,262.000000=190.000000
;
#STOPS:396.750000=0.316000
;
#BGCHANGES:;
#KEYSOUNDS:;
#ATTACKS:;

//---------------dance-double - ----------------
#NOTES:
     dance-double:
     :
     Challenge:
     17:
     0.690893,0.923786,0.303559,0.683008,0.344954,701.000000,657.000000,44.000000,99.000000,0.000000,0.000000,0.690893,0.923786,0.303559,0.683008,0.344954,701.000000,657.000000,44.000000,99.000000,0.000000,0.000000:
00000000
00000000
00000000
00000000
,
00000000
00000000
00000000
00000000
,
00000000
00000000
00000000
00000000
,
00000000
00000000
00000000
00000000
,
00000000
00000000
00000000
00000000
,
00022000
00000000
00000000
00033000
,
02020000
00000000
00000000
03030000
,
10000000
00000000
01000000
00100000
00010000
00000000
00110000
00000000
00000000
00000000
00101000
00000000
00000000
00000000
00020020
00000000
,
00000000
00000000
00030030
00000000
00000010
00000100
00000010
00000000
00001000
00000002
00000010
00000000
00002003
00000000
00000001
00000000
,
00003100
00000000
00000110
00000000
00000010
00000001
00000100
00000010
,
00010000
00000000
00001000
00000010
00000000
00001000
00010000
01000000
,
00100000
00010000
10000000
00100000
01000000
00100000
00010000
00100000
,
10000000
01000000
00100000
00010000
00100000
00001000
00010000
00000010
,
00000120
00000000
00001030
00000100
00000000
00000100
00000010
00000000
,
00000021
00000000
00000031
00000100
00000010
00001000
00000001
00000000
,
00000010
00000000
00000100
00001000
00000100
00000000
00010000
00000000
00001000
01000000
00001000
00000000
00100000
00000000
00001000
00100000
,
00001000
00000000
00010000
00000010
00001000
00000010
00010000
00000000
00020010
00000000
00000000
00000000
00031000
00000000
00001000
00000000
,
00010000
00010000
01000000
01000000
20000000
00000000
01000000
00000000
,
30010000
01000000
00001000
00010000
00010200
00000000
00000010
00000000
,
00001000
00010300
00001000
00010000
,
00001000
01000000
02000000
00100000
,
00010000
03001000
00020000
00032000
,
00003020
00000000
00000032
00000000
00000103
00000010
00001000
00000010
,
00000100
00000000
00001010
00000000
00010000
00001000
00100000
01000000
,
10000000
00000000
01000000
10000000
00100000
00000000
01000000
00010000
,
00100000
00000000
01000000
00100000
00010000
00000000
01000000
00000000
00001000
00010000
00001000
00000000
00010000
00000010
00010000
00000010
,
00000100
00000000
00000000
00000000
00000000
00000000
00000100
00000000
00000001
00001000
00000000
00000000
00000100
00000000
00000000
00000000
,
00000100
00000000
00000100
00000000
00000000
00000000
00000000
00000000
00010100
00000000
00000000
00010000
00000000
00000000
00010000
00000000
,
00001000
00000000
00000000
00000000
00100000
00000000
00000000
00000000
01000000
00000000
00100000
00000000
00000000
00100000
00000000
00000000
,
00010000
00000000
00000000
00000000
00000000
00000000
00010000
00000000
10000000
00100000
10000000
00100000
01000000
00000000
00000000
01000000
,
00010000
01000000
00001000
00000000
00010000
00000000
00000000
00001000
,
00010000
00001000
00000000
00000000
00000010
00000000
00000000
00000000
00000001
00000000
00000001
00000000
00000000
00000000
00000000
00000000
,
00001000
00000000
00000000
00001000
00000010
00000000
00000100
00000000
00000010
00000000
00000000
00000000
00001000
00000000
00000000
00000000
,
00000100
00000000
00000010
00000100
00000010
00000000
00000001
00000100
00000010
00000000
00000100
00000000
00000001
00000000
00000100
00000000
,
00000010
00001000
00000010
00000000
00010000
00000000
00001000
00000000
00100000
00000000
00010000
00000000
10000000
00000000
01000000
00000000
,
00100000
00000000
00010000
00100000
01000000
00000000
10000000
00000000
00010000
00000000
10000000
00000000
00100000
00000000
10000000
00000000
,
00010000
00000000
01000000
00010000
01000000
00000000
00001000
00000000
00010000
00000000
00000100
00000000
00000010
00000000
00000001
00000000
,
00000100
00000010
00000100
00000000
00000001
00000000
00000100
00000010
00000100
00000000
00000010
00000000
00002000
00000000
00000000
00000000
,
00003001
00000000
00000001
00000000
00000100
00000000
00001000
00000000
00010000
00001000
00010000
00000000
01000000
00000000
10000000
00000000
,
01000000
00000000
00100000
00000000
00010000
00000000
01000000
00000000
00001000
00000000
00100000
00001000
00100000
00000000
00001000
00000000
,
00010000
00000000
00001000
00000000
00000010
00000000
00000010
00000000
00000001
00000000
00001000
00000000
00000001
00001000
00000001
00001000
,
00000100
00000000
00000010
00000000
00000001
00000000
00000010
00000000
00000100
00001000
00000100
00000000
00010000
00000000
00001000
00000000
,
01000000
00000000
00010000
00000000
10000000
00000000
00100000
00000000
01000000
00000000
00010000
01000000
00100000
00000000
10000000
00000000
,
00010000
00000000
10000000
00000000
01000000
00000000
10000000
00000000
00010000
00000000
00100000
00010000
00100000
00000000
00001000
00000000
,
00010000
00000000
00000010
00000000
00000100
00000000
00000001
00000000
00000010
00000100
00000010
00000000
00000001
00000000
00000010
00000100
,
00000010
00000100
00002000
00000000
00003001
00000001
00000010
00001000
,
00010000
00001000
00010000
00000000
00100000
00000000
10000000
00000000
00100000
00000000
01000000
00000000
00010000
00000000
00100000
00000000
,
00001000
00000000
01000000
00001000
01000000
00000000
00001000
00000000
00010000
00000000
00001000
00000000
00000100
00000000
00000100
00000000
,
00000001
00000000
00000001
00001000
00000001
00001000
00000001
00000000
00000021
00000000
00000000
00000230
00001000
00000000
00000300
00000000
,
00000100
00020000
00000000
00000000
00032000
00000000
00000000
00000000
01003000
00000000
00010000
00000000
00000000
00000000
10000000
00000000
,
01000000
00000000
00200000
00000000
00320000
00000000
01000000
01030000
,
00000000
00001000
00001000
00000000
01000000
00001000
00010000
00001000
,
00010000
00000000
00000100
00000000
00000010
00000100
00000000
00000100
00001000
00000000
00000020
00000000
00000000
00000000
00000000
00000000
,
00000130
00000001
00000010
00000100
00000100
00001000
00000010
00010000
,
00010000
00000000
00000000
00001000
00000000
00000000
00100000
00000000
00000000
01000000
00000000
00000000
10000000
00000000
00100000
00000000
01000000
00000000
00010000
00000000
01000000
00000000
00001000
00000000
,
00010000
00000100
00001000
00000100
00000010
00000001
00000100
00000010
00001000
00000100
00010000
00001000
,
00200000
00000000
00000000
00000000
,
00000000
00000000
00000000
00000000
00000000
00000000
01000000
01000000
,
02300000
23000000
30020000
00230000
,
00302000
00000000
00100000
00003000
00010000
01000000
00000000
02000000
00000000
00000000
03010000
01000000
00002000
00000000
00023000
00000000
,
00030020
00000000
00010030
00001000
00000000
00000100
00000000
00000002
00000000
00000000
00000103
00000000
00000200
00000000
00000001
00000000
,
00000320
00001000
00020030
00001000
00030200
00001000
00000320
00000100
,
00002030
00000000
00013000
00000020
00001000
00000000
00010030
00001000
01000000
00000000
00020000
00000000
20030000
00000000
32000000
00000000
,
03200000
00000000
01000000
00000000
00310000
01000000
00000000
02000000
00000000
00000000
03010000
01000000
00001000
00000000
00010000
00000000
,
00000010
00000000
00001000
00000100
00000000
00000010
00000000
00000020
00000000
00000000
00000031
00000000
00000002
00000000
00000203
00000000
,
00002300
00000000
00000000
00000000
00000000
00000000
00000000
00003000
00012000
00000000
00013000
00000000
00000000
00000000
00021000
00000000
,
00031000
00000000
00012000
00013000
00000000
00021000
00031000
00000000
,
00001000
00010000
00001000
01000000
00000000
00001000
00010000
00000100
00000000
00011000
00000000
00000000
00102000
00000000
00013000
00000000
,
00000000
00020010
00031000
00000000
00101000
21000000
30020000
01030000
,
00100000
00000000
00100000
10000000
00010000
00100000
01000000
00000000
00210000
00000000
00000000
00000000
01300000
00000000
10000000
00000000
,
00010000
01000000
00100000
00010000
00002000
00000000
00013000
00000200
,
00000000
00000320
00000000
00000031
00000002
00000000
00000103
00000020
,
00001000
00000000
00000230
00000000
00001300
00000100
00000010
00010000
,
00000000
00001000
00010000
00100000
00200000
00000000
01300000
00000000
,
00010000
10000000
01000000
00100000
00200000
00000000
01000000
00000000
,
02300000
00000000
00000000
00000000
03020000
00000000
00000000
00000000
00031000
00000000
00000100
00000010
00000100
00000000
00000110
00000000
,
00000000
00000000
00001001
00000000
00000000
00000000
00000021
00000000
00000130
00000000
00001000
00000010
00000100
00000010
00000100
00000000
,
00000001
00000000
00000010
00000000
00000100
00000010
00000001
00000000
00001020
00000000
00000000
00000000
00000130
00000000
00000001
00000000
,
00001000
00000100
00000010
00001000
00020000
00000000
00031000
02000000
,
00000000
03200000
00000000
10300000
20000000
00000000
31000000
00200000
,
00010000
00000000
02300000
00000000
03010000
01000000
00100000
00001000
,
00000000
00010000
00001000
00000010
00000020
00000000
00000230
00000000
,
00001300
00000001
00000100
00000010
00000020
00000000
00000100
00000000
,
00000230
00000000
00000000
00000000
00002300
00000000
00000000
00000000
00013000
00000000
01000000
00100000
01000000
00000000
01100000
00000000
,
00000000
00000000
10010000
00000000
00000000
00000000
10200000
00000000
00000000
00000000
01300000
00010000
01000000
00000000
00010000
00000000
,
00100000
00001000
00100000
00000000
00001000
00000000
00010000
00000100
00000020
00000000
00000000
00000000
00000031
00000000
00000020
00000000
,
00000001
00000000
00000130
00000000
00000010
00000001
00000000
00000001
,
00000000
00001000
00000100
00010000
00001000
02000000
00010000
00000000
,
03100000
00000000
00000000
00000000
01000000
00000000
00100000
00000000
10000000
00000000
00000000
01000000
00000000
00000000
10000000
00000000
,
00000000
01000000
00000000
00000000
00200000
00000000
00000000
00000000
00302000
00000000
00000000
00000000
00010000
00000000
00000000
00000000
,
01003000
00010000
10000000
00010000
20000000
00000000
30100000
02000000
,
00000000
00000000
00000000
00000000
03001000
00010000
00001000
00000000
00200000
00000000
00000000
00000000
00301000
00000000
00200000
00000000
,
00000000
00310000
00001000
00000000
00000020
00000000
00000130
00000001
,
00000000
00000000
00000010
00000000
00000000
00000100
00000000
00000000
00000010
00000000
00000100
00001000
00000100
00000000
00000010
00000000
,
00000100
00010000
00001000
00000000
00100000
00000000
00010000
01000000
00010000
00000000
00100000
00000000
00010000
01000000
00001000
00000000
,
00101000
00011000
00000000
00010010
00011000
00000000
00110000
00101000
,
00000000
00001010
00010010
00000000
00101000
00010100
00000000
00010010
,
01001000
00000000
00000000
00000000
10010000
00000000
10000000
00000000
01000000
00100000
00010000
00000000
10000000
00000000
00100000
01000000
,
00010000
00000000
01000000
00000000
00001000
00010000
00001000
00000000
00010000
00000000
00000010
00000000
00000100
00000010
00000100
00000010
,
00000100
00000001
00001000
00000100
00022000
00000000
00000000
00000000
00000000
00000000
00000000
00000000
00000000
00000000
00000000
00000000
,
00000000
00000000
00000000
00000000
,
00000000
00000000
00000000
00000000
,
00000000
00000000
00000000
00000000
,
00033000
00000000
00000000
00000000
;

//---------------dance-double - ----------------
#NOTES:
     dance-double:
     :
     Hard:
     13:
     0.502647,0.639544,0.172477,0.586421,0.106936,510.000000,485.000000,25.000000,85.000000,0.000000,0.000000,0.502647,0.639544,0.172477,0.586421,0.106936,510.000000,485.000000,25.000000,85.000000,0.000000,0.000000:
00000000
00000000
00000000
00000000
,
00000000
00000000
00000000
00000000
,
00000000
00000000
00000000
00000000
,
00000000
00000000
00000000
00000000
,
00000000
00000000
00000000
00000000
,
00022000
00000000
00000000
00033000
,
00020200
00000000
00000000
00030300
,
00000100
00000010
00000100
00000110
00000000
00000011
00000000
00002002
,
00000000
00003003
00000001
00000100
00001000
00010000
00100000
10000000
,
02000000
00000000
00100000
00000000
13000000
01000000
00100000
00000000
,
00002000
00000000
01003000
00010000
00000000
01000000
00000000
00001000
,
00002000
00000000
00013000
00002000
00000000
00000000
01000000
00000000
,
00013000
00000100
00000000
00000010
00000000
00000001
00000010
00000000
,
00000020
00000000
00000130
00000000
00000000
00001000
00000010
00000000
,
00000020
00000130
00000001
00000100
,
00000010
00001000
00000000
00001010
00000000
00000010
00010000
00001000
,
00000000
00011000
00000000
00001000
00200000
00000000
01000000
01000000
,
01000000
01300000
20020000
00000000
,
00000000
30030000
10000000
00100000
,
01000000
00010000
00100000
00001000
,
00010000
00000010
00001000
00000100
,
00000010
00000001
00000100
00000010
,
00010000
00021000
01030000
10000000
,
00100000
00020000
00031000
00000100
,
00000002
00000013
00002000
00013000
,
00200000
00300000
00200000
00300000
01100000
00000000
10010000
00000000
,
10000000
00000000
00000000
10000000
01000000
00000000
01000000
00000000
,
10000000
00000000
10000000
00000000
00000000
00000000
00000000
00000000
00010000
00000000
00000000
01000000
00000000
00000000
01000000
00000000
,
00010000
00000000
00000000
00000000
01000000
00000000
00000000
00000000
00001000
00000000
00010000
00000000
00000000
00010000
00000000
00000000
,
00000100
00000000
00000000
00000000
00000000
00000000
00000100
00000000
00000010
00000000
00000010
00000000
00000001
00000000
00000000
00000001
,
00000000
00000001
00000100
00000000
00000010
00000000
00000000
00010000
,
00010000
00000000
00001000
00000000
00100000
00100000
00000000
00000000
,
01000000
00000000
00000000
01000000
10000000
00000000
00100000
00000000
01000000
00000000
00000000
00000000
00002000
00000000
00000000
00000000
,
00023000
00000000
00030200
00000000
00000310
00000001
00000100
00000000
,
00000010
00000100
00001000
00010000
00000100
00001000
00000100
00000000
,
00010000
00001000
01000000
00000000
00000000
00010000
00100000
00000000
,
01000000
10000000
01000000
00100000
00001000
00000000
00010000
00000000
,
00000100
00000100
00000010
00000100
00001000
00000000
00000020
00000000
,
00000100
00000000
00001030
00000001
00000010
00000001
00001000
00000010
,
00010000
00001000
00100000
01000000
10000000
00010000
01000000
00100000
,
01000000
00100000
10000000
10000000
00010000
00010000
10000000
00000000
,
00100000
10000000
01000000
00000000
00100000
01000000
00010000
00001000
,
01000000
00010000
01000000
00000000
00001000
00010000
00000100
00000000
,
00000000
00001000
00000010
00000000
00000100
00000001
00000100
00000010
,
00010000
00010000
00001000
00001000
02000000
00000000
03100000
01000000
,
00010000
00000000
00200000
00000000
01000000
00000000
00310000
10000000
,
00100000
10000000
00010000
00100000
00001000
00010000
00000010
00000100
,
00000001
00001000
00000100
00000010
00000100
00000010
00000001
00000001
,
00001000
00000000
00001000
00000000
00000001
00000000
00000001
00000000
00000010
00000000
00000000
00000020
00000000
00000000
00000000
00000000
,
00000130
00001000
00000000
00000000
00002000
00000000
00000000
00000000
00003010
00000000
00010000
00000000
00000000
00000000
00010000
00000000
,
00001000
00000000
00200000
00000000
02300000
00000000
13000000
00010000
,
00000000
10000000
00010000
00000000
01000000
00100000
01000000
00100000
,
10000000
00000000
00000000
00000000
00100000
00000000
00000000
00100000
01000000
00000000
00020000
00000000
00000000
00000000
00000000
00000000
,
10030000
01000000
00100000
00010000
01000000
00001000
00010000
00001000
,
00010000
00000000
00000000
00000010
00000000
00000000
00000100
00000000
00000000
00000001
00000000
00000000
00000010
00000000
00000000
00000000
00000100
00000000
00000000
00000000
00001000
00000000
00000000
00000000
,
00010000
00000000
00100000
00000000
10000000
00000000
00010000
00000000
01000000
00000000
10000000
00000000
,
00200000
00000000
00000000
00000000
,
00000000
00000000
00000000
00320000
,
20030000
32000000
03020000
00032000
,
00003200
00000000
00000000
00000000
00000310
00000001
00000000
00000002
00000000
00000000
00000003
00000001
00000100
00000000
00000010
00000000
,
00000020
00000000
00000030
00001000
00000000
00000100
00000000
00020000
00000000
00000000
00030000
00000000
00010000
00000000
00010000
00000000
,
00000020
00020030
00032000
02003000
,
03020000
00000000
00000000
00230000
00000000
00000000
00000000
00000000
01300000
00000000
10000000
00000000
01000000
00000000
00100000
00000000
,
00020000
00000000
00000000
00000000
10030000
01000000
00000000
02000000
00000000
00000000
03000000
01000000
00100000
00000000
00001000
00000000
,
00020000
00000000
00030000
00000100
00000000
00001000
00000000
00000020
00000000
00000000
00000030
00000000
00000200
00000000
00000000
00000000
,
00000320
00000000
00000000
00000000
00001030
00001000
00000000
00010000
,
00010000
00000000
10000000
10000000
00000000
00010000
00010000
00000000
,
00000000
00100000
00001000
00000000
00000000
00010000
00000000
00000100
00000000
00010000
00000000
00000000
00011000
00000000
00001000
00000000
,
00000000
00011000
00010000
00000000
00011000
00001000
00000200
00000000
,
00000302
00000013
00000120
00000001
,
00000130
00001000
00000010
00000000
00020010
00000000
00031000
00010000
,
00000000
00001000
00000000
00100000
00200000
00000000
01300000
20000000
,
00010000
00000000
01000000
00000000
30010000
01000000
00010000
10000000
,
00000000
00100000
01000000
00001000
00002000
00000000
00010000
00000000
,
00013000
00000100
00000010
00000000
00000020
00000000
00000130
00001000
,
00000001
00000000
00000010
00000000
00000100
00010000
00000000
00001010
,
00000000
00010000
00000000
00021000
00000000
00000000
02030000
00000000
,
23000000
30100000
01200000
10000000
,
01300000
00010000
00100000
00000000
00102000
00000000
00013000
00001000
,
00000000
00010000
00000000
00000010
00000020
00000000
00000130
00000002
,
00001000
00000000
00000100
00000000
00001003
00000100
00001000
00000001
,
00000000
00000010
00000100
00010000
00020000
00000000
00001000
00000000
,
00031000
01000000
00100000
00000000
00200000
00000000
01300000
00010000
,
10000000
00000000
00100000
00000000
01000000
00001000
00000000
00110000
,
00000000
00001000
00000000
00012000
00000000
00000000
00003200
00000000
,
00000320
00000000
00002030
00000000
00003002
00000000
00000103
00000020
,
00000100
00000000
00001000
00000000
00001030
00000100
00000000
00010000
,
00000000
00001000
01000000
00001000
01000000
00020000
00000000
00000000
,
00230000
00000000
01300000
10000000
00010000
00000000
01000000
00100000
,
00010000
00001000
00000020
00000100
,
00000031
00001000
00000100
00000000
00000020
00000000
00000000
00002030
,
00000000
00000000
00013000
00000000
00200000
00000000
00300000
00100000
,
00000000
01000000
00010000
00000000
00100000
00000000
01000000
10000000
,
00000000
00000000
00100000
00000000
00000000
01000000
00000000
00000000
00010000
00000000
00100000
00000000
00000000
00000000
00110000
00000000
,
00000000
00010000
00001000
00000010
00000000
00001010
00000000
00001000
,
00010000
00010000
00000000
00100000
00100000
00000000
00010000
00001000
,
00000000
00000010
00000010
00000000
00010000
00000100
00000000
00001000
,
00010000
00000000
01000000
00100000
10000000
01000000
00100000
00010000
,
01000000
00100000
10000000
01000000
00010000
00001000
00000010
00000001
,
00000100
00000010
00000220
00000000
00000000
00000000
00000000
00000000
,
00000000
00000000
00000000
00000000
,
00000000
00000000
00000000
00000000
,
00000000
00000000
00000000
00000000
,
00000330
00000000
00000000
00000000
;

//---------------dance-double - ----------------
#NOTES:
     dance-double:
     :
     Medium:
     10:
     0.355795,0.426363,0.020697,0.462238,0.065541,361.000000,358.000000,3.000000,67.000000,0.000000,0.000000,0.355795,0.426363,0.020697,0.462238,0.065541,361.000000,358.000000,3.000000,67.000000,0.000000,0.000000:
// measure 0
00000000
00000000
00000000
00000000
,  // measure 1
00000000
00000000
00000000
00000000
,  // measure 2
00000000
00000000
00000000
00000000
,  // measure 3
00000000
00000000
00000000
00000000
,  // measure 4
00000000
00000000
00000000
00000000
,  // measure 5
00020000
00000000
00000000
00000000
,  // measure 6
00032000
00000000
00000000
00000000
,  // measure 7
01003000
00000000
00000000
00100000
00000000
00100000
00000000
20000000
,  // measure 8
00000000
31000000
00100000
01000000
,  // measure 9
00200000
00000000
00000000
00301000
00000000
00000000
00010000
00000000
,  // measure 10
00000020
00000000
00000000
00000130
00000000
00000001
00000000
00000001
,  // measure 11
00000020
00000000
00000000
00000230
00000000
00000000
00020300
00000000
,  // measure 12
00031000
01000000
00000000
00010000
00000000
01000000
00100000
00000000
,  // measure 13
00200000
00000000
00000000
00000000
10300000
00010000
00100000
00000000
,  // measure 14
00200000
00000000
01300000
10000000
,  // measure 15
00100000
01000000
00000000
00001000
00000000
00000000
00010000
00000100
,  // measure 16
00000000
00000010
00000000
00000000
00000002
00000000
00000010
00000000
,  // measure 17
00000010
00000000
00000010
00000000
00000103
00000010
00001000
00000000
,  // measure 18
00000100
00000010
00000200
00000000
,  // measure 19
00000000
00000000
00000000
00000000
,  // measure 20
00000000
00000000
00000000
00000000
,  // measure 21
00000000
00000000
00000000
00000000
,  // measure 22
00000000
00010300
00010000
00000010
,  // measure 23
00000010
00000100
00000100
00000001
,  // measure 24
00000010
00000100
00001000
00010000
,  // measure 25
00100000
00000000
00100000
00000000
01000000
00100000
00010000
00000000
,  // measure 26
10000000
00000000
00000000
10000000
00100000
00000000
00100000
00000000
,  // measure 27
01000000
00000000
00010000
00000000
00000000
00000000
00000000
00000000
00100000
00000000
00000000
00010000
00000000
00000000
00000000
00000000
,  // measure 28
10000000
00000000
00000000
00000000
01000000
00000000
00000000
00000000
00010000
00000000
00000000
00000000
00000000
00001000
00000000
00000000
,  // measure 29
00010000
00000000
00000000
00010000
00000010
00000000
00000100
00000000
,  // measure 30
00000001
00000000
00000010
00000000
00000100
00000000
00000000
00000010
,  // measure 31
00000100
00000000
00010000
00000000
00001000
00010000
00000000
00000000
,  // measure 32
00001000
00000100
00001000
00010000
,  // measure 33
00010000
01000000
10000000
01000000
,  // measure 34
00100000
01000000
00100000
00000000
00010000
00000000
01000000
00000000
,  // measure 35
00001000
00000000
00010000
00001000
00010000
00000000
00000100
00000000
,  // measure 36
00000010
00000001
00000100
00000010
,  // measure 37
00000100
00000100
00000001
00000000
00000100
00000000
00000010
00000000
,  // measure 38
00000010
00000001
00000010
00000100
,  // measure 39
00000010
00001000
00000010
00010000
,  // measure 40
00001000
00000000
00100000
00000000
00100000
00000000
00100000
01000000
,  // measure 41
10000000
00000000
00100000
00000000
01000000
00100000
01000000
00000000
,  // measure 42
00010000
00000000
00100000
00000000
00001000
00000000
00010000
00001000
,  // measure 43
00010000
00000010
00000100
00000001
,  // measure 44
00000010
00000200
00000320
00000031
,  // measure 45
00000010
00000100
00000100
00000001
,  // measure 46
00000100
00000010
00000100
00001000
,  // measure 47
00000100
00010000
00001000
01000000
,  // measure 48
00100000
00000000
00000000
00000000
00010000
00000000
00100000
00000000
01000000
00000000
00000000
02000000
00000000
00000000
00000000
00000000
,  // measure 49
00000000
03020000
00000000
00000000
00030000
00000000
00000000
00000000
10000000
00000000
01000000
00000000
00000000
00000000
00100000
00000000
,  // measure 50
00010000
00100000
00002000
00010000
,  // measure 51
00000000
00013000
00000000
00000000
00001000
00000000
00010000
00000000
,  // measure 52
00000010
00000000
00000010
00000100
00000000
00000002
00000000
00000003
,  // measure 53
00000001
00000010
00000100
00000010
,  // measure 54
00001000
00010000
00200000
02300000
,  // measure 55
03020000
00230000
02300000
23000000
,  // measure 56
30200000
00000000
00000000
00000000
,  // measure 57
00000000
00000000
00000000
00000000
,  // measure 58
00320000
00001000
00001000
00000010
,  // measure 59
00032000
00000000
00000000
00000000
00003000
00010000
00000000
00020000
00000000
00000000
00030000
00010000
00000100
00000000
00000010
00000000
,  // measure 60
00000020
00000000
00000030
00000001
00000000
00001000
00000000
00000020
00000000
00000000
00000030
00000000
00000020
00000000
00000000
00000000
,  // measure 61
00020030
00032000
02003000
03200000
,  // measure 62
10300000
00000000
00000000
20000000
00000000
00000000
00000000
00000000
31000000
00000000
00100000
00000000
00001000
00000000
00000000
00000000
,  // measure 63
00020000
00000000
00000000
00000000
00030000
00001000
00000000
00002000
00000000
00000000
00003000
00000000
01000000
00000000
00100000
00000000
,  // measure 64
10000000
00000000
00000000
01000000
00000000
00010000
00000000
00020000
00000000
00000000
00030000
00000000
00002000
00000000
00000000
00000000
,  // measure 65
00023000
00000000
00000000
00000000
00030100
00000100
00000000
00000100
,  // measure 66
00000100
00000000
00010000
00010000
00000000
00001000
00001000
00000000
,  // measure 67
00000000
00010000
00000000
00000000
00000000
00001000
00000000
00000000
00000000
00001000
00000000
00000000
01000000
00000000
01000000
00000000
,  // measure 68
00000000
01000000
01000000
00000000
01100000
00000000
01000000
00000000
,  // measure 69
00010000
10000000
10200000
00000000
,  // measure 70
01300000
00010000
00200000
00000000
,  // measure 71
01300000
00000000
00010000
00000000
00001000
00000000
00000000
00000100
,  // measure 72
00000000
00000001
00001000
00000100
,  // measure 73
00000010
00000001
00000002
00000000
,  // measure 74
00000103
00000000
00001000
00000000
00020000
00000000
00000000
01030000
,  // measure 75
00100000
00000000
00010000
00000000
10000000
00010000
00000000
00100000
,  // measure 76
00000000
01000000
00000000
20000000
00000000
00000000
31000000
00000000
,  // measure 77
10000000
00010000
12000000
00000000
,  // measure 78
03100000
00010000
02000000
00000000
,  // measure 79
03100000
00000000
00010000
00000000
00001000
00000000
00000000
00000010
,  // measure 80
00000000
00000001
00001000
00000010
,  // measure 81
00000100
00000001
00000002
00000000
,  // measure 82
00000013
00000000
00001000
00000000
00020000
00000000
00000000
00130000
,  // measure 83
01000000
00000000
00010000
00000000
10000000
00010000
00000000
01000000
,  // measure 84
00000000
00100000
00000000
20000000
00000000
00000000
30100000
00000000
,  // measure 85
10000000
00010000
20000000
00000000
,  // measure 86
30200000
00000000
00000000
00000000
01300000
00001000
00000000
00010000
,  // measure 87
00000000
00000100
00010000
00000000
00002000
00000000
00000000
00000000
,  // measure 88
00003020
00000230
00002300
00003020
,  // measure 89
00000230
00000302
00000023
00000000
,  // measure 90
00000130
00001000
00000100
00000000
00020000
00000000
00000000
00032000
,  // measure 91
00000000
00000000
01003000
00000000
00200000
00000000
00000000
20300000
,  // measure 92
00000000
00000000
31000000
00000000
00200000
00000000
00000000
00310000
,  // measure 93
00000000
00001000
00000000
00000000
00000010
00000100
00000000
00001000
,  // measure 94
00000000
00010000
00100000
01000000
00000000
00010000
00000000
00001000
,  // measure 95
00000010
00001000
00000000
00010000
00100000
00000000
00010000
00001000
,  // measure 96
00000000
00000010
00001000
00000000
00000010
00000001
00000000
00000010
,  // measure 97
00001000
00010000
00100000
10000000
,  // measure 98
00100000
00000000
00010000
00000000
00100000
00000000
00001000
00010000
,  // measure 99
00001000
00010000
00000200
00000000
00000000
00000000
00000000
00000000
,  // measure 100
00000000
00000000
00000000
00000000
,  // measure 101
00000000
00000000
00000000
00000000
,  // measure 102
00000000
00000000
00000000
00000000
,  // measure 103
00000300
00000000
00000000
00000000
;

//---------------dance-double - ----------------
#NOTES:
     dance-double:
     :
     Easy:
     7:
     0.281876,0.390832,0.027596,0.289761,0.013798,286.000000,282.000000,4.000000,42.000000,0.000000,0.000000,0.281876,0.390832,0.027596,0.289761,0.013798,286.000000,282.000000,4.000000,42.000000,0.000000,0.000000:
00000000
00000000
00000000
00000000
,
00000000
00000000
00000000
00000000
,
00000000
00000000
00000000
00000000
,
00000000
00000000
00000000
00000000
,
00000000
00000000
00000000
00000000
,
00002000
00000000
00000000
00000000
,
00023000
00000000
00000000
00000000
,
00030100
00000000
00000000
00000010
00000000
00000000
00000000
00000002
,
00000000
00000000
00000103
00000000
,
00000200
00000000
00000310
00001000
,
00000002
00000000
00001003
00000100
,
00001000
00000000
00000000
00010000
00000000
00000000
01000000
00000000
,
00010000
00000000
00000000
10000000
00000000
00000000
10000000
00000000
,
00200000
00000000
10300000
01000000
,
00200000
00000000
01300000
00010000
,
00001000
00000000
00000000
00001000
00000000
00000000
00010000
00000000
,
00000000
00010000
00000000
00000000
00000100
00000000
00000010
00000000
,
00000100
00000010
00000002
00000000
,
00000000
00000000
00000203
00000000
,
00000000
00000000
00000000
00000000
,
00000000
00000000
00000000
00000000
,
00000000
00000000
00000000
00000000
,
00000000
00000320
00000000
00000000
,
00000000
00002030
00000000
00000000
,
00023000
00000000
02030000
00000000
,
03100000
10000000
10000000
00010000
,
10000000
00000000
01000000
01000000
,
00100000
00000000
00010000
00100000
,
00001000
00010000
00100000
00010000
,
00001000
00000000
00000000
00010000
00001000
00000000
00000010
00000000
,
00000010
00000001
00000100
00000000
,
00000100
00001000
00010000
00000000
,
00001000
00100000
01000000
10000000
,
10000000
00010000
10000000
00100000
,
00100000
01000000
00010000
01000000
,
00001000
00010000
00000100
00001000
,
00000100
00000010
00000001
00000100
,
00001000
00010000
00010000
00000010
,
00000010
00001000
00000010
00000100
,
00000001
00000010
00000100
00001000
,
00010000
00100000
00100000
01000000
,
10000000
01000000
01000000
00100000
,
00010000
00100000
00001000
00010000
,
00000010
00001000
00000010
00000100
,
00000001
00000010
00001000
00010000
,
00010000
00000100
00000100
00001000
,
00000100
00000010
00000001
00000100
,
00000010
00001000
00010000
01000000
,
01000000
00100000
01000000
00000000
,
00000000
00100000
00000000
00000000
00000000
00000000
00000000
00000000
10000000
00000000
00000000
00000000
01000000
00000000
00000000
00000000
,
00100000
00001000
00001000
00010000
,
00000000
00010000
00000000
00000000
00001000
00000000
00010000
00000000
,
00000010
00000000
00000010
00000000
00001000
00000010
00000000
00000000
,
00001000
00000100
00000010
00000001
,
00000100
00000010
00001000
00000000
,
00010010
00000000
00101000
00000000
,
01200000
00000000
00000000
00000000
,
00000000
00000000
00000000
00000000
,
00320000
00000000
00000000
00000000
,
10030000
00000000
01000000
00100000
,
00001000
01000000
00010000
00010000
,
00100000
00100000
00010000
00010000
,
00001000
00001000
00000100
00000010
,
00000001
00000000
00000100
00000010
,
00001000
00000000
00000000
00010000
00000000
01000000
00000000
00100000
00000000
00000000
00000000
00000000
10000000
00000000
00000000
00000000
,
20000000
00000000
00000000
00000000
31000000
00000000
00000000
00010000
,
00000000
00000000
00001000
00000000
00000000
00000100
00000000
00000000
,
00000001
00000001
00000001
00000010
,
00000000
00001000
00000000
00000000
00010000
00000000
00100000
00000000
,
01000000
00000000
00020000
00000000
,
01030000
00100000
20000000
00000000
,
31000000
00000000
00100000
00000000
00020000
00000000
00000000
00032000
,
00000000
00000000
00013000
00000000
01000000
00000000
01000000
00100000
,
00000000
00010000
00002000
00000000
,
00003000
00010000
00000020
00000000
,
00000130
00000000
00000001
00000000
00000010
00000100
00000000
00001000
,
00000000
00000100
00000000
00002000
00000000
00000000
00003100
00000000
,
00001000
00000010
00002000
00000000
,
00003010
00000100
00000002
00000000
,
00000013
00000000
00000100
00000000
00002000
00000000
00000000
00023000
,
00000000
00000000
00031000
00000000
00000010
00000000
00000010
00000100
,
00000000
00001000
00020000
00000000
,
00030000
00001000
02000000
00000000
,
03100000
00000000
10000000
00000000
01000000
00100000
00000000
00010000
,
00000000
00100000
00000000
00020000
00000000
00000000
00130000
00000000
,
00010000
10000000
20000000
00000000
,
32000000
00000000
03200000
00000000
,
00302000
00000000
00023000
00000000
,
00030020
00000000
00000230
00000000
,
00000302
00000000
00000023
00000000
,
00000130
00000000
00001000
00000000
00010000
00000000
00000000
01000000
,
00000000
00000000
00100000
00000000
10000000
00000000
00000000
01000000
,
00000000
00000000
00010000
00000000
00002000
00000000
00003000
00010000
,
00000000
00000010
00000000
00000000
00010000
00000000
00000000
00010000
,
00000000
00000000
00001000
00000000
00000000
00001000
00000000
00000000
,
01000000
00000000
00000000
00001000
00000000
00000000
00010000
00000000
,
00000000
00000100
00000000
00000000
00000010
00000000
00000000
00001000
,
00000000
00010000
00100000
00010000
,
00001000
00000000
00010000
00000000
00010000
00000000
00001000
00010000
,
00001000
00022000
00000000
00000000
,
00000000
00000000
00000000
00000000
,
00000000
00000000
00000000
00000000
,
00000000
00000000
00000000
00000000
,
00033000
00000000
00000000
00000000
;
