#TITLE:Why Do I;
#SUBTITLE:;
#ARTIST:Set It Off & CircusP ft. Hatsune Miku;
#TITLETRANSLIT:;
#SUBTITLETRANSLIT:;
#ARTISTTRANSLIT:;
#GENRE:;
#CREDIT:;
#BANNER:Why Do I.png;
#BACKGROUND:Why Do I-bg.png;
#LYRICSPATH:Why Do I.lrc;
#CDTITLE:;
#MUSIC:Why Do I.ogg;
#OFFSET:0.001000;
#SAMPLESTART:66.378044;
#SAMPLELENGTH:16.600002;
#SELECTABLE:YES;
#BPMS:0.000000=100.000000
;
#STOPS:111.750000=3.599996
;
#BGCHANGES:0.000=Why Do I.mp4=1.000=0=0=0=StretchNoLoop====,
99999=-nosongbg-=1.000=0=0=0 // don't automatically add -songbackground-
;
#KEYSOUNDS:;
#ATTACKS:;

//---------------dance-single - ----------------
#NOTES:
     dance-single:
     :
     Hard:
     13:
     0.541386,0.544062,0.348803,0.989847,0.796591,402.000000,365.000000,37.000000,105.000000,0.000000,0.000000,0.541386,0.544062,0.348803,0.989847,0.796591,402.000000,365.000000,37.000000,105.000000,0.000000,0.000000:
0000
0000
0000
0000
,
0000
0000
0000
0000
,
0000
0000
0000
0000
,
0000
0000
0000
0000
0000
0000
0000
0000
0000
0000
0000
0000
0002
0023
0230
2300
,
3001
0000
0100
0000
0100
0000
0010
1000
0000
0001
0000
1000
0000
0100
0000
2100
,
0000
3001
0000
0102
0000
1003
0000
0010
0130
3003
0000
0001
0100
0001
0010
0001
,
0000
0012
0000
1003
0013
1000
0100
1000
0000
2100
0000
0000
3001
0010
0100
2000
,
0000
3020
0000
0032
0000
0323
0000
1030
0100
0000
0000
1100
0000
0000
0011
0000
,
2000
0000
0010
0000
0000
0001
0000
0000
0100
0000
0000
0001
0000
0000
0010
0000
,
3002
0000
0100
0000
0000
1000
0000
0000
0020
0000
0033
0030
0011
0000
0000
0000
,
0002
0000
0100
0000
0000
1000
0000
0000
0010
0000
0000
1000
0000
0000
0100
0000
,
2003
0000
0100
0300
0000
0001
0000
0000
0020
0000
3330
1300
3002
0023
0230
2303
,
3000
0001
0100
0000
0102
0000
1003
3000
0001
0010
0100
0020
0000
0130
1000
0002
,
0000
0203
0000
0310
1000
0100
0010
0000
0022
0000
0033
0000
2000
3020
0230
0302
,
0003
1000
0100
0000
2100
0000
3001
0000
1000
0010
0100
0020
0000
0130
0001
1300
,
0000
0001
0010
0100
1000
0000
0010
0000
2020
0000
3330
1000
0010
1000
0100
0010
,
0000
0011
0000
0001
0100
0001
0010
0100
0000
1100
0000
1000
0001
0000
1000
0010
,
0000
0010
0100
0000
0010
0000
0010
0000
1000
0001
1000
0010
0000
1010
0000
0101
,
0000
1000
0100
0000
1200
0000
3310
0001
0100
0000
0201
0000
0310
1000
0001
0000
,
0202
0000
0303
0000
2020
0000
3030
0000
0001
0010
0100
1000
0010
0100
0010
1000
,
0000
0001
0010
0000
2002
0000
0000
0000
3003
1000
0010
1000
0001
0010
0001
0100
,
0000
0100
0010
0000
2000
0000
0010
0000
3001
0000
1000
0002
0000
0010
0000
1003
,
0000
1000
0100
0000
2002
0000
0000
0000
3003
0001
0100
0001
1000
0100
1000
0010
,
0200
0000
0001
0000
0320
0000
1000
0000
0130
0001
1000
0000
0002
0023
0230
2300
,
3020
0000
0001
0000
0000
0100
0000
0000
1000
0000
0000
0100
0000
0000
0001
0000
,
0230
0000
1000
0000
0000
0010
0000
0000
0302
0000
1003
0003
1100
0000
0001
0000
,
0203
0000
1000
0000
0000
0010
0000
0000
0001
0000
0000
0010
0000
0000
1000
0000
,
0320
0000
0001
0000
0000
0100
0000
0000
2030
0000
3100
0010
0100
1000
0001
1000
,
0000
0000
0000
1000
0002
0023
0230
2300
3000
0001
0100
0000
0110
0000
0010
0000
,
1000
0010
1000
0200
0000
0302
0000
0103
0010
0100
0020
0000
0032
0000
0103
0000
,
0202
0000
3303
0000
1000
0010
0001
0020
0000
0230
0000
0000
0301
0010
1000
0020
,
0000
0230
0000
0000
1300
0000
0001
0100
0000
1000
0100
0000
0010
0000
0010
0000
,
1000
0100
0010
0001
0000
0011
0000
1001
0000
1000
0010
0000
1020
0000
0130
0001
,
0010
0000
0021
0000
0130
1000
0001
0000
0202
0000
0303
0000
2020
0000
3030
0000
,
0001
1000
0100
0010
0001
0100
0010
0100
0000
0001
1000
0330
2002
0000
0000
0000
,
3003
0001
0010
0100
0010
1000
0010
0200
0000
1300
0010
0100
0002
0000
0100
0000
,
1003
0000
0001
2000
0000
0100
0000
3002
0000
0103
0010
0330
2002
0000
0000
0000
,
3003
1000
0100
0010
0100
0001
0100
0010
0002
0000
0100
0000
0023
0000
1000
0000
,
0230
0000
0001
0000
1300
0001
1000
0010
0000
1000
0100
0000
0022
0000
0000
0000
,
0033
0001
0100
1000
0100
0001
1000
0100
0000
1000
0010
1000
0002
0000
0010
0000
,
1003
0000
0001
2000
0000
0010
0000
3002
0000
1003
0100
0000
1200
0000
0310
0001
,
0100
0000
0201
0000
0310
1000
0100
0000
0220
0000
0330
0000
2332
0000
3003
0000
,
1000
0100
0010
0001
0100
0010
2000
3002
2003
0000
3000
0000
3000
0000
0000
0000
;

//---------------dance-single - ----------------
#NOTES:
     dance-single:
     :
     Medium:
     9:
     0.344763,0.381739,0.188542,0.424220,0.235678,256.000000,236.000000,20.000000,45.000000,0.000000,0.000000,0.344763,0.381739,0.188542,0.424220,0.235678,256.000000,236.000000,20.000000,45.000000,0.000000,0.000000:
0000
0000
0000
0000
,
0000
0000
0000
0000
,
0000
0000
0000
0000
,
0000
0000
0000
0000
,
1000
0000
0100
0000
0010
0000
0000
0100
0000
0100
0000
0000
0010
0000
0000
0000
,
0001
0100
0010
0000
0100
0100
0010
1000
,
0001
0001
0010
0100
1000
1000
0010
0100
,
0010
0000
0010
0000
1000
0000
0100
0000
0010
0000
0000
0001
0000
0000
1000
0000
,
0020
0000
0001
0000
0100
0000
1030
0001
,
0020
1000
0200
0330
,
0200
0000
0001
0000
0010
0000
1300
0001
,
0200
0000
0000
0000
1000
0000
0000
0000
0320
0000
0000
0300
1030
0000
0001
1000
,
0000
0000
0001
0000
0100
0000
1000
0000
0100
0000
0000
0100
0000
0000
0010
0000
,
1000
0000
0100
0000
0010
0000
0001
0000
1000
0000
0000
0000
0001
0000
1000
0001
,
0000
0000
1000
0000
0010
0000
0001
0000
0010
0000
0000
0010
0000
0000
0100
0000
,
0001
0000
0010
0000
0100
0000
1000
0000
0001
0000
0000
0000
1000
0000
0000
0100
,
0000
0100
0000
0000
0010
0000
0000
0001
0000
0001
0000
0000
1000
0000
0000
0000
,
0001
0000
0100
0000
1000
0000
0100
0000
0010
0000
0000
0100
0000
0100
0000
0100
,
0000
0001
0102
0000
1003
2100
0000
3001
,
2002
0000
3003
0000
2002
0000
3003
0000
0001
0000
0010
0000
0100
0000
1000
0010
,
0000
0010
0100
0000
0202
0000
0000
0000
0303
0000
1000
0000
0100
0000
1000
0000
,
0000
0000
0001
0000
0100
0000
0100
0000
0100
0000
0000
0010
0000
0010
0000
0010
,
0000
1000
2200
0000
3300
0001
0010
0001
,
2000
0000
3020
0000
0230
0000
0301
1000
,
0002
0010
1000
0100
,
2003
0010
0002
3003
,
1000
0000
1000
0000
0000
0100
0000
0000
0010
0000
0000
0001
0000
0000
0100
0000
,
0100
0000
0010
0000
0000
1000
0000
0000
2002
0000
0000
3003
0013
0000
0000
1001
,
0000
0000
0000
0000
1000
0100
1000
0100
0000
0000
1000
0000
0010
0000
0100
0000
,
0010
0000
0000
0100
0000
0001
0000
1000
0000
0000
0001
0000
0010
0000
0100
0000
,
1000
0000
0000
0000
0001
0100
0001
0100
0000
0000
0000
0000
0010
1000
0010
1000
,
0000
0000
0001
0000
1000
0100
0010
0001
,
1000
0000
0000
0001
0000
0100
0000
0010
0000
0000
1000
0000
2010
0000
0000
0000
,
3001
0000
0012
0000
0000
0000
1003
0000
2002
0000
3003
0003
2002
0000
3003
0000
,
0001
0000
1000
0000
0100
0000
0010
0100
0000
0100
0010
0000
2002
0000
0000
0000
,
3003
0001
1000
0010
0000
1000
0001
0100
,
0010
0000
0000
1000
0000
0100
0000
0010
0000
0000
0100
0000
2002
0000
0000
0000
,
3003
1000
0001
0100
0102
0000
2003
0000
,
3010
0000
0100
0000
0001
0000
1000
0100
0000
0100
0010
0000
0022
0000
0000
0000
,
0033
0000
1000
0000
0100
0000
1000
0100
0000
0000
0000
0000
1000
0000
0010
0000
,
0100
0000
0000
0001
0000
0010
0000
0100
0000
0000
1000
0000
2100
0000
0000
0000
,
3001
0102
0000
1003
2002
3003
2002
3003
,
1000
0000
0100
0000
0010
0000
0001
1000
0002
0000
0003
0000
0000
0000
0000
0000
;

//---------------dance-single - ----------------
#NOTES:
     dance-single:
     :
     Easy:
     5:
     0.235678,0.281282,0.169688,0.311095,0.000000,175.000000,157.000000,18.000000,33.000000,0.000000,0.000000,0.235678,0.281282,0.169688,0.311095,0.000000,175.000000,157.000000,18.000000,33.000000,0.000000,0.000000:
0000
0000
0000
0000
,
0000
0000
0000
0000
,
0000
0000
0000
0000
,
0000
0000
0000
0000
,
0001
0100
0010
0010
,
1000
0001
2000
3000
,
0100
0100
0000
0000
0010
0010
0000
0000
,
0001
1000
2002
3003
,
2000
3000
0010
0100
,
0002
0003
0010
0100
,
0020
0030
0001
1000
,
0200
0000
0300
0000
1000
0000
0001
0001
,
0001
0100
0010
1000
,
0001
0010
0001
0000
1000
0000
0100
0100
,
0100
1000
0010
0100
,
0010
0100
0010
0000
1000
0000
0001
0001
,
0002
0013
0200
1300
,
0001
0100
0001
0000
1000
0100
1000
0000
,
0000
0001
0001
0000
1000
1000
0000
0000
,
1001
0110
1001
0110
,
1000
2002
3003
0001
,
1000
0100
1000
0000
0001
0100
0001
0000
,
1000
2002
3003
0001
,
1000
0010
1000
0000
0001
0010
0001
0000
,
2000
3000
1000
0100
,
0020
0030
0010
0001
,
2000
3000
0001
0001
,
0200
0300
0010
0110
,
0000
1001
1001
1000
,
0100
0000
0010
0000
0001
0000
0100
0100
,
0100
0000
0002
0103
,
0200
0000
0310
0000
1000
0100
1000
0000
,
0001
0100
0001
0000
0000
1000
1000
0000
,
0001
0001
0000
0000
1001
0000
0110
0000
,
1001
0110
1000
2002
,
3003
0000
0001
0000
1000
0000
0010
0010
,
0010
0000
0100
0100
0100
0000
2002
0000
,
3003
0001
2000
3200
,
0320
0032
0103
2002
,
3003
0000
1000
0000
0001
0000
0100
0100
,
0100
0000
0010
0010
0010
0000
1001
0000
,
1000
0001
0020
0230
,
2300
0000
3001
1000
0002
0003
0000
0000
;

//---------------dance-single - ----------------
#NOTES:
     dance-single:
     :
     Beginner:
     1:
     0.095618,0.140228,0.084844,0.000000,0.000000,71.000000,62.000000,9.000000,0.000000,0.000000,0.000000,0.095618,0.140228,0.084844,0.000000,0.000000,71.000000,62.000000,9.000000,0.000000,0.000000,0.000000:
0000
0000
0000
0000
,
0000
0000
0000
0000
,
0000
0000
0000
0000
,
0000
0000
0000
0000
,
1000
0000
0000
0000
,
0100
0000
0000
0000
,
0010
0000
0010
0000
,
0010
0000
0000
0000
,
0001
0000
0000
0000
,
0100
0000
0000
0000
,
0010
0000
0010
0000
,
0010
0000
0000
0000
,
1001
0000
1000
0000
,
1000
0000
0000
0000
,
0100
0000
0100
0000
,
0100
0000
0000
0000
,
0010
0010
0000
0000
,
0010
0010
0000
0000
,
0001
0000
0001
0000
,
0001
0000
0000
0000
,
0000
1001
0000
0000
,
1000
1000
0000
0000
,
0000
1001
0000
0000
,
0001
0001
0000
0000
,
0010
0000
0000
0000
,
0100
0000
0000
0000
,
1000
0000
1000
0000
,
1000
0000
0000
1001
,
0000
0000
0000
0001
,
0001
0000
0100
0000
,
0000
0000
0010
0010
,
0000
0000
1000
1000
,
0000
0000
0100
0000
,
0100
0000
0100
0100
,
0100
0000
0000
1001
,
0000
0000
1000
1000
,
0000
0000
0000
1001
,
0000
0000
0001
0001
,
0000
0000
0000
1001
,
0000
0000
0010
0010
,
0010
0000
0000
1001
,
0000
0000
0100
0100
,
0100
0000
1001
0000
;

//---------------dance-double - ----------------
#NOTES:
     dance-double:
     :
     Hard:
     13:
     0.542732,0.542472,0.348803,1.046410,0.782450,403.000000,366.000000,37.000000,111.000000,0.000000,0.000000,0.542732,0.542472,0.348803,1.046410,0.782450,403.000000,366.000000,37.000000,111.000000,0.000000,0.000000:
00000000
00000000
00000000
00000000
,
00000000
00000000
00000000
00000000
,
00000000
00000000
00000000
00000000
,
00000000
00000000
00000000
00000000
00000000
00000000
00000000
00000000
00000000
00000000
00000000
00000000
00002000
00023000
00230000
20300000
,
30010000
00000000
00100000
00000000
00100000
00000000
00010000
02000000
00000000
23000000
00000000
32000000
00000000
03020000
00000000
00130000
,
00000000
00102000
00000000
00013000
00000000
00010020
00000000
00000130
00000001
00000000
00000000
00000001
00000010
00001000
00010000
01000000
,
00000000
12000000
00000000
13000000
00100000
00010000
00001000
00000100
00000000
00000201
00000000
00000301
00000010
00001000
00010000
02000000
,
00000000
03200000
00000000
00302000
00000000
00023000
00000000
00030010
00000200
00000030
00000000
00002300
00000000
00000000
00013000
00000000
,
00002000
00000000
00010000
00000000
00000000
01000000
00000000
00000000
10000000
00000000
00000000
00100000
00000000
00000000
00010000
00000000
,
00023000
00000000
00001000
00000000
00000000
00000010
00000000
00000000
00030002
00000030
00000000
00000000
00030103
00000000
00001000
00000000
,
00020000
00000000
00001000
00000000
00000000
00000010
00000000
00000000
00000001
00000000
00000000
00000100
00000000
00000000
00001000
00000000
,
00032000
00000000
00010000
00000000
00000000
01000000
00000000
00000000
20003000
03000000
30100000
31000000
30023000
00230000
00302000
00023000
,
00030000
00000000
00000100
00000000
00010100
00000000
00010000
00000000
00001000
01000000
00100000
02000000
00000000
03020000
00000000
00130000
,
00001000
00000000
00010000
00000000
00000010
00000100
00000001
00000000
00000102
00000000
00000013
00000103
00032003
00003020
00020330
00032000
,
00003000
00000000
00100000
00000000
00101000
00000000
00001000
00000000
00010000
00000010
00000100
00000020
00000000
00002030
00000000
00003100
,
00010000
00000000
00001000
00000000
01000000
00100000
10000000
00000000
20010000
00000000
31000000
00010000
00001000
00010000
00001000
00000200
,
00000000
00000301
00000013
00001000
00010000
00001000
00010000
02000000
00000000
13300000
00100000
30000000
10100000
00000000
00010000
00100000
,
00000000
00100000
00002000
00000000
00023000
00000000
00030010
00000030
00001010
00000000
00000001
00000010
00000000
00000110
00000000
00020100
,
00000000
00031000
01030000
00000000
02010000
00000000
03130000
10000000
01000000
00000000
12000000
00000000
03100000
00001000
00010000
00000000
,
00022000
00000000
00033000
00000000
00022000
00000000
00033000
00000000
00010000
00001000
00000100
00000010
00001000
00000001
00000010
00000100
,
00000000
00001000
00000100
00000000
00022000
00000000
00000000
00000000
00033000
00001000
00100000
00001000
00010000
00000010
00010000
00001000
,
00000000
01000000
00100000
00000000
20000000
00000000
01000000
00000000
30010000
00000000
00000000
00020000
00000000
01000000
00000000
10030000
,
00000000
00010000
00100000
00000000
00022000
00000000
00000000
00000000
00033000
00010000
00000100
00010000
00001000
01000000
00001000
00010000
,
00000020
00000000
00000100
00000000
00002030
00000000
00000100
00000000
00003002
00000000
00000103
00000010
00001003
00000100
00010000
00001000
,
00200000
00000000
10000000
00000000
00000000
01000000
00000000
00000000
00010000
00000000
00000000
01000000
00000000
00000000
00302000
00000300
,
00023000
00000000
00000010
00000000
00000000
00000100
00000000
00000000
00032000
00000000
00013000
00000000
00011300
00000000
00000100
00000000
,
00000200
00000000
00000001
00000000
00000000
00000010
00000000
00000000
00001000
00000000
00000000
00000010
00000000
00000000
00020300
00300000
,
00032000
00000000
02003000
00000000
00000000
03100000
00000000
00000000
20010000
00000000
31030000
00100000
01033000
00010000
00001000
00010000
,
00000000
00000000
00000000
00001000
00020000
00030200
00000320
00000032
00000003
00001000
00000010
00000000
00000210
00003000
00000302
00000000
,
00001003
00000100
00010000
00002000
00030000
02003000
00000000
03100000
10000000
00010000
00200000
00000000
00302000
00000000
00003010
00000000
,
00001002
00000000
00000103
00001000
00010000
00001000
00010000
00200000
00000000
10300000
31000000
00010000
00001000
00010000
00001000
00000020
,
00000000
00000331
00000100
00000003
00000101
00000000
00001000
00000100
00000000
00010000
00002000
00000000
02003000
00000000
03100000
00000000
,
20010000
00000000
31030000
00100000
00000000
00110000
00000000
00101000
00000000
00001000
00010000
00000000
00020010
00000000
00030100
00010000
,
00001000
00000000
00102000
00000000
01003000
00001000
00010000
00000000
00022000
00300000
00033000
00000000
00002002
00000000
00003003
00000000
,
00000001
00000010
00000100
00001000
00000010
00000100
00000010
00001000
00000000
00000100
00010000
00000000
00202000
00000000
00000000
00000000
,
00303000
00100000
00001000
00100000
01000000
00100000
10000000
00100000
00000000
00010000
01000000
00000000
00020000
00000000
00100000
00000000
,
10030000
00000000
00000000
20000000
00000000
01000000
00000000
30020000
00000000
01030000
00100000
00000000
02002000
00000000
00000000
00000000
,
33033000
00001000
00100000
00001000
00010000
00000010
00010000
00001000
00200000
00000000
01000000
00000000
00302000
00000000
00010000
00000000
,
02003000
00000000
00100000
00000000
03010000
00100000
01000000
10000000
00000000
00001000
00100000
00000000
00020020
00000000
00000000
00000000
,
00030330
00000010
00010000
00000010
00000100
00000010
00000001
00000010
00000000
00001000
00000100
00000000
00002000
00000000
00000010
00000000
,
00003001
00000000
00000000
00000002
00000000
00000100
00000000
00002003
00000000
00003100
00010000
00000000
00012000
00000000
01003000
00001000
,
00010000
00000000
00021000
00000000
00031000
00100000
01000000
00000000
20020000
00000000
30030000
00000000
02200000
00000000
03333000
00000000
,
10000000
01000000
00100000
00010000
00001000
00000100
00000010
00000001
00002000
00000000
00003000
00000000
00000000
00000000
00000000
00000000
;

//---------------dance-double - ----------------
#NOTES:
     dance-double:
     :
     Medium:
     9:
     0.356884,0.381739,0.179115,0.433647,0.235678,265.000000,246.000000,19.000000,46.000000,0.000000,0.000000,0.356884,0.381739,0.179115,0.433647,0.235678,265.000000,246.000000,19.000000,46.000000,0.000000,0.000000:
// measure 0
00000000
00000000
00000000
00000000
,  // measure 1
00000000
00000000
00000000
00000000
,  // measure 2
00000000
00000000
00000000
00000000
,  // measure 3
00000000
00000000
00000000
00000000
,  // measure 4
00010000
00000000
00000100
00000000
00000010
00000000
00000000
00000010
00000000
00000000
00000001
00000000
00000100
00000000
00000010
00000000
,  // measure 5
00010000
00001000
00010000
00001000
00200000
00000000
01300000
10000000
,  // measure 6
00010000
00010000
01000000
00001000
00010000
00010000
00000100
00001000
,  // measure 7
00000010
00000000
00000010
00000000
00000100
00000000
00000001
00000000
00001000
00000000
00000000
00000100
00000000
00000000
00010000
00000000
,  // measure 8
00001000
00000000
01000000
00000000
00000000
01000000
00000000
00000000
00100000
00000000
00000000
00100000
00000000
00000000
10000000
00000000
,  // measure 9
00010000
00000000
00100000
00000000
00000000
00001000
00000000
00000000
00022000
00000000
00000000
00000000
00033000
00000000
00000000
00000000
,  // measure 10
00010000
00000000
00000010
00000000
00000000
00000010
00000000
00000000
00000100
00000000
00000000
00000100
00000000
00000000
00000001
00000000
,  // measure 11
00001000
00000000
00000100
00000000
00000000
00010000
00000000
00000000
00022000
00000000
00033000
00000000
00010000
00000000
00001000
00010000
,  // measure 12
00000000
00000000
00001000
00000000
00100000
00000000
01000000
00000000
10000000
00000000
00000000
00100000
00000000
00100000
00000000
00000000
,  // measure 13
10000000
00000000
01000000
00000000
00100000
00000000
00010000
00000000
02000000
00000000
00000000
00000000
03001000
00000000
00010000
00001000
,  // measure 14
00000000
00000000
00010000
00000000
00000100
00000000
00000010
00000000
00000001
00000000
00000000
00000100
00000000
00000100
00000000
00000000
,  // measure 15
00000001
00000000
00000010
00000000
00000100
00000000
00001000
00000000
00000020
00000000
00000000
00000000
00010030
00000000
00001000
00100000
,  // measure 16
00000000
00100000
00000000
00000000
00001000
00000000
00010000
00000010
00000000
00000010
00000000
00000000
00010000
00000000
00000000
00000000
,  // measure 17
00001000
00000000
00010000
00000000
00100000
00000000
10000000
00000000
01000000
00000000
00000000
00100000
00000000
00100000
00000000
00100000
,  // measure 18
00000000
00001000
00102000
00000000
00013000
00020010
00000000
00030010
,  // measure 19
00000220
00003000
00000330
00000000
00002002
00000000
00003003
00000000
00000001
00000000
00000010
00000000
00000100
00000000
00001000
00000010
,  // measure 20
00000000
00000010
00000100
00000000
00002002
00000000
00000000
00000000
00003003
00000000
00001000
00000000
00000100
00000000
00010000
00000000
,  // measure 21
00000000
00000000
00001000
00000000
01000000
00000000
01000000
00000000
01000000
00000000
00000000
00100000
00000000
10000000
00000000
00010000
,  // measure 22
00000000
00100000
20020000
00000000
30030000
00010000
00100000
00001000
,  // measure 23
00020000
00000000
00030020
00000000
00000130
00000001
00001000
00000100
,  // measure 24
00020000
00001000
00000100
00001000
,  // measure 25
00032000
00010000
01000000
00010000
,  // measure 26
00023000
00032000
00203000
02300000
,  // measure 27
13000000
00000000
00100000
00000000
01000000
00000000
00010000
00000000
00100000
00000000
00000000
00000000
00001000
00010000
00001000
00010000
,  // measure 28
00000000
00000000
00000000
00000000
00000100
00001000
00000100
00001000
00000000
00000000
00000001
00000000
00000100
00000000
00000010
00000000
,  // measure 29
00010000
00000000
00000000
00001000
00000000
00000000
00100000
00000000
00010000
00000000
01000000
00000000
00100000
00000000
10000000
00000000
,  // measure 30
00010000
00000000
00000000
00000000
10000000
01000000
10000000
01000000
00000000
00000000
00000000
00000000
00100000
00010000
00100000
00010000
,  // measure 31
00000000
00000000
01000000
00000000
00001000
00001000
00010000
00000100
,  // measure 32
00000010
00000000
00000000
00000001
00000000
00001000
00000000
00000001
00000000
00000000
00001000
00000000
00001200
00000000
00000000
00000000
,  // measure 33
00010300
00012000
00000000
00103000
02200000
03300000
20020000
30030000
,  // measure 34
10000000
00000000
00100000
00000000
01000000
00000000
00010000
00100000
00000000
00100000
00001000
00000000
00022000
00000000
00000000
00000000
,  // measure 35
00033000
00010000
00000100
00010000
00000000
00000100
00001000
00000010
,  // measure 36
00000100
00000000
00000000
00000001
00000000
00000010
00000000
00000100
00000000
00000000
00010000
00000000
00022000
00000000
00000000
00000000
,  // measure 37
00033000
00001000
01000000
00100000
20000000
00000000
30020000
00000000
,  // measure 38
00130000
00000000
00010000
00000000
01000000
00000000
00001000
00010000
00000000
00010000
00000100
00000000
00022000
00000000
00000000
00000000
,  // measure 39
00033000
00000100
00010000
00001000
00000000
00100000
00010000
01000000
,  // measure 40
00100000
00000000
00000000
01000000
00000000
00001000
00000000
00010000
00000000
00000000
00001000
00000000
00102000
00000000
00000000
00000000
,  // measure 41
00013000
00020010
00000000
00031000
00022000
00033000
20020000
30030000
,  // measure 42
10000000
00000000
01000000
00000000
00100000
00000000
00010000
10000000
00020000
00000000
00030000
00000000
00000000
00000000
00000000
00000000
;

//---------------dance-double - ----------------
#NOTES:
     dance-double:
     :
     Easy:
     5:
     0.230291,0.261190,0.047136,0.320522,0.000000,171.000000,166.000000,5.000000,34.000000,0.000000,0.000000,0.230291,0.261190,0.047136,0.320522,0.000000,171.000000,166.000000,5.000000,34.000000,0.000000,0.000000:
// measure 0
00000000
00000000
00000000
00000000
,  // measure 1
00000000
00000000
00000000
00000000
,  // measure 2
00000000
00000000
00000000
00000000
,  // measure 3
00000000
00000000
00000000
00000000
,  // measure 4
00001000
00100000
00010000
00000000
,  // measure 5
10000000
00100000
01000000
00000000
,  // measure 6
00001000
00001000
00000000
00000000
00010000
00010000
00000000
00000000
,  // measure 7
00000100
00000010
00000002
00000003
,  // measure 8
00002000
00003000
00000001
00000100
,  // measure 9
00000020
00000030
00010000
00001000
,  // measure 10
00020000
00030000
00001000
00100000
,  // measure 11
02000000
00000000
03000000
00000000
10000000
00000000
00010000
10000000
,  // measure 12
00010000
10000000
00100000
01000000
,  // measure 13
00010000
01000000
00010000
00000000
00100000
00000000
00001000
00001000
,  // measure 14
00001000
00010000
00000100
00001000
,  // measure 15
00000010
00000100
00000010
00000000
00001000
00000000
00000001
00000001
,  // measure 16
00000002
00000013
00000200
00010300
,  // measure 17
00001000
00010000
00001000
00000000
00010000
00001000
00010000
00000000
,  // measure 18
00000000
00001000
00001000
00000000
01000000
01000000
00000000
00100000
,  // measure 19
00200000
20300000
30020000
00130000
,  // measure 20
00001000
00022000
00033000
00010000
,  // measure 21
00000100
00001000
00000100
00000000
00001000
00000010
00001000
00000000
,  // measure 22
00000100
00022000
00033000
00001000
,  // measure 23
00100000
00010000
00100000
00000000
00010000
01000000
00010000
00000000
,  // measure 24
20000000
30000000
01000000
00100000
,  // measure 25
00002000
00003000
00010000
00000010
,  // measure 26
00000200
00000300
00000001
00000010
,  // measure 27
00000100
00000000
00010000
00000000
00001000
00000000
01000000
00100000
,  // measure 28
00000000
00000000
10000000
00010000
10000000
00000000
01000000
00000000
,  // measure 29
00100000
00100000
00100000
00000000
00010000
00000000
01000000
00001000
,  // measure 30
01000000
00000000
00001000
00001000
00001000
00000000
00010000
00010000
,  // measure 31
00010000
00000000
00000100
00000000
00001000
00000010
00001000
00000000
,  // measure 32
00000001
00000010
00000001
00000000
00000000
00001000
00001000
00000000
,  // measure 33
00000100
00000100
00000000
00010000
00020000
00000000
00032000
00000000
,  // measure 34
02003000
00000000
03010000
10000000
00010000
00000000
20020000
00000000
,  // measure 35
30030000
00000000
10000000
00000000
00010000
01000000
00010000
00000000
,  // measure 36
00100000
00100000
00100000
00000000
00001000
00000000
00022000
00000000
,  // measure 37
00033000
00010000
00000020
00000230
,  // measure 38
00000302
00002003
00003010
00002002
,  // measure 39
00003003
00000000
00000001
00000000
00001000
00000100
00001000
00000000
,  // measure 40
00000001
00000100
00000001
00000000
00000000
00000100
00000100
00000000
,  // measure 41
00000010
00000010
00000000
00000000
00002000
00000000
00003200
00000000
,  // measure 42
00020300
00000000
00031000
00010000
00002000
00003300
00000000
00000000
;
