#TITLE:Walk with you;
#SUBTITLE:;
#ARTIST:TOMOSUKE feat Jazzin' park;
#TITLETRANSLIT:;
#SUBTITLETRANSLIT:;
#ARTISTTRANSLIT:;
#GENRE:VARIETY;
#CREDIT:MUINELIM;
#BANNER:walk with you.png;
#BACKGROUND:Walk with you-bg.png;
#LYRICSPATH:;
#CDTITLE:;
#MUSIC:Walk with you.ogg;
#OFFSET:-0.207000;
#SAMPLESTART:64.170769;
#SAMPLELENGTH:15.098110;
#SELECTABLE:YES;
#BPMS:0.000000=126.999992
;
#STOPS:
;
#BGCHANGES:0.000=walk with you.avi=1.000=1=0=0=StretchNoLoop==CrossFade==,
99999=-nosongbg-=1.000=0=0=0 // don't automatically add -songbackground-
;
#KEYSOUNDS:;
#ATTACKS:;

//---------------dance-single - ----------------
#NOTES:
     dance-single:
     :
     Beginner:
     2:
     0.083560,0.152877,0.017725,0.000000,0.000000,66.000000,64.000000,2.000000,0.000000,0.000000,0.000000,0.083560,0.152877,0.017725,0.000000,0.000000,66.000000,64.000000,2.000000,0.000000,0.000000,0.000000:
0000
0000
0000
0000
,
0000
0000
0000
0000
,
0000
0000
0000
0000
,
0000
0000
0000
0000
,
0000
0000
0000
0000
,
0001
0000
0000
0000
,
0001
0000
0000
0000
,
1000
0000
0000
0000
,
1000
0000
0000
0000
,
0001
0000
0000
0000
,
1000
0000
0000
0000
,
0001
0000
0000
0000
,
1000
0000
0000
0000
,
0001
0000
0000
0000
,
1000
0000
0000
0000
,
0001
0000
0000
0000
,
1001
0000
0000
0000
,
0010
0000
0000
0000
,
0010
0000
0000
0000
,
0100
0000
0000
0000
,
0100
0000
0000
0000
,
0010
0000
0000
0000
,
0100
0000
0000
0000
,
0010
0000
0000
0000
,
0100
0000
0000
0000
,
0001
0000
0001
0000
,
0001
0000
0001
0000
,
0001
0000
0000
0000
,
0000
0000
0000
0000
,
1000
0000
1000
0000
,
1000
0000
1000
0000
,
1000
0000
0000
0000
,
0000
0000
0000
0000
,
1001
0000
0000
0000
,
0001
0000
0000
0000
,
0001
0000
0000
0000
,
0100
0000
0000
0000
,
0100
0000
0000
0000
,
0010
0000
0000
0000
,
0010
0000
0000
0000
,
1000
0000
0000
0000
,
1000
0000
0000
0000
,
0100
0000
0000
0000
,
0100
0000
0000
0000
,
0010
0000
0000
0000
,
0010
0000
0000
0000
,
0001
0000
0000
0000
,
0001
0000
0000
0000
,
1000
0000
0000
0000
,
1000
0000
0000
0000
,
0010
0000
0010
0000
,
0010
0000
0010
0000
,
0100
0000
0100
0000
,
0100
0000
0100
0000
,
0010
0000
0010
0000
,
0100
0000
0100
0000
,
0010
0000
0100
0000
,
0010
0010
0010
0000
;

//---------------dance-single - ----------------
#NOTES:
     dance-single:
     :
     Easy:
     4:
     0.154459,0.205608,0.026587,0.088624,0.000000,122.000000,119.000000,3.000000,10.000000,0.000000,0.000000,0.154459,0.205608,0.026587,0.088624,0.000000,122.000000,119.000000,3.000000,10.000000,0.000000,0.000000:
0000
0000
0000
0000
,
0000
0000
0000
0000
,
0000
0000
0000
0000
,
0000
0000
0000
0000
,
0000
0000
0000
0000
,
1000
0000
1000
0000
,
1000
1000
1000
0000
,
0001
0000
0001
0000
,
0001
0001
0001
0000
,
1000
0000
0001
0000
,
1000
0000
0001
0000
,
1000
0000
1000
0000
,
0001
0000
0001
0000
,
1000
0000
0001
0000
,
1000
0000
0001
0000
,
1000
0000
0001
0000
,
2002
0000
3003
0000
,
1000
0000
0001
0000
,
0100
0100
0100
0000
,
0001
0000
1000
0000
,
0010
0010
0010
0000
,
1000
0000
0001
0000
,
0010
0010
0010
0000
,
0001
0000
1000
0000
,
0100
0100
0100
0000
,
1000
0000
0010
0000
,
0100
0000
0001
0000
,
1000
0010
0010
0000
,
0001
0100
0100
0000
,
1000
0000
0100
0000
,
0010
0000
0001
0000
,
1000
0100
0100
0000
,
0001
0010
0010
0000
,
2002
0000
3003
0000
,
0001
0000
1000
0000
,
0010
0100
0010
0000
,
1000
0000
0001
0000
,
0100
0010
0100
0000
,
0001
0000
1000
0000
,
0100
0010
0100
0000
,
1000
0000
0001
0000
,
0010
0100
0010
0000
,
0001
0000
0100
0000
,
0010
1000
0010
0000
,
1000
0000
0010
0000
,
0100
0001
0100
0000
,
0001
0000
0010
0000
,
0100
1000
0100
0000
,
1000
0000
0100
0000
,
0010
0001
0010
0000
,
0002
0000
0003
0000
,
0200
0000
0300
0000
,
0020
0000
0030
0000
,
2000
0000
3000
0000
,
0001
0000
0100
0000
,
1000
0000
0010
0000
,
0001
0000
1000
0000
,
0010
0100
0220
0000
,
0330
0000
0000
0000
;

//---------------dance-double - ----------------
#NOTES:
     dance-double:
     :
     Easy:
     4:
     0.146863,0.231309,0.079762,0.124074,0.000000,116.000000,107.000000,9.000000,14.000000,0.000000,0.000000,0.146863,0.231309,0.079762,0.124074,0.000000,116.000000,107.000000,9.000000,14.000000,0.000000,0.000000:
00000000
00000000
00000000
00000000
,
00000000
00000000
00000000
00000000
,
00000000
00000000
00000000
00000000
,
00000000
00000000
00000000
00000000
,
00000000
00000000
00000000
00000000
,
00001000
00000000
00001000
00000000
,
00001000
00001000
00001000
00000000
,
00010000
00000000
00010000
00000000
,
00010000
00010000
00010000
00000000
,
00001000
00000000
01000000
00000000
,
00010000
00000000
00100000
00000000
,
00001000
00000000
00001000
00000000
,
00010000
00000000
00010000
00000000
,
00000100
00000000
00001000
00000000
,
00000010
00000000
00010000
00000000
,
00001000
00000000
00010000
00000000
,
00022000
00000000
00033000
00000000
,
00001000
00000000
00100000
00000000
,
00010000
00000000
01000000
00000000
,
00001000
00000000
00010000
00000000
,
00000100
00000000
00001000
00000000
,
00000010
00000000
00010000
00000000
,
00001000
00000000
00000100
00000000
,
00010000
00000000
01000000
00000000
,
00001000
00000000
00010000
00000000
,
00001000
00000000
00000100
00000000
,
00000001
00000000
00000010
00000000
,
00001000
00010000
00001000
00000000
,
00010000
00001000
00011000
00000000
,
00010000
00000000
01000000
00000000
,
10000000
00000000
00100000
00000000
,
00010000
00001000
00010000
00000000
,
00001000
00010000
00011000
00000000
,
00022000
00000000
00033000
00000000
,
00001000
00000000
00100000
00000000
,
01000000
00000000
10000000
00000000
,
00100000
00000000
00010000
00000000
,
00001000
00000000
00100000
00000000
,
01000000
00000000
00010000
00000000
,
00001000
00000000
00000010
00000000
,
00000100
00000000
00010000
00000000
,
00001000
00000000
00000100
00000000
,
00000001
00000000
00000010
00000000
,
00001000
00000000
00010000
00000000
,
01000000
00000000
10000000
00000000
,
00100000
00000000
00010000
00000000
,
00001000
00000000
00000100
00000000
,
00000001
00000000
00000010
00000000
,
00001000
00000000
00010000
00000000
,
01000000
00000000
10000000
00000000
,
20020000
00000000
30030000
00000000
,
00022000
00000000
00033000
00000000
,
00002002
00000000
00003003
00000000
,
00022000
00000000
00033000
00000000
,
00010000
00000000
01000000
00000000
,
00010000
00000000
00001000
00000000
,
00000100
00000000
00001000
00000000
,
00010000
00001000
00022000
00000000
,
00033000
00000000
00000000
00000000
;

//---------------dance-single - ----------------
#NOTES:
     dance-single:
     :
     Medium:
     6:
     0.221560,0.279055,0.062037,0.106349,0.004431,175.000000,168.000000,7.000000,12.000000,0.000000,0.000000,0.221560,0.279055,0.062037,0.106349,0.004431,175.000000,168.000000,7.000000,12.000000,0.000000,0.000000:
0000
0000
0000
0000
,
0000
0000
0000
0000
,
0000
0000
0000
0000
,
0000
0000
0000
0000
,
0000
0000
0000
0000
0000
0000
0000
1000
,
0000
0000
0000
0001
0000
0000
0000
1000
,
0000
0001
0000
1000
0000
0000
0000
0001
,
0000
0000
0000
1000
0000
0000
0000
0001
,
0000
1000
0000
0001
0000
0000
0000
1000
,
0000
0000
0000
0010
0000
0000
0000
0001
,
0000
0000
0000
0100
0000
0000
0000
1000
,
0000
0000
0000
0010
0000
0000
0000
0001
,
0000
0000
0000
0100
0000
0000
0000
1000
,
0000
0000
0000
0010
0000
0000
0000
0001
,
0000
0000
0000
0100
0000
0000
0000
1000
,
0000
0000
0000
0010
0000
0000
0000
2002
,
0000
0000
3003
0000
1001
0000
0100
0100
,
0000
0001
0000
0010
0000
0000
0000
0010
,
0000
1000
0000
0100
0000
0000
0000
0100
,
0000
1000
0000
0010
0000
0000
0000
0010
,
0000
0001
0000
0100
0000
0000
0000
0100
,
0000
1000
0000
0001
0000
0000
0000
0010
,
0000
0001
0000
1000
0000
0000
0000
0010
,
0000
1000
0000
0001
0000
0000
0000
0100
,
0000
0001
0000
1000
0000
1001
0000
0010
,
0000
0001
0000
0100
0000
0001
0000
0010
,
0000
0001
0000
0100
0000
1000
0000
0100
,
0000
0001
0000
0010
0000
0100
0000
1000
,
0000
0010
0000
0100
0000
0110
0000
0010
,
0000
1000
0000
0100
0000
1000
0000
0010
,
0000
1000
0000
0100
0000
0001
0000
0100
,
0000
1000
0000
0010
0000
0100
0000
0001
,
0000
0010
0000
0100
0000
0110
0000
2002
,
0000
0000
0000
3003
0000
0000
0000
0001
,
0000
0010
0000
0001
0000
0100
0000
1000
,
0000
0100
0000
0002
0000
0003
0000
1000
,
0000
0100
0000
1000
0000
0010
0000
0001
,
0000
0010
0000
2000
0000
3000
0000
0001
,
0000
0100
0000
0001
0000
0010
0000
1000
,
0000
0010
0000
0002
0000
0003
0000
1000
,
0000
0010
0000
1000
0000
0100
0000
0001
,
0000
0100
0000
2000
0000
3000
0000
0001
,
0000
0100
0000
0010
0000
1000
0000
0100
,
0000
0010
0100
0010
0000
0100
0000
1000
,
0000
0010
0000
0100
0000
0001
0000
0010
,
0000
0100
0010
0100
0000
0010
0000
0001
,
0000
1000
0000
0010
0000
0100
0000
0001
,
0000
0010
0100
0010
0000
0100
0000
1000
,
0000
0001
0000
0100
0000
0010
0000
1000
,
0000
0100
0010
0100
0000
0010
0000
0002
,
0000
0000
0000
0003
0000
0000
0000
0200
,
0000
0000
0000
0300
0000
0000
0000
2000
,
0000
0000
0000
3000
0000
0000
0000
0020
,
0000
0000
0000
0030
0000
0000
0000
0001
,
0000
1000
0000
0010
0000
0100
0000
0001
,
0000
1000
0000
0100
0000
0010
0000
0001
,
0000
0100
0000
1000
0000
0010
0000
0001
,
0000
1000
0000
0000
1001
0000
0000
0000
0000
0000
0000
0000
0000
0000
0000
0000
;

//---------------dance-double - ----------------
#NOTES:
     dance-double:
     :
     Medium:
     6:
     0.224093,0.279665,0.097487,0.106349,0.004431,177.000000,166.000000,11.000000,12.000000,0.000000,0.000000,0.224093,0.279665,0.097487,0.106349,0.004431,177.000000,166.000000,11.000000,12.000000,0.000000,0.000000:
00000000
00000000
00000000
00000000
,
00000000
00000000
00000000
00000000
,
00000000
00000000
00000000
00000000
,
00000000
00000000
00000000
00000000
,
00000000
00000000
00000000
00000000
,
00001000
00000000
00010000
00000000
,
00001000
00100000
00001000
00000000
,
00010000
00000000
00001000
00000000
,
00010000
00000100
00010000
00000000
,
00001000
00000000
00010000
00000000
,
00000100
00000000
00001000
00000000
,
00000010
00000000
00010000
00000000
,
00001000
00000000
00100000
00000000
,
00010000
00000000
01000000
00000000
,
00001000
00000000
00010000
00000000
,
00001000
00010000
00001000
00010000
,
00022000
00000000
00000000
00033000
00000000
00011000
00000000
00000010
,
00000010
00001000
00000100
00000000
,
00000100
00000010
00000001
00000000
,
00000001
00000100
00001000
00000000
,
00010000
00100000
10000000
00000000
,
10000000
01000000
00100000
00000000
,
00100000
00010000
01000000
00000000
,
00100000
00010000
00001000
00000000
,
00000100
00001000
00010000
00011000
,
00100000
00010000
01000000
00010000
,
00100000
00010000
01000000
00100000
,
10000000
01000000
00100000
00010000
,
01000000
00100000
00010000
00011000
,
00000010
00001000
00000100
00001000
,
00000010
00001000
00000100
00000010
,
00000001
00000100
00000010
00001000
,
00000100
00000010
00001000
00011000
,
00022000
00000000
00033000
00000000
,
00010000
00100000
01000000
10000000
,
01000000
00100000
00020000
00030000
,
00001000
00000100
00000010
00000001
,
00000010
00000100
00002000
00003000
,
00010000
01000000
00100000
10000000
,
00100000
01000000
00020000
00030000
,
00001000
00000010
00000100
00000001
,
00000100
00000010
00002000
00003000
,
00010000
01000000
10000000
00100000
,
00010000
00001000
00011000
00010000
,
00001000
00000100
00000001
00000010
,
00001000
00010000
00011000
00001000
,
00010000
00100000
10000000
01000000
,
00010000
00001000
00011000
00010000
,
00001000
00000010
00000001
00000100
,
00001000
00010000
00011000
00001000
,
02000000
00000000
03000000
00000000
,
00020000
00000000
00030000
00000000
,
00002000
00000000
00003000
00000000
,
00000020
00000000
00000030
00000000
,
00000100
00000001
00000010
00000100
,
00001000
00000100
00010000
00001000
,
00100000
00010000
00100000
01000000
,
10000000
00000000
00000000
00010000
00000000
00000000
10010000
00000000
00000000
00000000
00000000
00000000
00000000
00000000
00000000
00000000
;

//---------------dance-single - ----------------
#NOTES:
     dance-single:
     :
     Hard:
     8:
     0.349433,0.411216,0.301322,0.301322,0.062037,276.000000,242.000000,34.000000,34.000000,0.000000,0.000000,0.349433,0.411216,0.301322,0.301322,0.062037,276.000000,242.000000,34.000000,34.000000,0.000000,0.000000:
// measure 0
0000
0000
0000
0000
,  // measure 1
0000
0000
0000
0000
,  // measure 2
0000
0000
0000
0000
,  // measure 3
0000
0000
0000
0000
,  // measure 4
0000
0000
0000
0000
,  // measure 5
0001
0000
1000
0000
,  // measure 6
0001
1000
0200
0300
,  // measure 7
1000
0000
0001
0000
,  // measure 8
1000
0001
0020
0030
,  // measure 9
0001
0100
0001
0100
,  // measure 10
0010
1000
0010
1000
,  // measure 11
0001
0010
0001
0010
,  // measure 12
0100
1000
0100
1000
,  // measure 13
0010
0100
0010
0100
,  // measure 14
0001
1000
0001
1000
,  // measure 15
0100
0010
0100
0010
,  // measure 16
2002
0000
0000
0000
0000
0000
3003
0000
0000
0000
1001
0000
0000
0110
0000
0000
,  // measure 17
1000
0000
0100
1000
0010
0000
1000
0000
,  // measure 18
0100
0000
1000
0010
0200
0000
0320
0000
,  // measure 19
0130
0000
0100
0001
0010
0000
0001
0000
,  // measure 20
0100
0000
0001
0010
0200
0000
0320
0000
,  // measure 21
0130
0000
0100
1000
0001
0000
0010
0000
,  // measure 22
0001
0000
0100
0001
2000
0000
3020
0000
,  // measure 23
0130
0000
0100
0001
1000
0000
0010
0000
,  // measure 24
1000
0000
0100
1000
0002
0000
0203
0000
,  // measure 25
0310
1010
0100
0101
,  // measure 26
0010
0000
1010
0000
1000
0100
0010
0001
,  // measure 27
0100
0000
0010
1000
0100
0000
0100
0010
,  // measure 28
0001
0000
1000
0100
0010
0000
0001
1000
,  // measure 29
0100
1100
0010
0011
,  // measure 30
0100
0000
1100
0000
1000
0010
0100
0001
,  // measure 31
0010
0000
0010
0100
1000
0000
0001
0010
,  // measure 32
0100
1000
0010
0100
0000
0220
0330
0000
,  // measure 33
2002
0000
0000
0000
0000
0000
3003
0000
0000
0000
0000
0000
0001
0000
0100
0000
0010
0000
1000
0000
0000
0001
0000
0000
,  // measure 34
0001
0000
0000
0100
0000
0000
0010
0000
0000
0000
0110
0000
0000
0000
0100
0000
,  // measure 35
0001
0000
0000
1000
0000
0000
0100
0000
1100
0000
0000
0000
0011
0000
0000
0000
,  // measure 36
0001
0000
0000
0010
0000
0000
0100
0000
0000
0000
1000
0000
0010
0000
0100
0000
,  // measure 37
0001
0000
0000
1000
0000
0000
2002
0000
3003
0000
0000
0000
0110
0000
0000
0000
,  // measure 38
1000
0000
0000
0100
0000
0000
0010
0000
0000
0000
0110
0000
0000
0000
0100
0000
,  // measure 39
1000
0000
0000
0001
0000
0000
0100
0000
0101
0000
0000
0000
1010
0000
0000
0000
,  // measure 40
1000
0000
0000
0010
0000
0000
0100
0000
0000
0000
0001
0000
0010
0000
0100
0000
,  // measure 41
1000
0000
0000
0001
0000
0000
2002
0000
3003
0000
0000
0000
0110
0000
0000
0000
,  // measure 42
0010
1000
0100
0000
0010
0100
1000
0000
,  // measure 43
0010
0100
0001
1000
0010
0000
0110
0000
,  // measure 44
0100
0001
0010
0000
0100
0010
0001
0000
,  // measure 45
0011
0000
0000
0100
0000
0000
2200
0000
3300
0000
0000
0000
1001
0000
0000
0000
,  // measure 46
0001
0100
0010
0000
0001
0010
0100
0000
,  // measure 47
0010
1000
0100
0010
0001
0000
1001
0000
,  // measure 48
1000
0010
0100
0000
1000
0100
0010
0000
,  // measure 49
1010
0000
0000
0100
0000
0000
0202
0000
0303
0000
0000
0000
1001
0000
0000
0000
,  // measure 50
2000
0000
3020
0000
,  // measure 51
0230
0000
0302
0000
,  // measure 52
0023
0000
0230
0000
,  // measure 53
2300
0000
3020
0000
,  // measure 54
0130
0110
0001
1001
,  // measure 55
1000
0010
0100
0001
1000
0100
0010
0000
,  // measure 56
0100
1000
0001
0000
0010
0001
1000
0000
,  // measure 57
1100
0000
0000
0011
0000
0000
0220
0000
0000
0000
0000
0000
0000
0000
0000
0000
,  // measure 58
0330
0000
0000
0000
;

//---------------dance-double - ----------------
#NOTES:
     dance-double:
     :
     Hard:
     9:
     0.340570,0.385515,0.230423,0.230423,0.062037,269.000000,243.000000,26.000000,26.000000,0.000000,0.000000,0.340570,0.385515,0.230423,0.230423,0.062037,269.000000,243.000000,26.000000,26.000000,0.000000,0.000000:
00000000
00000000
00000000
00000000
,
00000000
00000000
00000000
00000000
,
00000000
00000000
00000000
00000000
,
00000000
00000000
00000000
00000000
,
00000000
00000000
00000000
00000000
,
00010000
00000000
00001000
00000000
,
00010000
00001000
02000000
03000000
,
00001000
00000000
00010000
00000000
,
00001000
00010000
00000020
00000030
,
00010000
00001000
00010000
00001000
,
00000100
00000010
00000100
00000010
,
00010000
00001000
00010000
00001000
,
00100000
01000000
00100000
01000000
,
00010000
00001000
00010000
00001000
,
00000010
00000100
00000010
00000100
,
00010000
00001000
00010000
00001000
,
00022000
00000000
00000000
00000000
00000000
00000000
00033000
00000000
00000000
00000000
00011000
00000000
00000000
00011000
00000000
00000000
,
00010000
00000000
01000000
10000000
01000000
00000000
00010000
00000000
,
00001000
00000000
00100000
01000000
00020000
00000000
00031000
00000000
,
00001000
00000000
00000010
00000001
00000010
00000000
00001000
00000000
,
00010000
00000000
00000100
00000010
00002000
00000000
00013000
00000000
,
00010000
00000000
00100000
10000000
01000000
00000000
00100000
00000000
,
01000000
00000000
00010000
00001000
00020000
00000000
00031000
00000000
,
00001000
00000000
00000100
00000001
00000010
00000000
00000100
00000000
,
00000010
00000000
00001000
00010000
00002000
00000000
00013000
00000000
,
00010000
00010010
00001000
01001000
,
00010000
00000000
00010010
00000000
00000010
00001000
00000100
00001000
,
00000010
00000000
00000010
00000001
00000100
00000000
00000100
00001000
,
00000010
00000000
00000010
00010000
00001000
00100000
00010000
01000000
,
00001000
00101000
00010000
00010100
,
00001000
00000000
00101000
00000000
00100000
00010000
01000000
00010000
,
00100000
00000000
00100000
10000000
01000000
00000000
01000000
00010000
,
00100000
01000000
10000000
00100000
00000000
00110000
00000000
00000000
,
00022000
00000000
00000000
00000000
00000000
00000000
00033000
00000000
00000000
00000000
00000000
00000000
00001000
00000000
00010000
00000000
00001000
00000000
00010000
00000000
00000000
00000100
00000000
00000000
,
00000100
00000000
00000000
00001000
00000000
00000000
00000001
00000000
00000000
00000000
00000101
00000000
00000000
00000000
00000100
00000000
,
00000010
00000000
00000000
00010000
00000000
00000000
00001000
00000000
00010000
00000000
00000000
00000000
00011000
00000000
00000000
00000000
,
00100000
00000000
00000000
00010000
00000000
00000000
01000000
00000000
00000000
00000000
00100000
00000000
10000000
00000000
01000000
00000000
,
00100000
00000000
00000000
01000000
00000000
00000000
00020000
00000000
00000000
00000000
00000000
00000000
00031000
00000000
00000000
00000000
,
01000000
00000000
00000000
00010000
00000000
00000000
10000000
00000000
00000000
00000000
11000000
00000000
00000000
00000000
01000000
00000000
,
00100000
00000000
00000000
00001000
00000000
00000000
00010000
00000000
00001000
00000000
00000000
00000000
00011000
00000000
00000000
00000000
,
00000010
00000000
00000000
00001000
00000000
00000000
00000100
00000000
00000000
00000000
00000010
00000000
00000001
00000000
00000100
00000000
,
00000010
00000000
00000000
00000100
00000000
00000000
00002000
00000000
00000000
00000000
00000000
00000000
00013000
00000000
00000000
00000000
,
00010000
00001000
00100000
00000000
00001000
00010000
00000100
00000000
,
00010000
00001000
00010000
01000000
10000000
00000000
10010000
00000000
,
00010000
00100000
01000000
00000000
00010000
00001000
00010000
00000000
,
00010100
00000000
00000000
00001000
00000000
00000000
02002000
00000000
03003000
00000000
00000000
00000000
00011000
00000000
00000000
00000000
,
00001000
00010000
00000010
00000000
00010000
00001000
01000000
00000000
,
00001000
00010000
00001000
00000100
00000001
00000000
00001001
00000000
,
00001000
00000010
00000100
00000000
00001000
00010000
00001000
00000000
,
01001000
00000000
00000000
00010000
00000000
00000000
00020200
00000000
00030300
00000000
00000000
00000000
00011000
00000000
00000000
00000000
,
00002000
00000000
00203000
00000000
,
02300000
00000000
03020000
00000000
,
00032000
00000000
00003020
00000000
,
00000230
00000000
00002300
00000000
,
00003001
00000011
00001000
00001100
,
00000100
00010000
00001000
00100000
00010000
01000000
00100000
00000000
,
10000000
01000000
00010000
00000000
00001000
00000010
00000001
00000000
,
00000100
00000000
00000000
00001000
00000000
00000000
00022000
00000000
00000000
00000000
00000000
00000000
00000000
00000000
00000000
00000000
,
00033000
00000000
00000000
00000000
;

//---------------dance-single - ----------------
#NOTES:
     dance-single:
     :
     Challenge:
     12:
     0.539342,0.539721,0.460846,0.398809,0.540608,426.000000,374.000000,52.000000,45.000000,0.000000,0.000000,0.539342,0.539721,0.460846,0.398809,0.540608,426.000000,374.000000,52.000000,45.000000,0.000000,0.000000:
0000
0000
0000
0000
,
0000
0000
0000
0000
,
0000
0000
0000
0000
,
0000
0000
0000
0000
,
0000
0000
0000
0000
0000
0000
0000
0000
0000
0000
0000
0000
0000
0000
1000
0001
,
2000
0000
0000
3020
0000
0000
0230
0000
0000
0000
0302
0000
0000
0000
0000
0000
,
1003
0000
0000
1100
0000
0000
0101
0000
1001
0000
0000
0000
1001
0000
0001
1000
,
0002
0000
0000
0203
0000
0000
0320
0000
0000
0000
1030
0000
0100
0000
0010
0000
,
0011
0000
0000
1010
0000
0000
1001
0000
0000
0000
0010
0000
0100
0020
0000
0000
,
1030
0000
0010
1000
0000
0100
0000
1000
0000
0010
0000
0100
0000
0010
0000
0000
,
0110
0000
0100
0001
0000
0010
0000
0001
0000
0100
0000
0010
0000
0100
0000
0000
,
0110
0000
0010
1000
0000
0100
0000
0010
0000
0100
0000
1000
0000
0010
0000
0000
,
0110
0000
0100
0001
0000
0010
0000
0100
0000
0010
0000
0001
0000
0100
0000
0000
,
0101
0000
0001
0010
0000
0001
0000
0100
0000
0010
0000
1000
0000
0010
0000
0000
,
1010
0000
1000
0100
0000
1000
0000
0010
0000
0100
0000
0001
0000
0100
0000
0000
,
0110
0000
0010
1000
0000
0100
0000
0010
0000
0001
0000
0100
0000
0010
0000
0000
,
0220
0000
0000
0000
0330
0000
0000
0101
0000
0000
1100
0000
0000
0011
0000
0000
,
1010
0000
0000
1000
0001
0000
0000
0001
0100
0000
0000
0100
0010
0000
0000
0010
,
2000
0000
0000
3200
0000
0000
1300
0000
0010
0000
0100
0000
0101
0000
0000
0000
,
1010
0000
0000
0010
0100
0000
0000
0100
0001
0000
0000
0001
1000
0000
0010
0100
,
0020
0000
0000
2030
0000
0000
3001
0000
0002
0000
0000
1003
0100
0000
0010
0000
,
0011
0000
0000
0001
1000
0000
0000
1000
0100
0000
0000
0100
0010
0000
0000
0010
,
0002
0000
0000
0203
0000
0000
0301
0000
0010
0000
0100
0000
1100
0000
0000
0000
,
0011
0000
0000
0010
0100
0000
0000
0100
1000
0000
0000
1000
0001
0000
0010
0100
,
0020
0000
0000
0032
0000
0000
1003
0000
2000
0000
0000
3001
0100
0000
0010
0000
,
0110
0000
0000
0100
0001
0000
0000
0001
0010
0000
0000
0010
1000
0000
0000
1000
,
0010
0000
0000
0010
0001
0000
0000
0001
0100
0000
0010
0000
0100
0000
1000
0000
,
0100
0010
0100
0001
0010
0100
0010
1000
,
0010
0100
0010
0001
0100
0010
1000
0100
,
0110
0000
0000
0010
0001
0000
0000
0001
0100
0000
0000
0100
1000
0000
0000
1000
,
0100
0000
0000
0100
0001
0000
0000
0001
0010
0000
0100
0000
0010
0000
1000
0000
,
0010
0100
0001
0100
0010
0100
1000
0010
,
0100
0001
0010
0011
0000
2200
3300
0000
,
2002
0000
0000
0000
0000
0000
0000
0000
0000
0000
0000
0000
3003
0000
0000
0000
0000
0000
0000
0000
0000
0000
0000
0000
0001
0000
0000
0000
0100
0000
0000
0000
0010
0000
0000
0000
1000
0000
0000
0000
0000
0000
0100
0000
0000
0010
0000
0000
,
0200
0000
0000
2300
0000
0000
3002
0000
0000
0000
0023
0000
0000
0000
0000
0000
,
0031
0000
0000
0101
0000
0000
1100
0000
1001
0000
0000
0000
0110
0000
0010
0100
,
0020
0000
0000
2030
0000
0000
3002
0000
0000
0000
0103
0000
0010
0000
1000
0000
,
1100
0000
0000
0110
0000
0000
0011
0000
1001
0000
0000
0000
0110
0000
0100
0001
,
2000
0000
0000
3020
0000
0000
0032
0000
0000
0000
0023
0000
0000
0000
0000
0000
,
1030
0000
0000
1100
0000
0000
0101
0000
1001
0000
0000
0000
0110
0000
0010
1000
,
0002
0000
0000
0203
0000
0000
2300
0000
0000
0000
3100
0000
0001
0000
0010
0000
,
0110
0000
0000
1100
0000
0000
0011
0000
1001
0000
0000
0000
0110
0000
0010
0100
,
0001
0010
0001
0100
1000
0100
0001
0010
,
0100
0000
0000
1000
0010
0000
0100
0000
0010
0000
0000
0100
0001
0000
0100
0010
,
1000
0100
1000
0010
0001
0010
1000
0100
,
0010
0000
0000
0001
0100
0000
0010
0000
0100
0000
0000
0010
1000
0000
0100
0010
,
0001
0100
1000
0100
0001
0010
0001
0100
,
0010
0000
0000
1000
0100
0000
0010
0000
0100
0000
0000
0010
0001
0000
0010
0100
,
1000
0010
0001
0010
1000
0100
1000
0010
,
0100
0000
0000
0001
0010
0000
0100
0000
0010
0000
0000
0100
1000
0000
0010
0000
,
0210
0001
1000
0301
,
0020
1000
0001
1030
,
0200
1000
0010
0301
,
0020
0001
0100
1030
,
1001
0000
0001
0100
0001
0000
0010
0000
0100
0000
1000
0010
1000
0000
0100
0000
,
0010
0000
0001
0100
0000
0010
0000
2000
0000
0000
3000
0000
1001
0000
0001
0010
,
0001
0000
0100
0000
0010
0000
1000
0100
1000
0100
0000
0010
0000
0001
0000
0000
,
0101
0000
0000
1100
0000
0000
2020
0000
0000
0000
0000
0000
0000
0000
0000
0000
,
3030
0000
0000
0000
;

//---------------dance-double - ----------------
#NOTES:
     dance-double:
     :
     Challenge:
     13:
     0.531745,0.539721,0.407671,0.505158,0.478571,420.000000,374.000000,46.000000,57.000000,0.000000,0.000000,0.531745,0.539721,0.407671,0.505158,0.478571,420.000000,374.000000,46.000000,57.000000,0.000000,0.000000:
00000000
00000000
00000000
00000000
,
00000000
00000000
00000000
00000000
,
00000000
00000000
00000000
00000000
,
00000000
00000000
00000000
00000000
,
00000000
00000000
00000000
00000000
00000000
00000000
00000000
00000000
00000000
00000000
00000000
00000000
00000000
00000000
00001000
00010000
,
00002000
00000000
00000000
00203000
00000000
00000000
02300000
00000000
00000000
00000000
23000000
00000000
00000000
00000000
00000000
00000000
,
30100000
00000000
00000000
00010000
00000000
00000000
00001000
00000000
00011000
00000000
00000000
00000000
00011000
00000000
00010000
00001000
,
00020000
00000000
00000000
00030200
00000000
00000000
00000320
00000000
00000000
00000000
00000031
00000000
00000100
00000000
00001000
00000000
,
00011000
00000000
00000000
00010010
00000000
00000000
01001000
00000000
00000000
00000000
00001000
00000000
00010000
00002000
00000000
00000000
,
00103000
00000000
00100000
00010000
00000000
01000000
00000000
00100000
00000000
00010000
00000000
00001000
00000000
00010000
00000000
00000000
,
00000100
00000000
00000100
00001000
00000000
00000010
00000000
00000100
00000000
00001000
00000000
00010000
00000000
00001000
00000000
00000000
,
01000000
00000000
01000000
00010000
00000000
00100000
00000000
01000000
00000000
00010000
00000000
00001000
00000000
00010000
00000000
00000000
,
00000010
00000000
00000010
00001000
00000000
00000100
00000000
00000010
00000000
00001000
00000000
00010000
00000000
00001000
00000000
00000000
,
00011000
00000000
00010000
00001000
00000000
00100000
00000000
01000000
00000000
10000000
00000000
00100000
00000000
00010000
00000000
00000000
,
00011000
00000000
00001000
00010000
00000000
00000100
00000000
00000010
00000000
00000001
00000000
00000100
00000000
00001000
00000000
00000000
,
00011000
00000000
00010000
00100000
00000000
10000000
00000000
01000000
00000000
00010000
00000000
00001000
00000000
00000010
00000000
00000000
,
00000220
00000000
00000000
00000000
00000330
00000000
00000000
00001100
00000000
00000000
00000011
00000000
00000000
00000101
00000000
00000000
,
00001010
00000000
00000000
00001000
00000001
00000000
00000000
00000001
00000100
00000000
00000000
00000100
00001000
00000000
00000000
00001000
,
00020000
00000000
00000000
00032000
00000000
00000000
01003000
00000000
00010000
00000000
00100000
00000000
01100000
00000000
00000000
00000000
,
00110000
00000000
00000000
00010000
10000000
00000000
00000000
10000000
01000000
00000000
00000000
01000000
00010000
00000000
00001000
00010000
,
00002000
00000000
00000000
00203000
00000000
00000000
00310000
00000000
00020000
00000000
00000000
10030000
00100000
00000000
01000000
00000000
,
01010000
00000000
00000000
00010000
10000000
00000000
00000000
10000000
00100000
00000000
00000000
00100000
00010000
00000000
00000000
00010000
,
00002000
00000000
00000000
00023000
00000000
00000000
00030010
00000000
00001000
00000000
00000100
00000000
00000110
00000000
00000000
00000000
,
00001100
00000000
00000000
00001000
00000001
00000000
00000000
00000001
00000010
00000000
00000000
00000010
00001000
00000000
00010000
00001000
,
00020000
00000000
00000000
00030200
00000000
00000000
00001300
00000000
00002000
00000000
00000000
00003001
00000100
00000000
00000010
00000000
,
00000110
00000000
00000000
00000100
00000001
00000000
00000010
00000000
00000001
00000000
00000000
00001000
00000001
00000000
00000010
00000000
,
00000001
00000000
00000000
00000100
00000001
00000000
00000010
00000000
00000001
00000000
00000100
00000000
00001000
00000000
00010000
00000000
,
00100000
10000000
01000000
00100000
01000000
00010000
00001000
00000010
,
00000100
00000010
00000001
00000100
00001000
00010000
01000000
00100000
,
01100000
00000000
00000000
01000000
10000000
00000000
00100000
00000000
10000000
00000000
00000000
00010000
10000000
00000000
00100000
00000000
,
10000000
00000000
00000000
01000000
10000000
00000000
00100000
00000000
10000000
00000000
01000000
00000000
00010000
00000000
00001000
00000000
,
00000010
00000001
00000100
00000010
00000100
00001000
00010000
00100000
,
01000000
00100000
10000000
11000000
00000000
02020000
03030000
00000000
,
00022000
00000000
00000000
00000000
00000000
00000000
00000000
00000000
00000000
00000000
00000000
00000000
00033000
00000000
00000000
00000000
00000000
00000000
00000000
00000000
00000000
00000000
00000000
00000000
00010000
00000000
00000000
00000000
00001000
00000000
00000000
00000000
00000100
00000000
00000000
00000000
00000010
00000000
00000000
00000000
00000000
00000000
00000100
00000000
00000000
00000001
00000000
00000000
,
00000200
00000000
00000000
00002300
00000000
00000000
00023000
00000000
00000000
00000000
02030000
00000000
00000000
00000000
00000000
00000000
,
13000000
00000000
00000000
10100000
00000000
00000000
00110000
00000000
00011000
00000000
00000000
00000000
00011000
00000000
00001000
00010000
,
00002000
00000000
00000000
00003200
00000000
00000000
00000302
00000000
00000000
00000000
00000013
00000000
00001000
00000000
00010000
00000000
,
00011000
00000000
00000000
00101000
00000000
00000000
00110000
00000000
10010000
00000000
00000000
00000000
01100000
00000000
00100000
10000000
,
02000000
00000000
00000000
03020000
00000000
00000000
00032000
00000000
00000000
00000000
00003020
00000000
00000000
00000000
00000000
00000000
,
00000031
00000000
00000000
00000101
00000000
00000000
00001100
00000000
00011000
00000000
00000000
00000000
00011000
00000000
00001000
00010000
,
00200000
00000000
00000000
20300000
00000000
00000000
32000000
00000000
00000000
00000000
03010000
00000000
00001000
00000000
00000010
00000000
,
00000011
00000000
00000000
00001100
00000000
00000000
00001010
00000000
00000101
00000000
00000000
00000000
00001001
00000000
00000001
00000100
,
00000010
00000100
00001000
00010000
00100000
01000000
00010000
00100000
,
10000000
00000000
00100000
00000000
00010000
00000000
01000000
00000000
10000000
00000000
01000000
00000000
00010000
00000000
10000000
00100000
,
01000000
00100000
00010000
00001000
00000100
00000010
00001000
00000100
,
00000001
00000000
00000100
00000000
00001000
00000000
00000010
00000000
00000001
00000000
00000010
00000000
00001000
00000000
00000100
00000010
,
00000001
00000100
00001000
00000100
00000010
00001000
00000100
00000010
,
00001000
00000000
00010000
00000000
01000000
00000000
10000000
00000000
00100000
00000000
01000000
00000000
00010000
00000000
00100000
01000000
,
10000000
00100000
00010000
00100000
01000000
00010000
00100000
01000000
,
00010000
00001000
00000010
00000001
00000100
00000010
00001000
00000001
,
00002001
00003020
00020030
00230000
,
00302000
00003020
00020030
00230000
,
00302000
00003200
00020300
02030000
,
03002000
00003200
00020300
02030000
,
13000000
00000000
10000000
00100000
10000000
00000000
01000000
00000000
00010000
00000000
00001000
00010000
00001000
00000000
00000010
00000000
,
00000001
00000000
00000100
00000010
00000000
00000100
00000000
00002000
00000000
00000000
00003000
00000000
00011000
00000000
00010000
00001000
,
00010000
00000000
00001000
00000000
00000100
00000000
00000001
00000010
00000001
00000010
00000000
00001000
00000000
00010000
00000000
00000000
,
00011000
00000000
00000000
01100000
00000000
00000000
20020000
00000000
00000000
00000000
00000000
00000000
00000000
00000000
00000000
00000000
,
30030000
00000000
00000000
00000000
;
