#TITLE:WISH (EUROBEAT MIX);
#SUBTITLE:;
#ARTIST:DJ YOSHITAKA feat.杉村ことみ;
#TITLETRANSLIT:;
#SUBTITLETRANSLIT:;
#ARTISTTRANSLIT:;
#GENRE:;
#CREDIT:;
#MUSIC:WISH (EUROBEAT MIX).ogg;
#BANNER:WISH (EUROBEAT MIX).png;
#BACKGROUND:WISH (EUROBEAT MIX)-bg.png;
#CDTITLE:;
#SAMPLESTART:49.532;
#SAMPLELENGTH:15.000;
#SELECTABLE:YES;
#OFFSET:1.162;
#BPMS:0.000=155.000;
#STOPS:;
#DISPLAYBPM:155.000;
#BGCHANGES:0.000=WISH (EUROBEAT MIX).mp4=1.000=0=0=0=StretchNoLoop====,
99999.000=-nosongbg-=1.000=0=0=0=StretchNoLoop====
;
#FGCHANGES:;

//--------------- dance-single - ~Princess Pamela~ ----------------
#NOTES:
     dance-single:
     ~Princess Pamela~:
     Beginner:
     4:
     0,0,0,0,0:
0000
0000
0000
0000
,
0000
0000
0000
0000
,
0000
0000
0000
0000
,
0000
0000
0000
0000
,
0000
0000
0000
0000
,
0001
0000
0000
0000
,
0100
0000
0000
0000
,
0010
0000
0010
0000
,
1001
0000
0000
0000
,
1000
0000
0000
0000
,
0100
0000
0000
0000
,
1000
0000
0000
0000
,
0010
0000
0100
0000
,
0001
0000
0000
0000
,
0010
0000
0000
0000
,
0001
0000
0000
0000
,
0100
0000
0010
0000
,
1001
0000
0000
0000
,
1000
0000
0000
0000
,
0100
0000
0000
0000
,
0010
0000
0010
0000
,
0001
0000
0000
0000
,
0100
0000
0000
0000
,
0010
0000
1000
0000
,
0010
0000
0000
0000
,
1001
0000
0000
0000
,
0001
0000
0001
0000
,
0010
0000
0000
0000
,
0100
0000
1000
0000
,
0001
0000
0000
0000
,
1000
0000
0000
0000
,
0010
0000
0100
0000
,
0110
0000
0000
0000
,
0001
0000
0001
0000
,
0100
0000
0100
0000
,
0010
0000
0010
0000
,
1000
0001
0000
0001
,
1000
0000
1000
0000
,
0100
0000
0100
0000
,
0010
0000
0010
0000
,
1001
0000
0000
0000
,
0001
0000
0100
0000
,
0001
0000
0000
0000
,
0010
0000
0100
0000
,
1000
0000
0000
0000
,
0010
0000
0100
0000
,
0010
0000
0000
0000
,
1000
0000
0001
0000
,
0010
0000
0000
0000
,
0100
0000
0000
0000
,
1000
0000
0000
0000
,
0001
0000
0000
0000
,
0010
0000
0010
0000
,
0001
0000
0000
0000
,
1000
0000
0000
0000
,
0010
0000
0100
0000
,
0110
0000
0000
0000
,
0001
0000
1000
0000
,
0100
0000
1000
0000
,
0001
0000
0010
0000
,
0110
0000
0000
0000
,
1000
0000
0001
0000
,
0100
0000
0001
0000
,
1000
0000
0010
0000
,
0110
0000
0001
1000
,
2002
0000
0000
0000
,
0000
0000
0000
0000
,
3003
0000
0000
0000
;

//--------------- dance-single - ~Princess Pamela~ ----------------
#NOTES:
     dance-single:
     ~Princess Pamela~:
     Easy:
     7:
     0,0,0,0,0:
0000
0000
0000
0000
,
0000
0000
0000
0000
,
0000
0000
0000
0000
,
0000
0000
0000
0000
,
0000
0000
0000
0000
,
1000
0000
1000
0000
,
0100
0000
0100
0000
,
0010
0001
0100
0100
,
2002
0000
3003
0000
,
1000
0100
0010
0100
,
1000
0001
0020
0030
,
0001
0100
0001
1000
,
0010
0000
1000
0001
,
0010
0100
1000
0010
,
0100
0001
0020
0030
,
0001
0100
0010
0010
,
1001
0000
0100
0010
,
0110
0000
0001
1000
,
0100
1000
0001
0000
,
0010
0001
1000
0001
,
0010
0000
0100
0100
,
1000
0000
0010
0100
,
0001
0100
0010
2000
,
3000
0200
0300
0020
,
0030
0001
0100
0010
,
2002
3003
0001
0010
,
0100
0010
0001
0001
,
2000
3000
0010
0100
,
0001
0100
0010
0010
,
2002
3003
1000
0100
,
0010
0100
1000
0001
,
0010
0000
0001
1000
,
0010
0100
0110
0000
,
1000
1000
0100
0010
,
0001
0001
0100
0010
,
1000
1000
0001
0010
,
0001
0000
1000
0001
0000
0001
1000
0000
,
0010
0010
0100
0001
,
0010
0010
0100
1000
,
0001
0001
0100
0010
,
2002
0000
3003
0000
,
1000
0100
0010
0100
,
1000
0001
0020
0030
,
0001
0100
0010
1000
,
0001
0000
0010
0100
,
1000
0010
0100
0001
,
0010
0100
2000
3000
,
0010
0100
0001
0010
,
0100
0100
1000
0001
,
0200
0000
0000
0300
,
0020
0000
0000
0030
,
2000
0000
0000
3000
,
0002
0023
0230
2300
,
3002
0000
0103
0100
,
0200
0000
0310
0010
,
1000
0001
1000
1000
,
2002
3003
0010
0100
,
0001
0010
0100
0110
,
1000
0010
0100
0110
,
0001
1000
0100
0100
,
1000
0000
1000
0001
0000
0001
1000
0000
,
0010
0100
0001
1001
,
1000
0100
0010
0110
,
0100
1000
0010
0110
,
1001
0000
0100
0010
,
2002
0000
0000
0000
,
0000
0000
0000
0000
,
3003
0000
0000
0000
;

//--------------- dance-single - ~Princess Pamela~ ----------------
#NOTES:
     dance-single:
     ~Princess Pamela~:
     Medium:
     11:
     0,0,0,0,0:
0000
0000
0000
0000
,
0000
0000
0000
0000
,
0000
0000
0000
0000
,
0000
0000
0000
0000
,
0000
0000
0000
0000
,
1000
0000
1000
0000
0100
0010
0001
0000
,
0100
0000
0100
0000
0010
1000
0001
0000
,
0010
0001
0010
0001
1000
1000
0010
0010
,
0200
0000
0000
0000
0000
0000
0000
0000
0310
1000
0000
0010
1000
0000
0000
0000
,
0001
0010
0100
1000
0010
0100
0002
0000
,
1003
0100
0010
0001
0100
0000
0110
0000
,
0001
0100
0010
1000
0100
0010
0001
0000
,
1000
0010
0100
0002
0000
0013
0100
0010
,
0001
0100
0010
1000
0100
0010
0002
0000
,
1003
0010
0100
0001
0010
0000
0110
0000
,
1000
0100
0010
0001
0100
0010
0100
0010
,
2000
0000
0000
0000
0000
0000
3000
0000
0001
1000
0000
1000
0001
0000
0010
0000
,
0110
0000
0100
1000
0100
0010
0100
1000
,
0001
0000
0000
0001
0000
0000
0010
0000
0011
0000
0000
0000
1000
0000
0000
0000
,
0001
0000
0100
0010
1000
0010
0100
0001
,
1000
0000
0000
0001
0010
0010
0010
0010
,
0000
0000
0001
1000
0100
1000
0001
0010
,
0001
0000
0000
0001
0000
0000
1000
0000
0010
0000
1000
0000
0100
0000
0020
0000
,
0000
0000
0031
0200
0000
0000
0310
2000
,
0000
0000
3000
0000
0001
0000
0010
0000
0100
0000
0000
0100
1000
0000
0001
0000
,
0010
0001
0010
0001
0100
0010
1000
0000
,
0100
0010
0100
0010
0001
0001
0001
0000
,
1000
0010
1000
0010
0100
0001
0010
0000
,
0100
0000
1000
0000
0100
0000
1000
0000
0001
0100
0000
0001
0000
0000
1000
0000
,
0020
0000
0100
0030
1000
0001
0010
0200
,
0010
0000
1300
0000
0100
0010
0001
2000
,
0000
3010
0200
0000
0300
0001
0010
0001
,
2000
3000
0200
0300
0020
0030
0001
1000
,
0010
0000
0000
0010
0100
0000
0002
0000
0000
0000
0013
0000
0001
0000
0000
0000
,
0100
0000
0000
0100
0010
0000
2000
0000
0000
0000
3001
0000
0001
0000
0000
0000
,
0010
0000
0000
0010
0100
0000
1000
0000
0001
0000
0010
0000
0001
0000
0010
0000
,
0002
0203
0320
2030
0000
3010
0100
0001
,
1000
0000
0000
1000
0010
0000
0200
0000
0000
0000
0301
0000
0010
0000
0000
0000
,
0100
0000
0000
0100
1000
0000
0002
0000
0000
0000
0103
0000
0100
0000
0000
0000
,
0010
0000
0000
0010
1000
0000
0002
0000
0000
0000
0013
0000
0100
0000
0000
0000
,
0220
0000
0000
0000
0330
0000
0000
0000
0001
1000
0000
0001
1000
0000
0000
0000
,
0100
0001
0100
1000
0001
0010
0200
0000
,
1300
0010
0100
0001
0010
0000
0110
0000
,
0001
0100
1000
0100
0001
1000
0010
0000
,
0220
0000
0000
0000
0330
0000
0000
0000
0001
0100
0000
0100
0001
0000
0001
0000
,
1000
0100
0001
0100
1000
0001
0020
0000
,
0031
0100
1000
0100
0001
0000
1001
0000
,
1000
0010
0001
0010
1000
0001
0200
0000
,
0310
1000
0001
0020
0000
0130
1000
0001
,
0100
0000
0000
0100
0000
0000
0020
0000
0000
0000
1030
0000
0001
0000
0000
0000
,
0010
0000
0000
0010
0000
0000
0200
0000
0000
0000
1300
0000
0001
0000
0000
0000
,
0100
0000
0000
0100
0000
0000
0002
0000
0000
0000
0013
0000
0100
0000
0000
0000
,
2000
3020
0230
0302
0000
0103
0020
0000
,
1030
0000
0000
1000
0000
0000
0200
0000
0000
0000
0310
0000
0001
0000
0000
0000
,
0100
0000
0000
0100
0000
0000
0020
0000
0000
0000
1030
0000
0001
0000
0000
0000
,
0010
0100
0010
0100
1000
0010
0100
0000
,
2002
0000
0000
0000
3003
0000
0000
0000
0010
0100
0000
0100
0010
0000
0000
0000
,
1000
0000
0000
1000
0100
0000
0010
0000
0001
0000
0100
0000
0100
0000
0000
0000
,
0001
0000
0000
0001
1000
0000
0010
0000
0100
0000
0001
0000
0001
0000
0000
0000
,
1000
0000
0000
1000
0010
0000
0100
0000
0001
0000
0010
0000
0001
0000
0010
0000
,
0002
0203
0320
2030
0000
3010
0100
0001
,
1000
0000
0000
1000
0100
0000
0010
0000
0001
0000
0100
0000
0100
0000
0000
0000
,
0010
0000
0000
0010
1000
0000
0001
0000
0010
0000
0100
0000
0100
0000
0000
0000
,
0010
0000
0000
0010
0001
0000
1000
0000
0010
0000
0100
0000
0001
0000
0000
0000
,
0220
0000
0000
0000
0330
0000
0000
0000
1000
0001
0000
1000
0001
0000
0100
0000
,
0020
0000
0000
0000
,
0000
0000
0000
0000
,
0030
0000
0000
0000
;

//--------------- dance-single - ~Princess Pamela~ ----------------
#NOTES:
     dance-single:
     ~Princess Pamela~:
     Hard:
     15:
     0,0,0,0,0:
0000
0000
0000
0000
,
0000
0000
0000
0000
,
0000
0000
0000
0000
,
0000
0000
0000
0000
,
0000
0000
0000
0000
,
0001
0100
0000
0100
0000
0001
0000
0010
,
0000
0100
0000
0100
0000
1000
0000
0010
,
0100
0000
0001
0000
0100
0000
0010
0000
1000
0010
1000
0010
1000
0001
1000
0001
,
0020
0000
0000
0000
0000
0000
0000
0000
0031
1000
0000
1000
0001
0000
0001
0000
,
0100
0010
1000
0000
0001
0000
0100
0010
1000
0000
0001
0000
0001
0000
0000
0000
,
0010
0100
1000
0000
0001
0000
0010
0000
0200
0000
0000
0000
0301
0000
0000
0000
,
0100
1000
0001
0000
0010
0000
0100
1000
0001
0000
0010
0000
0001
0000
0000
0000
,
2010
0000
0000
0000
0001
0000
3001
0000
1000
0100
0000
0100
1000
0000
0001
0000
,
1000
0010
0100
0000
0001
0000
1000
0010
0100
0000
0001
0000
0001
0000
0000
0000
,
1000
0100
0010
0000
0001
0000
1000
0000
0020
0000
0000
0000
0130
0000
0000
0000
,
0001
0010
0100
0000
1000
0000
0001
0000
0100
0010
0100
0010
0100
0010
0100
0010
,
2000
0000
0000
0000
0000
0000
0000
0000
3100
0010
0000
0010
0100
0000
0010
0000
,
1001
0000
1000
0100
0010
0100
1000
0001
,
0010
0000
0000
0010
0000
0000
0001
0000
0101
0000
0000
0000
1000
0000
0000
0000
,
0010
0100
0001
0100
0010
1000
0001
0001
,
0010
0000
0000
0000
0100
0110
0010
0110
,
0000
1000
0001
0100
0001
1000
0010
1000
,
0100
0000
0000
0100
0000
0000
0010
0000
0001
0000
1000
0000
0100
0000
0002
0000
,
0000
0103
1000
0002
0000
1003
0010
0002
,
0000
0000
0013
0000
1000
0000
0001
0000
0100
0000
0000
0100
0010
0000
1000
0000
,
1001
0000
0001
0000
0010
0000
0010
0000
0100
0000
1000
0100
1000
0000
0001
0000
,
0010
0000
0010
0000
0001
0000
0001
0000
1000
0000
0010
1000
0010
0000
0010
0000
,
0100
0000
0100
0000
0001
0000
0001
0000
1000
0000
0010
0100
0010
0000
1000
0000
,
0001
0000
0001
0000
0010
0000
0010
0000
0100
1000
0000
1000
0100
0000
0010
0000
,
0110
0000
0000
0000
1000
0000
0001
0000
0100
0000
0001
0000
1000
0000
0010
1000
,
0010
0000
0000
0000
0100
0000
0001
0000
1000
0000
0001
0000
0010
0000
0100
0010
,
0100
0000
1000
0001
0100
0010
1000
0000
,
1100
0000
0000
0000
0110
0000
0000
0000
0011
0000
0000
0000
1000
0100
0010
0001
,
1000
0000
0010
0100
0000
0001
0100
0000
0001
0000
0010
0000
0011
0000
0000
0000
,
0001
0000
0100
0010
0000
1000
0010
0000
1000
0000
0100
0000
0110
0000
0000
0000
,
0001
0000
1000
0010
0000
1000
0001
0000
0010
0100
0010
0100
1000
0100
1000
0100
,
0010
0000
0010
0000
0001
0000
0102
0000
0000
0000
1003
0000
0010
1000
0010
1000
,
0010
0000
0100
0001
0000
1000
0001
0000
0010
0000
0100
0000
1100
0000
0000
0000
,
0001
0000
0100
0010
0000
1000
0010
0000
1000
0000
0001
0000
0011
0000
0000
0000
,
0001
0000
1000
0010
0000
0100
0001
0000
1000
0000
0100
0000
0110
0000
0000
0000
,
2002
0000
0000
0000
0000
0000
3003
0000
1000
0001
1000
0001
1000
0000
0010
0000
,
1000
0100
0010
0000
0001
0000
1000
0100
0010
0000
0001
0000
0001
0000
0000
0000
,
1000
0010
0100
0000
0001
0000
0010
0000
0210
0000
0000
0000
0301
0000
0000
0000
,
0100
1000
0001
0000
0010
0000
0100
1000
0001
0000
0010
0000
0110
0000
0000
0000
,
2002
0000
0000
0000
3003
0000
0000
0000
0001
0100
0000
0100
0010
0000
1000
0000
,
0001
0010
0100
0000
1000
0000
0001
0010
0100
0000
1000
0000
1000
0000
0000
0000
,
0010
0100
0001
0000
1000
0000
0100
0000
0010
0100
0010
0001
1000
0000
1000
0000
,
0010
0100
0001
0000
1000
0000
0010
0100
0001
0000
1000
0000
1000
0000
0000
0000
,
0100
0010
0100
0010
0001
0000
1000
0000
0001
0000
0100
0000
0010
1000
0010
1000
,
0001
0000
0000
0001
0000
0000
0100
0000
0000
0000
0010
0000
1000
0000
0000
0000
,
0001
0000
0000
0001
0000
0000
0010
0000
0000
0000
0100
0000
1000
0000
0000
0000
,
0010
0000
0000
0010
0000
0000
0100
0000
0000
0000
0001
0000
1000
0000
0000
0000
,
0200
0320
0032
2003
0000
3020
0230
0000
,
0301
0000
0000
0010
0000
0000
0020
0000
0000
0000
0031
0000
0100
0000
0000
0000
,
0010
0000
0000
0010
0000
0000
2000
0000
0000
0000
3001
0000
0010
0000
0000
0000
,
0100
0000
1000
0000
0100
0000
1000
0000
0001
0100
0001
0100
0010
1000
0010
1000
,
0002
0000
0000
0000
0000
0000
0000
0000
1003
0100
0000
0100
0010
0000
0001
0000
,
1000
0000
0010
0100
0000
0001
0100
0000
0010
1000
0001
1000
0010
0000
0000
0000
,
1000
0000
0100
0010
0000
0001
0010
0000
0001
0100
0001
1000
0010
0000
0000
0000
,
0100
0000
0001
0010
0000
0100
0010
0000
0100
1000
0100
1000
0001
0010
0001
0010
,
0002
0000
0203
0000
0320
0000
2030
0000
0000
0000
3100
0000
0010
0100
0010
0100
,
0010
0000
0001
0010
0000
0001
0100
0000
0010
1000
0001
1000
0010
0000
0000
0000
,
0100
0000
0001
1000
0000
0100
1000
0000
0001
0010
0100
0010
0001
0000
0001
0000
,
1000
0000
0010
0100
0000
0010
1000
0000
0001
1000
0100
1000
0001
0000
0000
0000
,
0220
0000
0000
0000
0330
0000
0000
0000
1000
0001
0000
0001
0100
0000
0010
0000
,
2002
0000
0000
0000
,
0000
0000
0000
0000
,
3003
0000
0000
0000
;
