#VERSION:0.83;
#TITLE:Vermillion;
#SUBTITLE:;
#ARTIST:Mystic Moon;
#TITLETRANSLIT:;
#SUBTITLETRANSLIT:;
#ARTISTTRANSLIT:;
#GENRE:;
#CREDIT:;
#MUSIC:Vermillion.ogg;
#BANNER:Vermillion.png;
#BACKGROUND:Vermillion-bg.png;
#CDTITLE:;
#SAMPLESTART:16.134;
#SAMPLELENGTH:15.000;
#SELECTABLE:YES;
#OFFSET:1.234;
#BPMS:0.000=152.000;
#STOPS:40.000=1.184
,169.000=1.184
;
#TIMESIGNATURES:0.000=4=4,
40.000=1=4,
41.000=4=4,
169.000=1=4,
170.000=4=4
;
#BGCHANGES:-4.000=Vermillion.mp4=1.000=0=0=0=StretchNoLoop====,
99999.000=-nosongbg-=1.000=0=0=0=StretchNoLoop====
;
#FGCHANGES:;

//--------------- dance-single - Extraordiberry ----------------
#NOTEDATA:;
#STEPSTYPE:dance-single;
#DESCRIPTION:Extraordiberry;
#DIFFICULTY:Beginner;
#METER:3;
#RADARVALUES:0,0,0,0,0;
#CREDIT:Extraordiberry;
#NOTES:
0000
0000
0000
0000
,
0000
0000
0000
0000
,
0000
0000
0000
0000
,
0000
0000
0000
0000
,
1000
0000
0000
0000
,
0001
0000
0000
0000
,
1000
0000
1000
0000
,
1000
0000
0000
0000
,
0001
0000
0001
0000
,
0001
0000
0000
0000
,
0000
0000
0000
1000
,
0000
1000
0000
1000
,
0000
0001
0000
0000
,
0000
0100
0000
0000
,
0000
0100
0000
0010
,
0000
0010
0000
0010
,
0000
0100
0000
0000
,
0000
0001
0000
0000
,
0000
1000
0000
0000
,
0000
0010
0000
0000
,
0000
0100
0000
0000
,
0000
0010
0000
0000
,
0000
1000
0000
0000
,
0000
0001
0000
0000
,
0000
0010
0000
0000
,
0000
0100
0000
0100
,
0000
1000
0000
0001
,
0000
1000
0000
0000
,
0000
0001
0000
0100
,
0000
0001
0000
0000
,
0000
1000
0000
0010
,
0000
1000
0000
0000
,
0000
0001
0000
0010
,
0000
0001
0000
0010
,
0000
0010
0000
0000
,
0000
0001
0000
0000
,
0000
1000
0000
0000
,
0000
0010
0000
0000
,
0000
1000
0000
0000
,
0000
0001
0000
0000
,
0000
1000
0000
0001
,
0000
1000
0000
0000
,
0000
0000
0000
0000
,
0001
0000
0001
0000
,
0001
0000
1000
0000
,
0000
0000
0100
0000
,
0000
0000
0100
0000
,
0010
0000
0010
0000
,
0010
0000
0100
0000
,
0100
0000
1000
0000
,
1000
0000
0001
0000
,
1000
0000
0010
0000
,
0100
0000
0001
0001
,
0001
0000
0000
0002
0000
0000
0000
0000
,
0000
0000
0000
0003
;

//--------------- dance-single - Extraordiberry ----------------
#NOTEDATA:;
#STEPSTYPE:dance-single;
#DESCRIPTION:Extraordiberry;
#DIFFICULTY:Easy;
#METER:7;
#RADARVALUES:0,0,0,0,0;
#CREDIT:Extraordiberry;
#NOTES:
0000
0000
0000
0000
,
0000
0000
0000
0000
,
0000
0000
0000
0000
,
0000
0000
0000
0000
,
1000
1000
0100
0000
,
0010
0010
0001
0000
,
1000
0010
1000
0001
,
0100
0001
1000
0000
,
0001
0010
0001
1000
,
0100
1000
0001
0000
,
2000
3000
0000
0000
0001
0000
0000
0000
0100
0000
0000
0000
1000
0000
0000
0000
,
0100
0001
1000
0001
,
0000
1000
0100
0001
,
0100
1000
0001
1000
,
0000
0001
0100
1000
,
0100
0001
1000
0001
,
0000
1000
0100
0001
,
1000
0010
0001
1000
,
0000
1001
0001
0000
,
0100
0110
0010
0000
,
1000
1001
1000
0000
,
0100
0110
0010
0000
,
0001
1001
1000
0000
,
0010
0110
0100
0000
,
0001
1001
1000
0000
,
0100
0110
0010
0010
,
0010
0001
0100
0001
,
1000
0001
0010
0001
,
0000
1000
0100
1000
,
0001
1000
0010
1000
,
0000
0001
0100
0001
,
1000
0001
0010
0001
,
0000
1000
0100
0010
,
0001
1000
0100
0001
,
0100
1000
1000
0000
,
0001
0000
0100
0000
,
0010
1000
0010
0000
,
0100
0000
0001
0000
,
0010
0100
1000
0001
,
0000
1000
0010
0100
,
0000
0001
0010
0100
,
1000
0010
0100
0001
,
1000
0000
0000
0000
2000
3000
0000
0000
0001
0000
0000
0000
0100
0000
0000
0000
,
1000
0100
0001
1000
,
0001
0000
1000
0100
,
0001
0100
1000
0001
,
0100
0100
0001
0010
,
1000
0010
0001
1000
,
0001
0000
1000
0010
,
0001
0010
1000
0100
,
0001
0100
1000
0010
,
0001
1000
0001
0010
,
1000
0001
0010
1000
,
0001
0000
0100
2000
0000
0000
0000
0000
,
0000
0000
0000
3000
;

//--------------- dance-single - Extraordiberry ----------------
#NOTEDATA:;
#STEPSTYPE:dance-single;
#DESCRIPTION:Extraordiberry;
#DIFFICULTY:Medium;
#METER:12;
#RADARVALUES:0,0,0,0,0;
#CREDIT:Extraordiberry;
#NOTES:
0000
0000
0000
0000
,
0000
0000
0000
0000
,
0000
0000
0000
0000
,
0000
0000
0000
0000
,
1000
0000
0000
1000
0000
0000
1000
0000
0000
0000
0010
0000
0000
0100
0000
0000
,
0001
0000
0000
0001
0000
0000
0001
0000
0000
0000
0010
0000
0000
0100
0000
0000
,
1000
0001
1000
0000
0010
0100
0010
0000
,
1000
0001
1000
0000
0100
0010
0100
0000
,
1000
0001
1000
0001
1000
0001
0100
0000
,
0001
1000
0001
1000
0001
1000
0100
0000
,
2002
3003
0000
0000
1000
0000
0000
0001
0100
0000
0010
0000
1000
0000
0000
0000
,
0001
1000
0100
0000
1000
0001
0100
0000
,
0001
0000
0000
0000
0001
0000
0000
1000
0100
0000
0010
0000
0001
0000
0000
0000
,
1000
0001
0100
0000
0001
1000
0100
0000
,
1000
0000
0000
0000
1000
0000
0000
0001
0100
0000
0010
0000
1000
0000
0000
0000
,
0001
1000
0100
0000
1000
0001
0100
0000
,
0001
0000
0000
0000
0001
0000
0000
1000
0100
0000
0001
0000
0100
0000
0000
0000
,
0010
0001
1000
0000
0010
1000
0001
0000
,
1000
0000
2001
0000
0100
0000
3001
1000
,
0000
1000
0000
0000
1002
0000
0000
0000
0100
0000
0000
0000
1003
0000
0001
0000
,
0000
0001
0000
0000
0021
0000
0000
0000
0100
0000
0000
0000
0031
0000
0010
0000
,
0000
0010
0000
0000
1002
0000
0000
0000
0100
0000
0000
0000
1003
0000
0001
0000
,
0000
0001
0000
0000
0201
0000
0000
0000
0010
0000
0000
0000
0301
0000
0100
0000
,
0000
0100
0000
0000
0120
0000
0000
0000
1000
0000
0000
0000
0130
0000
0010
0000
,
0000
0010
0000
0000
2001
0000
0000
0000
0100
0000
0000
0000
3001
0000
1000
0000
,
0000
1000
0000
0000
0001
0000
1000
0000
0001
0000
1000
0000
0001
0000
1000
0000
,
0100
0000
1000
0100
0000
0010
0000
0001
,
0000
1000
0010
0100
0000
0001
0000
1000
,
0000
0100
0010
0001
0000
1000
0000
0100
,
0000
0010
0001
1000
0000
0010
0000
0100
,
0100
0000
0001
0010
0000
0100
0000
1000
,
0000
0001
0100
0010
0000
1000
0000
0001
,
0000
0010
0100
1000
0000
0010
0000
0001
,
0000
0010
1000
0001
0000
0010
0000
0100
,
0100
0000
1000
0001
0000
1000
0000
0010
,
0000
0100
0000
0001
0000
1000
0000
0001
,
0001
0000
0001
1000
0000
0001
0000
0010
,
0000
0100
0000
1000
0000
0001
0000
1000
,
1000
0000
0000
0000
1000
0000
0000
0001
0000
0000
0100
0000
0000
0010
0000
0000
,
0100
0000
0100
0000
0001
0000
0000
1000
0000
0000
0100
0000
0000
0010
0000
0000
,
0100
0000
0100
0000
1000
0000
0000
0010
0000
0000
0100
0000
0001
0000
0000
0010
,
0000
0000
0100
0000
1000
0000
0000
0010
0000
0000
0001
0000
0000
0010
0000
0000
,
1000
0000
0000
0000
2002
3003
0000
0000
1000
0000
0000
0001
0010
0000
0100
0000
,
1000
0000
0001
1000
0010
0100
0010
1000
,
0100
0000
0000
0000
0010
0000
0000
0000
0001
0000
0000
1000
0010
0000
0100
0000
,
0001
0000
1000
0001
0010
0100
0010
0001
,
0100
0000
0000
0000
0110
0000
0000
0000
1000
0000
0000
0001
0010
0000
0100
0000
,
1000
0000
0001
1000
0010
0100
0010
1000
,
0100
0000
0000
0000
0010
0000
0000
0000
0001
0000
0000
1000
0010
0000
0001
0000
,
0010
0000
1000
0001
0010
0100
0010
0001
,
0100
0010
1000
0000
0001
1000
0001
1000
,
0001
1000
0100
0000
1000
0001
1000
0001
,
1000
0001
0100
0000
0001
0010
1000
0010
,
0001
0100
0010
2002
0000
0000
0000
0000
,
0000
0000
0000
3003
;

//--------------- dance-single - Extraordiberry ----------------
#NOTEDATA:;
#STEPSTYPE:dance-single;
#DESCRIPTION:Extraordiberry;
#DIFFICULTY:Hard;
#METER:14;
#RADARVALUES:0,0,0,0,0;
#CREDIT:Extraordiberry;
#NOTES:
0000
0000
0000
0000
,
0000
0000
0000
0000
,
0000
0000
0000
0000
,
0000
0000
0000
0000
,
0001
0000
0000
0100
0000
0000
1000
0000
0000
0000
0100
0000
0000
0001
0000
0000
,
1000
0000
0000
0100
0000
0000
0001
0000
0000
0000
0100
0000
0000
1000
0000
0000
,
0001
0100
1000
0100
0000
0010
0100
0001
,
1000
0100
0001
0100
0000
0010
0100
1000
,
0001
0100
1000
0100
0001
1000
0010
0010
,
1000
0100
0001
0100
1000
0001
0010
0010
,
2002
3003
0000
0000
1000
0000
0001
0100
0000
0100
1000
0000
0100
0010
0000
0010
,
1000
0000
0000
0000
0001
0000
1000
0100
0000
0100
0001
0000
0100
0010
0000
0010
,
0001
0000
0000
0000
1000
0000
0001
0100
0000
0100
1000
0000
0100
0010
0000
0010
,
1000
0000
1000
0000
0001
0000
1000
0100
0000
0100
0001
0000
0100
0010
0000
0010
,
0001
0000
0000
0000
0001
0000
1000
0010
0000
0010
0001
0000
0010
0100
0000
0100
,
0001
0000
0000
0000
1000
0000
0001
0010
0000
0010
1000
0000
0010
0100
0000
0100
,
1000
0000
0000
0000
0001
0000
1000
0010
0000
0010
0001
0000
0010
0100
0000
0100
,
0001
0000
0001
0000
1000
0000
0001
0010
0000
0010
1000
0000
0010
0100
0000
0100
,
1000
0000
0201
0000
1300
0100
0001
1000
,
0000
0100
0000
0000
1200
0000
0000
0000
0301
0000
0100
0000
1000
0000
0010
0000
,
0000
1000
0000
0000
1020
0000
0000
0000
0031
0000
0010
0000
1000
0000
0001
0000
,
0000
1000
0000
0000
1200
0000
0000
0000
0301
0000
0100
0000
1000
0000
0001
0000
,
0000
0100
0000
0000
1020
0000
0000
0000
0031
0000
0010
0000
1000
0000
0001
0000
,
0000
0010
0000
0000
0021
0000
0000
0000
1030
0000
0010
0000
0001
0000
1000
0000
,
0000
0010
0000
0000
1020
0000
0000
0000
0031
0000
0010
0000
1000
0000
0001
0000
,
0010
0100
0001
0100
1000
0001
0100
1000
,
0100
0000
0001
0000
1000
0000
0001
0010
0000
0000
0001
0000
1000
0010
0000
0000
,
0100
0000
0100
0000
0001
0000
1000
0100
0000
0000
0010
0000
0001
0100
0000
0000
,
0001
0000
0001
0000
1000
0000
0100
0010
0000
0000
0001
0000
0100
0010
0000
0000
,
1000
0000
1000
0000
0001
0000
0010
0100
0000
0000
0010
0000
0000
0000
0010
0000
,
0001
0000
0001
0000
1000
0000
0001
0100
0000
0000
0010
0000
0100
1000
0000
0000
,
0100
0000
0100
0000
0001
0000
1000
0100
0000
0000
0010
0000
0100
0001
0000
0000
,
0100
0000
0100
0000
1000
0000
0001
0100
0000
0000
0001
0000
0010
1000
0000
0000
,
0010
0000
0010
0000
0001
0000
0100
0010
0000
0000
1000
0000
0010
0001
0000
0000
,
0010
0000
0010
0000
1000
0000
0100
0010
0100
0000
0010
0000
0000
0000
0010
0000
,
0001
0000
1000
0000
0010
0000
0100
0010
0000
0000
1000
0001
0000
0000
0100
0010
,
0000
0000
1000
0000
0001
0000
0010
0100
0010
0000
0100
0000
0000
0000
0100
0000
,
0010
0000
0001
0000
1000
0000
0010
0100
0000
0000
0001
1000
0000
0000
0010
0100
,
0000
0000
0001
0000
1000
0000
0100
0010
0100
0000
0010
0000
0000
0000
0010
0000
,
0001
0000
1000
0000
0010
0000
0100
0010
0100
0000
0010
0000
0000
0000
0010
0000
,
1000
0000
0001
0000
0010
0000
0100
0010
0100
0000
1000
0000
0001
0000
0100
0010
,
0100
0000
0001
0000
0010
0000
0100
1000
0010
0000
0100
0000
0000
0000
0000
0000
,
0110
0000
0000
0000
2002
3003
0000
0000
1000
0000
0001
0100
0000
0100
1000
0000
,
0001
0010
0000
0010
1000
0000
0000
0000
0001
0000
1000
0100
0000
0100
0001
0000
,
1000
0010
0000
0010
0001
0000
0000
0000
1000
0000
0001
0100
0000
0100
1000
0000
,
0001
0010
0000
0010
1000
0000
1000
0000
0001
0000
1000
0100
0000
0100
0001
0000
,
1000
0010
0000
0010
0001
0000
0100
0000
0001
0000
1000
0010
0000
0010
0001
0000
,
1000
0100
0000
0100
0001
0000
0000
0000
1000
0000
0001
0010
0000
0010
1000
0000
,
0001
0100
0000
0100
1000
0000
0000
0000
0001
0000
1000
0010
0000
0010
0001
0000
,
1000
0100
0000
0100
0001
0000
0001
0000
1000
0000
0001
0010
0000
0010
1000
0000
,
0001
0100
0000
0100
1000
0100
1000
0000
0001
0000
0100
0010
0100
0000
0001
0000
,
0010
0100
0010
0000
0001
0000
0000
0000
1000
0000
0010
0100
0010
0000
1000
0000
,
0100
0010
0100
0000
1000
0000
0000
0000
0001
0000
0100
0001
0010
0000
0100
0000
,
0010
0001
0100
0000
0010
0000
2002
0000
0000
0000
0000
0000
0000
0000
0000
0000
,
0000
0000
0000
3003
;

//--------------- dance-double - Extraordiberry ----------------
#NOTEDATA:;
#STEPSTYPE:dance-double;
#DESCRIPTION:Extraordiberry;
#DIFFICULTY:Easy;
#METER:8;
#RADARVALUES:0,0,0,0,0;
#CREDIT:Extraordiberry;
#NOTES:
00000000
00000000
00000000
00000000
,
00000000
00000000
00000000
00000000
,
00000000
00000000
00000000
00000000
,
00000000
00000000
00000000
00000000
,
00010000
00010000
00001000
00000000
,
00001000
00001000
00010000
00000000
,
00001000
01000000
00100000
00000000
,
10000000
01000000
00100000
00000000
,
00001000
00010000
00000100
00001000
,
00000100
00000010
00000001
00000000
,
00002000
00003000
00000000
00000000
00000001
00000000
00000000
00000000
00001000
00000000
00000000
00000000
00000010
00000000
00000000
00000000
,
00010000
00001000
01000000
00100000
,
00000000
10000000
00010000
00100000
,
00001000
00010000
00000100
00000010
,
00000000
00000001
00001000
00000010
,
00010000
00001000
01000000
00100000
,
00000000
10000000
01000000
00010000
,
01000000
00100000
00001000
00010000
,
00000000
00002000
00010000
00013000
,
00000010
00001000
00000010
00010000
,
00000000
00020000
00001000
00031000
,
00100000
00010000
00100000
00001000
,
00000000
00012000
00010000
00013000
,
00000010
00001000
00000010
00010000
,
00000000
00020000
00001000
00031000
,
00100000
01000000
10000000
00100000
,
01000000
00001000
00010000
00000100
,
00000010
00000100
00010000
00001000
,
00000000
00010000
00001000
01000000
,
00100000
01000000
00001000
00010000
,
00000000
00001000
00010000
00000100
,
00000010
00000100
00010000
00001000
,
00000000
00010000
00001000
01000000
,
00100000
10000000
01000000
00100000
,
00001000
00010000
00000010
00000100
,
00000000
00000001
00000010
00000100
,
00000000
00001000
00000010
00010000
,
00001000
01000000
00100000
10000000
,
00000000
00010000
00100000
01000000
,
00000000
00100000
00001000
00010000
,
00000000
00001000
00001000
00010000
,
00010000
00000010
00000010
00001000
,
00000100
00000000
00000000
00000000
00000020
00000030
00000000
00000000
00000001
00000000
00000000
00000000
00001000
00000000
00000000
00000000
,
00000010
00010000
00001000
01000000
,
00100000
00000000
10000000
00010000
,
00100000
00001000
00010000
00000100
,
00000010
00000010
00000001
00000100
,
00001000
00000100
00000010
00010000
,
00001000
01000000
00100000
10000000
,
01000000
00010000
00001000
00010000
,
00001000
00001000
00000010
00000001
,
00000100
00000100
00001000
00010000
,
00100000
00100000
10000000
01000000
,
00010000
00000000
00001000
00020000
00000000
00000000
00000000
00000000
,
00000000
00000000
00000000
00030000
;

//--------------- dance-double - Extraordiberry ----------------
#NOTEDATA:;
#STEPSTYPE:dance-double;
#DESCRIPTION:Extraordiberry;
#DIFFICULTY:Medium;
#METER:12;
#RADARVALUES:0,0,0,0,0;
#CREDIT:Extraordiberry;
#NOTES:
00000000
00000000
00000000
00000000
,
00000000
00000000
00000000
00000000
,
00000000
00000000
00000000
00000000
,
00000000
00000000
00000000
00000000
,
00010000
00010000
00001000
00001000
,
00010000
00000010
00001000
00000001
,
00000001
00001000
00000001
00000000
00000100
00000000
00001000
00000000
,
00010000
00100000
10000000
00010000
,
10000000
00010000
10000000
00000000
01000000
00000000
00010000
00000000
,
00001000
00010000
00001000
00000000
00000010
00000000
00000001
00000000
,
00000200
00000300
00000000
00000000
00000001
00000000
00000100
00000000
00000010
00000000
00010000
00000000
00001000
00000000
00000000
00000000
,
00010000
00000000
00001000
01000000
00010000
00000000
00010000
10000000
,
01000000
00000000
10000000
01000000
00100000
00001000
00010000
00000000
,
00001000
00000000
00010000
00000100
00001000
00000000
00001000
00000001
,
00000100
00000000
00000001
00000100
00000010
00010000
00001000
00000000
,
00010000
00000000
00001000
01000000
00010000
00000000
00010000
10000000
,
01000000
00000000
10000000
01000000
00010000
00001000
00010000
00000000
,
00001000
00000000
00010000
00000010
00000100
00000000
00000100
00000001
,
00001000
00000000
00020010
00000000
00001000
00000000
00031000
00010000
,
00001000
00000000
00102000
00000000
00010000
00000000
00013000
00001000
,
00010000
00000000
00020100
00000000
00001000
00000000
00031000
00010000
,
00001000
00000000
01002000
00000000
00010000
00000000
00013000
00001000
,
00010000
00000000
00020010
00000000
00000010
00000000
00031000
00010000
,
00001000
00000000
00102000
00000000
00010000
00000000
00013000
00001000
,
00010000
00000000
00210000
00000000
01000000
00000000
01300000
00100000
,
01000000
00000000
00010000
00100000
00001000
00010000
00000100
00010000
,
00001000
00000000
00000000
00000000
00010000
00000000
00000000
00000010
00000000
00000000
00001000
00000000
00000000
00000100
00000000
00000000
,
00000010
00000000
00000000
00000000
00000001
00000000
00000000
00000100
00000000
00000000
00000010
00000000
00000000
00000000
00000010
00000000
,
00010000
00000000
00000000
00000000
00001000
00000000
00000000
00100000
00000000
00000000
00010000
00000000
00000000
01000000
00000000
00000000
,
00100000
00000000
00000000
00000000
10000000
00000000
00000000
01000000
00000000
00000000
00100000
00000000
00000000
00000000
00100000
00000000
,
00001000
00000000
00000000
00000000
00010000
00000000
00000000
00000010
00000000
00000000
00001000
00000000
00000000
00000100
00000000
00000000
,
00000010
00000000
00000000
00000000
00000001
00000000
00000000
00000100
00000000
00000000
00000010
00000000
00000000
00000000
00000010
00000000
,
00010000
00000000
00000000
00000000
00001000
00000000
00000000
00100000
00000000
00000000
00010000
00000000
00000000
01000000
00000000
00000000
,
00100000
00000000
00100000
00000000
10000000
00000000
00000000
01000000
00000000
00000000
00010000
00000000
00000000
01000000
00000000
00000000
,
00100000
00000000
00100000
00000000
00002000
00000000
00000000
00100000
00000000
00000000
00010000
00000000
00000000
00013000
00000000
00000000
,
00000010
00000000
00000010
00000000
00001000
00000000
00000000
00000100
00000000
00000000
00010000
00000000
00000000
00000000
00010000
00000000
,
00001000
00000000
00001000
00000000
00020000
00000000
00000000
00000010
00000000
00000000
00001000
00000000
00000000
00031000
00000000
00000000
,
00100000
00000000
00100000
00000000
00010000
00000000
00000000
01000000
00000000
00000000
00001000
00000000
00000000
00000000
00001000
00000000
,
00010000
00000000
00010000
00000000
00002000
00000000
00000000
00100000
00000000
00000000
00010000
00000000
00000000
00013000
00000000
00000000
,
00001000
00000000
00010000
00000000
00020000
00000000
00000000
00000010
00000000
00000000
00001000
00000000
00000000
00031000
00000000
00000000
,
00010000
00000000
00001000
00000000
00002000
00000000
00000000
00010000
00000000
00000000
00013000
00000000
00020000
00000000
00000000
00001000
,
00000000
00000000
00031000
00000000
00100000
00000000
00000000
00010000
00000000
00000000
01000000
00000000
00000000
00100000
00000000
00000000
,
10000000
00000000
10000000
00000000
02000000
03000000
00000000
00000000
10000000
00000000
01000000
00000000
00100000
00000000
00001000
00000000
,
00010000
00010000
00001000
00000000
00010000
00001000
00000010
00000000
,
00000010
00000001
00000100
00000000
00000001
00000100
00000010
00010000
,
00001000
00001000
00010000
00000000
00001000
00010000
00100000
00000000
,
00100000
10000000
01000000
00000000
10000000
01000000
00010000
00001000
,
00010000
00010000
00001000
00000000
00010000
00001000
00000010
00000000
,
00000010
00000001
00000100
00000000
00000001
00000100
00001000
00010000
,
00100000
00100000
10000000
00000000
00100000
10000000
01000000
00000000
,
01000000
00100000
00001000
00000000
00010000
00001000
00010000
00001000
,
00000010
00001000
00000010
00000000
00000010
00000001
00000010
00000001
,
00000100
00000001
00000100
00000000
00000100
00001000
00000100
00001000
,
00010000
00100000
10000000
02000000
00000000
00000000
00000000
00000000
,
00000000
00000000
00000000
03000000
;

//--------------- dance-double - Extraordiberry ----------------
#NOTEDATA:;
#STEPSTYPE:dance-double;
#DESCRIPTION:Extraordiberry;
#DIFFICULTY:Hard;
#METER:14;
#RADARVALUES:0,0,0,0,0;
#CREDIT:Extraordiberry;
#NOTES:
00000000
00000000
00000000
00000000
,
00000000
00000000
00000000
00000000
,
00000000
00000000
00000000
00000000
,
00000000
00000000
00000000
00000000
,
00010000
00000000
00000000
00001000
00000000
00000000
00000010
00000000
00000000
00000000
00001000
00000000
00000000
00000010
00000000
00000000
,
00000001
00000000
00000000
00000010
00000000
00000000
00001000
00000000
00000000
00000000
00000010
00000000
00000000
00000001
00000000
00000000
,
00001000
00000010
00000100
00000001
00000000
00000100
00000001
00000100
,
00001000
00010000
00001000
00000100
00000000
00001000
00010000
00001000
,
00010000
00100000
10000000
00100000
00010000
00100000
10000000
00010000
,
00100000
01000000
00010000
01000000
10000000
01000000
00010000
00001000
,
00020000
00030000
00000000
00000000
00001000
00000000
00000010
00000000
00000001
00000000
00000010
00000100
00000000
00000000
00000100
00000000
,
00000010
00000001
00001000
00000010
00000100
00001000
00000100
00000001
,
00000100
00000000
00001000
00000000
00010000
00000000
00100000
00000000
10000000
00000000
00100000
01000000
00000000
00000000
01000000
00000000
,
00100000
10000000
00010000
00100000
01000000
00010000
01000000
10000000
,
01000000
00000000
00010000
00000000
00001000
00000000
00000010
00000000
00000001
00000000
00000010
00000100
00000000
00000000
00000100
00000000
,
00000010
00000001
00001000
00000010
00000100
00001000
00000100
00000001
,
00000100
00000000
00001000
00000000
00010000
00000000
00100000
00000000
10000000
00000000
00010000
00100000
00000000
00000000
00100000
00000000
,
01000000
10000000
01000000
00010000
00001000
00010000
01000000
10000000
,
01000000
00000000
00010000
00000000
00001000
00000000
00000000
00000010
00000000
00000000
00000001
00000000
00000000
00000000
00000010
00000000
,
00000000
00001000
00000000
00000000
00000010
00000000
00000000
00000001
00000000
00000000
00001000
00000000
00000000
00000000
00000001
00000000
,
00000000
00000100
00000000
00000000
00001000
00000000
00000000
00010000
00000000
00000000
00001000
00000000
00000000
00000000
00000100
00000000
,
00000000
00000001
00000000
00000000
00000010
00000000
00000000
00001000
00000000
00000000
00010000
00000000
00000000
00000000
00001000
00000000
,
00000000
00010000
00000000
00000000
00100000
00000000
00000000
10000000
00000000
00000000
00100000
00000000
00000000
00000000
00010000
00000000
,
00000000
00100000
00000000
00000000
10000000
00000000
00000000
01000000
00000000
00000000
00010000
00000000
00000000
00000000
01000000
00000000
,
00000000
00010000
00000000
00000000
00001000
00000000
00000000
00000010
00000000
00000000
00001000
00000000
00010000
00000000
00000000
00100000
,
00000000
00010000
00001000
00000010
00000001
00000010
00001000
00000010
,
00000001
00000100
00001000
00010000
00100000
10000000
00020000
00000000
,
10030000
00010000
10000000
01000000
00010000
00001000
00020000
00000000
,
00031000
00000010
00000001
00000010
00001000
00000010
00000001
00001000
,
00000010
00000100
00000001
00000100
00001000
00010000
00001000
00000000
,
00010000
00001000
00010000
00100000
10000000
00100000
00020000
00000000
,
00130000
10000000
00010000
10000000
01000000
00010000
00002000
00000000
,
00013000
00001000
00000010
00000001
00000010
00001000
00000010
00000001
,
00000100
00000010
00000100
00001000
00010000
00100000
00010000
00000000
,
00001000
00000000
00010000
00000000
00100000
00000000
00000000
10000000
00000000
00000000
00100000
00000000
00000000
00010000
00000000
00000000
,
00100000
00000000
10000000
00000000
01000000
00000000
00000000
00010000
00000000
00000000
00001000
00000000
00000000
00010000
00000000
00000000
,
00001000
00000000
00000010
00000000
00000001
00000000
00000000
00000010
00000000
00000000
00001000
00000000
00000000
00000010
00000000
00000000
,
00000001
00000000
00000100
00000000
00001000
00000000
00000000
00010000
00000000
00000000
00001000
00000000
00000000
00010000
00000000
00000000
,
00100000
00000000
10000000
00000000
01000000
00000000
00100000
01000000
00000000
00000000
00010000
00000000
00000000
01000000
00000000
00000000
,
00010000
00000000
00001000
00000000
00000010
00000000
00000100
00000010
00000000
00000000
00000001
00000000
00000000
00000100
00000000
00000000
,
00000001
00000000
00000100
00000000
00001000
00000000
00000000
00010000
00000000
00000000
00100000
00000000
10000000
00000000
00000000
01000000
,
00000000
00000000
00010000
00000000
00001000
00000000
00000000
00000010
00000000
00000000
00000001
00000000
00000000
00000100
00000000
00000000
,
00001000
00000000
00010000
00000000
00002000
00003000
00000000
00000000
00010000
00000000
00100000
00000000
10000000
00000000
00100000
01000000
,
00000000
01000000
00100000
00010000
00001000
00010000
00100000
10000000
,
00010000
00000000
10000000
00000000
01000000
00000000
00010000
00000000
00001000
00000000
00000010
00000000
00000001
00000000
00000010
00000100
,
00000000
00000100
00000010
00001000
00010000
00001000
00000010
00000001
,
00001000
00000000
00000001
00000000
00000100
00000000
00001000
00000000
00010000
00000000
00100000
00000000
10000000
00000000
00010000
00100000
,
00000000
00100000
01000000
00010000
00001000
00010000
01000000
10000000
,
00010000
10000000
00100000
00010000
00001000
00000100
00000001
00000100
,
00001000
00010000
00001000
00000100
00001000
00010000
00100000
10000000
,
01000000
00010000
00001000
00010000
00100000
10000000
01000000
00010000
,
00001000
00000010
00001000
00010000
00100000
10000000
01000000
00010000
,
00001000
00000010
00001000
00010000
00100000
10000000
01000000
00010000
,
00001000
00000010
00000001
00000202
00000000
00000000
00000000
00000000
,
00000000
00000000
00000000
00000303
;
