#VERSION:0.83;
#TITLE:Vermilion;
#SUBTITLE:;
#ARTIST:Remo-con;
#TITLETRANSLIT:;
#SUBTITLETRANSLIT:;
#ARTISTTRANSLIT:;
#GENRE:;
#CREDIT:;
#MUSIC:Vermilion.ogg;
#BANNER:Vermilion.png;
#BACKGROUND:Vermilion-bg.png;
#CDTITLE:;
#SAMPLESTART:3.628;
#SAMPLELENGTH:15.000;
#SELECTABLE:YES;
#OFFSET:1.406;
#BPMS:0.000=143.000;
#STOPS:;
#TIMESIGNATURES:0.000=4=4;
#BGCHANGES:;
#FGCHANGES:;

//--------------- dance-single - Extraordiberry ----------------
#NOTEDATA:;
#STEPSTYPE:dance-single;
#DESCRIPTION:Extraordiberry;
#DIFFICULTY:Beginner;
#METER:3;
#RADARVALUES:0,0,0,0,0;
#CREDIT:Extraordiberry;
#NOTES:
0000
0000
0000
0000
,
0000
0000
0000
0000
,
0000
0000
0000
0000
,
1000
0000
0000
0000
,
0001
0000
0001
0000
,
1000
0000
1000
0000
,
1000
0000
0000
0000
,
0001
0000
0001
0000
,
0001
0000
0000
0000
,
0100
0000
0100
0000
,
0100
0000
0100
0000
,
0010
0000
0010
0000
,
0010
0000
0000
0000
,
1001
0000
1000
0000
,
1000
0000
0000
0000
,
0001
0000
0001
0000
,
0001
0000
0000
0000
,
0010
0000
0010
0000
,
0010
0000
0000
0000
,
0100
0000
0100
0000
,
0100
0000
0100
0000
,
1000
0000
0000
0000
,
0000
0000
0000
0000
,
0001
0000
0000
0000
,
0000
0000
0000
0000
,
0100
0000
0000
0000
,
0000
0000
0000
0000
,
0010
0000
0000
0000
,
0000
0000
0000
0000
,
1000
0000
1000
0000
,
1000
0000
0000
0000
,
0001
0000
0001
0000
,
0001
0000
0000
0000
,
0010
0000
0010
0000
,
0010
0000
0000
0000
,
0100
0000
0100
0000
,
0100
0000
0000
0000
,
1000
0000
1000
0000
,
1000
0000
0001
0000
,
1001
0000
1000
0000
,
1000
0000
0000
0000
,
1001
0000
0001
0000
,
0001
0000
0000
0000
,
1000
0000
0010
0000
,
1000
0000
0000
0000
,
0001
0000
0100
0000
,
0001
0000
0000
0000
,
1000
0000
0100
0000
,
1000
0000
1000
0000
,
0001
0000
0010
0000
,
0001
0000
0001
0000
,
0001
0000
0100
0000
,
0001
0000
0001
0000
,
1000
0000
0010
0000
,
1000
0000
0100
0000
,
0010
0000
0001
0001
;

//--------------- dance-single - Extraordiberry ----------------
#NOTEDATA:;
#STEPSTYPE:dance-single;
#DESCRIPTION:Extraordiberry;
#DIFFICULTY:Easy;
#METER:7;
#RADARVALUES:0,0,0,0,0;
#CREDIT:Extraordiberry;
#NOTES:
0000
0000
0000
0000
,
0000
0000
0000
0000
,
0000
0000
0000
0000
,
1000
1000
0001
0001
,
0100
0010
2000
0000
,
3001
1000
0100
0100
,
0010
0001
0100
0100
,
0010
1000
0100
0100
,
0020
0032
0023
0032
,
1003
0010
0100
0100
,
0001
0010
0100
0100
,
1000
0010
0001
0010
,
1000
0010
0200
0000
,
0301
0010
0100
0100
,
1000
0010
0100
0100
,
0010
1000
0100
0100
,
0010
0001
0100
0100
,
0010
1000
0002
0000
,
0013
0001
2000
0000
,
3010
1000
0001
0010
,
0001
1000
0020
2030
,
3001
0000
0001
0000
,
0010
0000
0010
0000
,
0001
0000
0001
0000
,
0100
0000
0100
0000
,
0020
0000
2030
0000
,
3002
0000
0023
0000
,
0032
0000
0203
0000
,
0320
0000
2030
0000
,
3001
0001
0010
0000
,
0100
0100
1000
0000
,
0001
0001
0100
0000
,
0010
0010
1000
0001
,
0010
0010
0100
0100
,
1000
1000
0001
0001
,
0100
0100
0010
0010
,
0100
0100
0010
0010
,
1000
0001
0010
0100
,
1000
1000
0001
0001
,
1001
1000
0010
0100
,
0110
0010
1000
0001
,
1001
1000
0100
0010
,
0001
0001
0001
0001
,
1000
0001
0100
0001
,
1000
0001
0010
0001
,
0001
1000
0010
1000
,
0001
1000
0200
0320
,
0031
0100
0010
0010
,
1000
0100
0010
0010
,
0001
0100
0010
0010
,
2000
3002
0203
0320
,
1030
0100
0001
0001
,
0100
1000
0001
0001
,
0100
1000
0100
0100
,
0001
0001
0100
0100
,
0010
1000
0100
0200
,
0000
0000
0000
0300
0000
0000
0000
0000
;

//--------------- dance-single - Extraordiberry ----------------
#NOTEDATA:;
#STEPSTYPE:dance-single;
#DESCRIPTION:Extraordiberry;
#DIFFICULTY:Medium;
#METER:12;
#RADARVALUES:0,0,0,0,0;
#CREDIT:Extraordiberry;
#NOTES:
0000
0000
0000
0000
,
0000
0000
0000
0000
,
0000
0000
0000
0000
,
1000
0000
0000
1000
0000
0000
0010
0000
0000
0010
0000
0000
1000
0000
0001
0000
,
1000
0100
0001
1000
0010
0002
0000
0000
,
1003
0001
0100
0100
0010
1000
1000
0000
,
0001
1000
0100
0100
0010
0001
0001
0000
,
1000
0001
0100
0100
0010
1000
1000
0000
,
0002
0010
1000
0103
,
1001
1000
0100
0100
0010
0001
0001
0000
,
1000
0001
0100
0100
1000
0100
0100
0000
,
0001
1000
0100
0100
0001
0100
0100
0000
,
1000
0001
0100
1000
0001
0010
2000
0000
,
3100
1000
0100
0100
0001
0100
0100
0000
,
1000
0001
0100
0100
1000
0100
0100
0000
,
0001
0010
1000
1000
0010
0001
0001
0000
,
1000
0010
0001
0001
0010
1000
1000
0000
,
1000
0100
0001
1000
0010
0002
0000
1003
,
0001
0100
1000
0001
0010
2000
0000
3001
,
1000
1000
0001
0001
1000
1000
0001
0001
,
1000
0100
0001
1000
0010
0001
0010
0001
,
1000
1000
0010
0000
,
0100
0100
0001
0000
,
1000
1000
0100
0000
,
0010
0010
0001
0000
,
0002
0010
1000
0000
,
2003
0010
0001
0000
,
3200
1000
0010
0000
,
0320
0100
0001
0000
,
0031
0001
0001
0001
,
0100
0100
0100
0100
,
0010
0010
0010
0010
,
1000
1000
1000
1000
,
0001
0010
0001
0000
0010
0000
0010
0000
,
0100
1000
0100
0000
1000
0000
1000
0000
,
0001
0100
0001
0000
0100
0000
0100
0000
,
0001
0100
0001
0000
0100
0000
0100
0000
,
0010
0010
1000
1000
,
0001
0000
0000
0001
0000
0000
0010
0000
0000
0010
0000
0000
0001
0000
1000
0000
,
0001
0000
0000
0000
1001
0000
0000
1000
0000
1000
0000
0000
0010
0000
0010
0000
,
0100
0000
0000
0000
0110
0000
0000
0001
0000
0001
0000
0000
0010
0000
0010
0000
,
0100
0000
0000
0000
1001
0000
0000
1000
0000
1000
0000
0000
0010
0000
0010
0000
,
0100
0001
1000
0001
0100
0010
0010
0000
,
2000
0010
0001
3100
,
0200
1000
0010
1300
,
0002
0010
1000
0103
,
0200
0010
1000
0310
,
1000
0001
0010
0010
1000
0010
0010
0000
,
0001
1000
0010
0010
0001
0010
0010
0000
,
1000
0100
0001
0001
0100
1000
1000
0001
,
2000
0000
0010
0000
0001
0001
0100
3100
,
1000
0001
0010
0010
1000
0010
0010
0000
,
0001
1000
0010
0010
0001
0010
0010
0000
,
1000
0100
0001
0001
1000
0010
0010
0000
,
0001
0000
0000
0001
0000
0000
0100
0000
0000
0100
0000
0000
0001
0000
1000
0000
,
0001
0010
1000
0001
0100
1000
0100
2000
,
0000
0000
0000
3000
0000
0000
0000
0000
;

//--------------- dance-single - Extraordiberry ----------------
#NOTEDATA:;
#STEPSTYPE:dance-single;
#DESCRIPTION:Extraordiberry;
#DIFFICULTY:Hard;
#METER:15;
#RADARVALUES:0,0,0,0,0;
#CREDIT:Extraordiberry;
#NOTES:
0000
0000
0000
0000
,
0000
0000
0000
0000
,
0000
0000
0000
0000
,
1000
0000
0000
0100
0000
0000
0001
0000
0000
0100
0000
0000
1000
0000
1000
0000
,
1100
1000
1001
0001
0101
0002
0000
0000
,
1003
0000
0001
1000
0010
0000
0100
0000
1000
0000
0100
0001
1000
0000
1000
0000
,
0001
0000
1000
0001
0010
0000
0100
0000
0001
0000
0100
1000
0001
0000
0001
0000
,
1000
0000
0001
1000
0010
0000
0100
0000
1000
0000
0100
0001
1000
0000
1000
0000
,
0002
0013
0002
1003
0002
0100
1003
0001
,
1000
0000
0001
1000
0100
0000
0010
0000
1000
0000
0010
0001
1000
0000
1000
0000
,
0001
0000
1000
0001
0100
0000
0010
0000
0001
0000
0010
1000
0001
0000
0001
0000
,
1000
0000
0001
1000
0100
0000
0001
0000
1000
0000
0010
0001
1000
0000
1000
0000
,
1100
1000
1001
0001
0101
0002
0100
0000
,
0013
0000
0001
0010
0100
0000
0001
0000
1000
0000
0010
0100
1000
0000
1000
0000
,
0010
0000
1000
0010
0100
0000
1000
0000
0001
0000
0010
0100
0001
0000
0001
0000
,
0010
0000
0100
0010
1000
0000
0001
0000
0100
0000
0010
0100
1000
0000
1000
0000
,
0010
0000
0100
0010
0001
0000
1000
0000
0100
0000
0010
0100
0001
0000
0001
0000
,
0011
0001
1001
1000
1010
2000
0000
3001
,
0011
0001
1001
1000
1010
2000
0000
3001
,
0011
0001
1001
0001
0011
0001
1001
0001
,
0011
0011
1001
1001
1010
2000
3010
2000
,
3001
0000
0000
0000
0001
0000
0000
0001
0000
0001
0000
0000
0001
0000
0001
0000
,
0010
0000
0000
0000
0010
0000
0000
0010
0000
0010
0000
0000
0010
0000
0010
0000
,
0001
0000
0000
0000
0001
0000
0000
0001
0000
0001
0000
0000
0001
0000
0001
0000
,
0100
0000
0000
0000
0100
0000
0000
0100
0000
0100
0000
0000
0001
0000
0001
0000
,
2000
0000
0000
0000
0001
0000
0000
0010
0000
0010
0000
0000
0001
0000
3001
0000
,
0002
0000
0000
0000
0010
0000
0000
1000
0000
1000
0000
0000
0010
0000
0013
0000
,
0020
0000
0000
0000
0100
0000
0000
0001
0000
0001
0000
0000
0100
0000
0130
0000
,
0200
0000
0000
0000
0010
0000
0000
0001
0000
0001
0000
0000
1000
0000
1300
0000
,
1000
0000
0010
0000
0100
0010
0000
0100
0000
1000
0000
0100
0010
0000
1000
0000
,
0001
0000
0010
0000
0100
0010
0000
0100
0000
0001
0000
0100
0010
0000
0001
0000
,
1000
0000
0010
0000
0100
0010
0000
0001
0000
0010
0000
0100
0010
0000
1000
0000
,
0001
0000
0010
0000
0100
0010
0000
1000
0000
0010
0000
0100
1000
0000
0001
0000
,
1000
0000
0010
0000
0100
0010
0000
0001
0000
1000
0000
0100
0010
0000
1000
0000
,
0001
0000
0010
0000
0100
0010
0000
1000
0000
0001
0000
0100
0010
0000
0001
0000
,
1000
0000
0010
0000
0100
0010
0000
0001
0000
1000
0000
0100
0010
0000
0010
0000
,
1000
0000
0010
0000
0100
0010
0000
0001
0000
1000
0000
0100
0010
0000
0010
0000
,
1000
1000
0001
0001
0010
0010
0100
0100
,
1000
0000
0000
0010
0000
0000
0001
0000
0000
1000
0000
0000
0100
0000
0001
0000
,
1000
0000
0010
0100
1000
0100
0000
0010
0000
1000
0000
0001
1000
0000
1000
0000
,
0001
0000
0010
0100
0001
0100
0010
0001
0000
0001
0000
1000
0001
0000
0001
0000
,
1000
0000
0010
0100
1000
0100
0000
0010
0000
1000
0000
0001
1000
0000
1000
0000
,
0001
0000
0100
0001
1000
0000
1000
0001
0100
0000
0100
0001
2000
0000
0000
0000
,
3001
0000
1000
0000
1000
0200
0000
0001
0000
0001
0000
0000
0010
0000
0010
0000
,
1300
0000
0001
0000
0001
0200
0000
1000
0000
1000
0000
0000
0010
0000
0010
0000
,
0301
0000
1000
0000
1000
0200
0000
0001
0000
0001
0000
0000
0010
0000
0010
0000
,
1300
0000
0001
0000
0001
0100
0000
0000
1001
0000
0001
0000
1001
0000
0001
0000
,
1000
0000
0001
0010
0100
0000
0001
0000
1000
0000
0010
0100
1000
0000
1000
0000
,
0001
0000
1000
0010
0100
0000
1000
0000
0001
0000
0010
0100
0001
0000
0001
0000
,
1000
0000
0100
0010
1000
0000
0001
0000
0100
0000
0010
0100
1000
0000
2000
0000
,
3010
0000
2000
0000
3001
0000
1000
0001
0010
0100
0010
1000
0020
0000
0032
0000
,
1003
0000
0010
0100
1000
0000
0001
0000
1000
0000
0100
0010
1000
0000
1000
0000
,
0001
0000
0010
0100
0001
0000
1000
0000
0001
0000
0100
0010
0001
0000
0001
0000
,
1000
0000
0001
0100
1000
0000
0001
0000
1000
0000
0001
0010
1000
0000
1000
0000
,
0001
0000
0000
0010
0000
0000
1000
0000
0000
0001
0000
0000
0100
0000
1100
0000
,
1001
1001
0101
0101
1001
0001
1001
0002
,
0000
0000
0000
0003
0000
0000
0000
0000
;

//--------------- dance-double - Extraordiberry ----------------
#NOTEDATA:;
#STEPSTYPE:dance-double;
#DESCRIPTION:Extraordiberry;
#DIFFICULTY:Easy;
#METER:8;
#RADARVALUES:0,0,0,0,0;
#CREDIT:Extraordiberry;
#NOTES:
00000000
00000000
00000000
00000000
,
00000000
00000000
00000000
00000000
,
00000000
00000000
00000000
00000000
,
00001000
00100000
00010000
00100000
,
00001000
00001000
00020000
00000000
,
00030010
00000100
00000001
00000001
,
00000010
00000100
00010000
00010000
,
00001000
01000000
00100000
00100000
,
20000000
30020000
20030000
30020000
,
10030000
01000000
00100000
00100000
,
00001000
00010000
00000100
00000100
,
00000010
00000001
00000100
00000100
,
00000010
00000010
00010000
00000000
,
00011000
00001000
01000000
01000000
,
00100000
10000000
01000000
01000000
,
00010000
00001000
00010000
00010000
,
00000010
00001000
00000001
00000001
,
00001000
00001000
00000200
00000000
,
00010300
00010000
00002000
00000000
,
01003000
01000000
00010000
00010000
,
01000000
01000000
00001000
00010000
,
00001000
00000000
00010000
00000000
,
00000010
00000000
00001000
00000000
,
00000001
00000000
00000010
00000000
,
00000100
00000000
00010000
00010000
,
00002000
00000000
02003000
00000000
,
03200000
00000000
20300000
00000000
,
32000000
00000000
03200000
00000000
,
00302000
00000000
00023000
00000000
,
00031000
00010000
00001000
00010000
,
00000010
00001000
00000010
00001000
,
00000001
00000010
00000001
00000010
,
00000100
00010000
00001000
00100000
,
00010000
10000000
00010000
10000000
,
00100000
01000000
00100000
01000000
,
00001000
00010000
00001000
00010000
,
00001000
00001000
00010000
00010000
,
00000010
00000100
00000001
00001000
,
00000100
00010000
00001000
00010000
,
00011000
00001000
01000000
00010000
,
10010000
10000000
01000000
00100000
,
01100000
00010000
01000000
00001000
,
00010000
00010000
00010000
00010000
,
00021000
00031000
00010000
00000100
,
00001002
00001003
00000010
00010000
,
00021000
00031000
01000000
00010000
,
00100000
00100000
00001000
00010000
,
00011000
00010000
00000010
00000010
,
00000100
00000001
00000010
00000010
,
00000100
00010000
00001000
00001000
,
00020000
00230000
20300000
30200000
,
00310000
00001000
00100000
00100000
,
01000000
10000000
00010000
00010000
,
01000000
00100000
00010000
00010000
,
00001000
00100000
00010000
00100000
,
00001000
00001000
00010000
00020000
,
00000000
00000000
00000000
00030000
00000000
00000000
00000000
00000000
;

//--------------- dance-double - Extraordiberry ----------------
#NOTEDATA:;
#STEPSTYPE:dance-double;
#DESCRIPTION:Extraordiberry;
#DIFFICULTY:Medium;
#METER:12;
#RADARVALUES:0,0,0,0,0;
#CREDIT:Extraordiberry;
#NOTES:
00000000
00000000
00000000
00000000
,
00000000
00000000
00000000
00000000
,
00000000
00000000
00000000
00000000
,
00010000
00000000
00000000
00001000
00000000
00000000
00000010
00000000
00000000
00001000
00000000
00000000
00010000
00000000
00000000
00000000
,
00011000
01001000
00022000
00033000
,
00010000
00001000
01000000
01000000
00100000
00100000
01000000
00000000
,
00010000
10000000
01000000
01000000
00100000
00100000
00001000
00000000
,
00010000
00000010
00001000
00001000
00000010
00000010
00000100
00000000
,
00000002
00000203
00002300
00023000
,
00031000
00010000
00100000
00100000
01000000
01000000
00010000
00000000
,
10000000
01000000
00010000
00010000
00001000
00001000
00010000
00000000
,
00001000
00000010
00000001
00000001
00000100
00000100
00001000
00000000
,
00011000
01001000
00022000
00033000
,
00010000
00100000
10000000
10000000
01000000
01000000
00100000
00000000
,
01000000
00010000
00001000
00001000
00010000
00010000
00001000
00000000
,
00000010
00000001
00000100
00000100
00000010
00000010
00000100
00000000
,
00000001
00000100
00001000
00001000
00010000
00010000
00001000
00000000
,
00011000
00101000
00022000
00033000
,
00011000
00010010
00022000
00033000
,
00011000
00101000
00011000
01001000
,
00011000
00010010
00011000
00011000
,
00001000
00001000
00100000
00000000
,
00100000
00100000
01000000
00000000
,
01000000
01000000
00010000
00000000
,
00010000
00010000
00001000
00000000
,
00020000
00001000
00032000
00000000
,
00003020
00000001
00000032
00000000
,
00000203
00001000
00002300
00000000
,
00023000
00001000
00002000
00033000
,
00001000
00000000
00000000
00010000
00000000
00000000
00001000
00000000
00000000
01000000
00000000
00000000
00100000
00000000
00000000
00000000
,
10000000
00000000
00000000
01000000
00000000
00000000
00100000
00000000
00000000
00001000
00000000
00000000
00010000
00000000
00000000
00000000
,
00001000
00000000
00000000
00010000
00000000
00000000
00000100
00000000
00000000
00000010
00000000
00000000
00000001
00000000
00000000
00000000
,
00000100
00000000
00000000
00000010
00000000
00000000
00000100
00000000
00000000
00001000
00000000
00000000
00010000
00000000
00000000
00000000
,
00001000
00010000
00001000
00000000
00100000
00010000
00100000
00000000
,
00010000
10000000
00010000
00000000
01000000
00010000
01000000
00000000
,
00001000
00010000
00001000
00000000
00000010
00000100
00000010
00000000
,
00000001
00001000
00000001
00000000
00000010
00000100
00000010
00000000
,
00000001
00000100
00000010
00010000
00001000
01000000
00010000
00000000
,
10000000
00000000
00000000
01000000
00000000
00000000
00010000
00000000
00000000
01000000
00000000
00000000
10000000
00000000
00000000
00000000
,
01000000
00000000
00010000
00000000
00001000
00000000
00000000
00010000
00000000
00000000
00000010
00000000
00001000
00000000
00000010
00000000
,
00000100
00000000
00001000
00000000
00010000
00000000
00000000
00001000
00000000
00000000
00100000
00000000
00010000
00000000
00100000
00000000
,
01000000
00000000
00010000
00000000
00001000
00000000
00000000
00010000
00000000
00000000
00000010
00000000
00001000
00000000
00000010
00000000
,
00000100
00001000
00000100
00000001
00000100
00001000
00020000
00000000
,
00130000
00000000
00010000
00000000
00001000
00000000
00000000
00010000
00000000
00000000
00000100
00000000
00001000
00000000
00000100
00000000
,
00000010
00000000
00001000
00000000
00010000
00000000
00000000
00001000
00000000
00000000
01000000
00000000
00010000
00000000
01000000
00000000
,
00100000
00000000
00010000
00000000
00001000
00000000
00000000
00010000
00000000
00000000
00000100
00000000
00001000
00000000
00000100
00000000
,
00000010
00000100
00010000
00000000
00011000
00000000
00011000
00000000
,
00010000
00100000
10000000
10000000
01000000
01000000
00100000
00000000
,
01000000
00010000
00001000
00001000
00010000
00010000
00001000
00000000
,
00000010
00000001
00000100
00000100
00000010
00000010
00000100
00000000
,
00000001
00000100
00001000
00010000
00001000
00000100
00000001
00000001
,
00000010
00001000
00010000
00010000
00001000
00001000
00010000
00000000
,
00001000
00010000
00100000
00100000
10000000
10000000
01000000
00000000
,
00100000
01000000
00010000
00010000
00001000
00001000
00000010
00000000
,
00001000
00000000
00000000
00010000
00000000
00000000
00100000
00000000
00000000
00010000
00000000
00000000
00001000
00000000
00000000
00000000
,
00011000
00010100
00011000
00022000
,
00000000
00000000
00000000
00033000
00000000
00000000
00000000
00000000
;

//--------------- dance-double - Extraordiberry ----------------
#NOTEDATA:;
#STEPSTYPE:dance-double;
#DESCRIPTION:Extraordiberry;
#DIFFICULTY:Hard;
#METER:15;
#RADARVALUES:0,0,0,0,0;
#CREDIT:Extraordiberry;
#NOTES:
00000000
00000000
00000000
00000000
,
00000000
00000000
00000000
00000000
,
00000000
00000000
00000000
00000000
,
00011000
00000000
00000000
00001000
00000000
00000000
00001010
00000000
00000000
00001000
00000000
00000000
00011000
00000000
00001000
00000000
,
00000100
00000100
00001000
00001000
00010000
00020000
00000000
00000000
,
00130000
00000000
10000000
00100000
10000000
00010000
00100000
00000000
01000000
00000000
00010000
00000000
00001000
00000000
00001000
00000000
,
00000010
00000000
00000001
00000010
00000001
00001000
00000010
00000000
00000100
00000000
00001000
00000000
00010000
00000000
00010000
00000000
,
00100000
00000000
10000000
00100000
10000000
00010000
00100000
00000000
01000000
00000000
00010000
00000000
00001000
00000000
00001000
00000000
,
00000010
00001000
00010000
01000000
10000000
01000000
00020000
00000000
,
00130000
00000000
01000000
00100000
01000000
00010000
10000000
00000000
01000000
00000000
00010000
00000000
00001000
00000000
00001000
00000000
,
00000010
00000000
00000100
00000010
00000001
00001000
00000001
00000000
00000100
00000000
00001000
00000000
00010000
00000000
00010000
00000000
,
00100000
00000000
10000000
01000000
00100000
00010000
10000000
00000000
00100000
00000000
00010000
00000000
00001000
00000000
00001000
00000000
,
00000100
00000100
00001000
00001000
00010000
00020000
00001000
00000000
,
01030000
00000000
00100000
01000000
00100000
00010000
10000000
00000000
00100000
00000000
00010000
00000000
00001000
00000000
00001000
00000000
,
00000100
00000000
00000010
00000100
00000010
00001000
00000001
00000000
00000010
00000000
00001000
00000000
00010000
00000000
00010000
00000000
,
00100000
00000000
01000000
00100000
01000000
00010000
10000000
00000000
01000000
00000000
00010000
00000000
00001000
00000000
00001000
00000000
,
00000010
00000000
00000100
00000010
00000001
00001000
00000001
00000000
00000100
00000000
00001000
00000000
00010000
00000000
00010000
00000000
,
00100000
00100000
00010000
00010000
00001000
00002000
00000000
00013000
,
00100000
00100000
00010000
00010000
00001000
00002000
00000000
00013000
,
00100000
00100000
00010000
00010000
00001000
00001000
00000010
00000010
,
00001000
00001000
00010000
00010000
00001000
00001000
00001000
00001000
,
00010000
00010000
00100000
00100000
,
10000000
10000000
01000000
01000000
,
00010000
00010000
00001000
00001000
,
00000010
00000010
00000001
00000100
,
00002000
00000100
00010000
00010000
,
00203000
00001000
00010000
00010000
,
02300000
00010000
00100000
00100000
,
23000000
00010000
30200000
00320000
,
00031000
00000000
00010000
00000000
00001000
00000000
00000000
00000100
00000000
00000100
00000000
00000000
00000001
00000000
00000001
00000000
,
00000010
00000000
00000100
00000000
00000010
00000000
00000000
00001000
00000000
00001000
00000000
00000000
00010000
00000000
00010000
00000000
,
00100000
00000000
01000000
00000000
00100000
00000000
00000000
10000000
00000000
10000000
00000000
00000000
01000000
00000000
01000000
00000000
,
00100000
00000000
00010000
00000000
00100000
00000000
00000000
01000000
00000000
01000000
00000000
00000000
00010000
00000000
00001000
00000000
,
00000010
00000100
00000010
00000001
00001000
00000001
00000010
00000001
,
00000100
00001000
00010000
00001000
00000100
00001000
00010000
00100000
,
10000000
00010000
00100000
00010000
10000000
00010000
00100000
00001000
,
00010000
00000100
00010000
00001000
00010000
00000100
00010000
00001000
,
00000010
00000001
00000010
00001000
00010000
01000000
10000000
01000000
,
01010000
00000000
00000000
00010000
00000000
00000000
00011000
00000000
00000000
00010000
00000000
00000000
00110000
00000000
00100000
00000000
,
00010000
00000000
00001000
00010000
00001000
00010000
00000000
00001000
00000000
00000010
00000000
00000001
00000010
00000000
00000010
00000000
,
00001000
00000000
00010000
00001000
00010000
00001000
00000000
00010000
00000000
00010000
00000000
00100000
10000000
00000000
00100000
00000000
,
00010000
00000000
00001000
00010000
00001000
00010000
00000000
00001000
00000000
00000010
00000000
00000001
00000010
00000000
00000010
00000000
,
00001000
00010000
01000000
00010000
00001000
00010000
00020000
00000000
,
00130000
00000000
10000000
00010000
10000000
00010000
00000000
00100000
00000000
01000000
00000000
00010000
00001000
00000000
00001000
00000000
,
00000010
00000000
00000001
00001000
00000001
00001000
00000000
00000010
00000000
00000100
00000000
00001000
00010000
00000000
00010000
00000000
,
00100000
00000000
10000000
00010000
10000000
00010000
00000000
00100000
00000000
01000000
00000000
00010000
00001000
00000000
00001000
00000000
,
00100000
00000000
00001000
00010000
00001000
00010000
00000000
00000000
00001000
00000000
00001000
00000000
00001000
00000000
00001000
00000000
,
00000100
00000000
00000010
00000100
00000010
00001000
00000001
00000000
00000010
00000000
00001000
00000000
00010000
00000000
00010000
00000000
,
01000000
00000000
00100000
01000000
00100000
00010000
10000000
00000000
00100000
00000000
00010000
00000000
00001000
00000000
00001000
00000000
,
00000100
00000000
00000010
00000100
00000010
00001000
00000001
00000000
00000010
00000000
00001000
00000000
00010000
00000000
00001000
00000000
,
00000100
00000000
00001000
00000000
00010000
00000000
00100000
00010000
00001000
00010000
00001000
00000100
00001000
00000000
00010000
00000000
,
00100000
00000000
10000000
01000000
00100000
00010000
10000000
00000000
01000000
00000000
00010000
00000000
00001000
00000000
00001000
00000000
,
00000010
00000000
00000001
00000100
00000010
00000100
00000001
00000000
00000100
00000000
00001000
00000000
00010000
00000000
00010000
00000000
,
00100000
00000000
10000000
01000000
00010000
01000000
10000000
00000000
01000000
00000000
00010000
00000000
00001000
00000000
00001000
00000000
,
00001010
00000000
00000000
00001000
00000000
00000000
00011000
00000000
00000000
00001000
00000000
00000000
00001100
00000000
00001000
00000000
,
00000100
00000100
00001000
00001000
00010000
00010000
00010000
00020000
,
00000000
00000000
00000000
00030000
00000000
00000000
00000000
00000000
;
