#VERSION:0.83;
#TITLE:Unlimited Ammo;
#SUBTITLE:;
#ARTIST:Namasenda;
#TITLETRANSLIT:;
#SUBTITLETRANSLIT:;
#ARTISTTRANSLIT:;
#GENRE:;
#ORIGIN:;
#CREDIT:;
#BANNER:Unlimited Ammo-bn.png;
#BACKGROUND:Unlimited Ammo-bg.png;
#PREVIEWVID:;
#JACKET:Unlimited Ammo-jk.png;
#CDIMAGE:;
#DISCIMAGE:;
#LYRICSPATH:;
#CDTITLE:;
#MUSIC:Unlimited Ammo.ogg;
#OFFSET:-0.005000;
#SAMPLESTART:7.760000;
#SAMPLELENGTH:12.805000;
#SELECTABLE:YES;
#BPMS:0.000=150.000;
#STOPS:;
#DELAYS:;
#WARPS:;
#TIMESIGNATURES:0.000=4=4;
#TICKCOUNTS:0.000=4;
#COMBOS:0.000=1;
#SPEEDS:0.000=1.000=0.000=0;
#SCROLLS:0.000=1.000;
#FAKES:;
#LABELS:0.000=Song Start;
#BGCHANGES:;
#KEYSOUNDS:;
#ATTACKS:
;

//---------------dance-single - ----------------
#NOTEDATA:;
#CHARTNAME:;
#STEPSTYPE:dance-single;
#DESCRIPTION:;
#CHARTSTYLE:;
#DIFFICULTY:Beginner;
#METER:2;
#RADARVALUES:0.074669,0.118421,0.016334,0.089836,0.000000,64.000000,62.000000,2.000000,11.000000,0.000000,0.000000,0.000000,0.000000,0.000000,0.074669,0.118421,0.016334,0.089836,0.000000,64.000000,62.000000,2.000000,11.000000,0.000000,0.000000,0.000000,0.000000,0.000000;
#CREDIT:Embrace;
#NOTES:
0000
0000
0000
0000
,
0000
0000
0000
0000
,
0000
0000
0000
0000
,
0000
0000
0000
0000
,
0000
0000
0000
0000
,
0001
0000
0000
0000
,
0000
0000
0000
0000
,
1000
0000
0000
0000
,
0020
0000
0030
0000
,
1000
0000
0000
0000
,
0000
0000
0000
0000
,
0001
0000
0000
0000
,
0010
0000
0000
0000
,
0100
0000
0000
0000
,
1000
0000
0000
0000
,
0010
0000
0000
0000
,
0100
0000
0000
0000
,
0001
0000
0000
0000
,
0010
0000
0000
0000
,
0100
0000
0000
0000
,
0010
0000
0000
0000
,
0002
0000
0000
0000
,
0003
0000
0000
0000
,
2000
0000
0000
0000
,
3000
0000
0000
0000
,
0002
0000
0000
0000
,
0003
0000
0000
0000
,
2000
0000
0000
0000
,
3000
0000
0000
0000
,
0020
0000
0000
0000
,
0000
0000
0000
0000
,
0030
0000
0000
0000
,
0000
0000
0000
0000
,
0100
0000
0000
0000
,
0010
0000
0010
0000
,
0010
0000
0000
0000
,
0000
0000
0000
0000
,
2000
0000
0000
0000
,
3000
0000
0000
0001
,
0002
0000
0000
0000
,
0003
0000
0000
1000
,
2000
0000
0000
0000
,
3000
0000
0000
0001
,
0002
0000
0000
0000
,
0003
0000
0000
0000
,
1001
0000
0000
0000
,
0100
0000
0000
0000
,
0010
0000
0000
0000
,
0100
0000
0000
0000
,
1001
0000
0000
0000
,
0010
0000
0000
0000
,
0100
0000
0000
0000
,
0010
0020
0000
0000
,
0030
0000
0000
0000
,
0001
0000
0000
0000
,
0010
0000
0000
0000
,
1000
0000
0000
0000
,
0010
0000
0000
0000
,
0001
0000
0000
0000
,
0100
0000
0000
0000
,
0010
0000
0000
0000
,
1000
0000
0000
0000
,
1000
0000
1000
0000
,
0001
0000
0000
0000
,
0001
0000
0001
0000
,
1000
0000
0000
0000
,
1000
0000
1000
0000
,
0001
0000
0000
0000
,
0001
0000
0001
0000
,
0010
0000
0000
0000
,
0000
0000
0000
0000
,
0100
0000
0000
0000
,
1000
0000
1000
0000
;

//---------------dance-single - ----------------
#NOTEDATA:;
#CHARTNAME:;
#STEPSTYPE:dance-single;
#DESCRIPTION:;
#CHARTSTYLE:;
#DIFFICULTY:Easy;
#METER:4;
#RADARVALUES:0.185506,0.267365,0.081669,0.359345,0.000000,159.000000,149.000000,10.000000,44.000000,0.000000,0.000000,0.000000,0.000000,0.000000,0.185506,0.267365,0.081669,0.359345,0.000000,159.000000,149.000000,10.000000,44.000000,0.000000,0.000000,0.000000,0.000000,0.000000;
#CREDIT:Embrace;
#NOTES:
0000
0000
0000
0000
,
0000
0000
0000
0000
,
0000
0000
0000
0000
,
0000
0000
0000
0000
,
0000
0000
0000
0000
,
0001
0000
1000
0000
,
0010
0000
0010
0000
,
2000
3000
0002
0003
,
0020
0000
0000
0030
,
0100
0000
0010
0000
,
0001
0000
0001
0000
,
0200
0300
0020
0000
,
0030
0000
0000
0000
,
1001
0000
0001
0100
,
0010
0000
2000
3000
,
0002
0003
0010
0010
,
0010
0000
0100
0000
,
0110
0000
0010
0001
,
0100
0000
0020
0030
,
2000
3000
0001
0001
,
0001
0000
0010
0000
,
0220
0000
0000
0330
,
0001
0000
1000
0010
,
2000
3000
0200
0300
,
0010
0001
1000
0000
,
2002
0000
0000
3003
,
1000
0000
0001
0010
,
0002
0003
0200
0300
,
0010
0000
1000
0000
,
0200
0000
0000
0300
,
1000
0000
1000
0000
,
0001
0000
0010
0010
,
0000
0100
0000
0100
,
0010
0000
0010
0000
,
0001
1001
0001
1001
,
1000
0000
0010
0010
,
0000
0100
0000
0100
,
0020
0000
0030
2000
,
0000
3000
0001
0010
,
0002
0000
0003
2000
,
0000
3000
0010
0100
,
0020
0000
0030
2000
,
0000
3000
0001
0010
,
0200
0000
0300
0020
,
0000
0030
0002
0003
,
1001
0000
1000
0010
,
0100
0000
0010
1000
,
0100
0000
0010
0001
,
0000
1000
1000
1000
,
1001
0000
0001
0010
,
0100
0000
0010
0001
,
0100
0000
0010
1000
,
0000
0002
0000
0003
,
1001
0000
1000
0100
,
0010
0000
0200
0300
,
2000
3000
0020
0030
,
0100
0000
0001
1000
,
0100
0000
0010
0001
,
0100
0000
0002
0003
,
0020
0030
0200
0300
,
1000
0000
0001
0000
,
1001
0000
0000
0001
,
2000
3000
0000
0010
,
0100
0000
0000
0001
,
0020
0030
0100
0010
,
0002
0003
0000
1000
,
0002
0003
0000
0100
,
0010
1000
0000
0001
,
2000
3000
0000
0100
,
0020
0030
0000
0002
,
0000
0003
0000
0000
,
2000
3000
0000
0020
,
0030
0100
0002
0003
;

//---------------dance-single - ----------------
#NOTEDATA:;
#CHARTNAME:;
#STEPSTYPE:dance-single;
#DESCRIPTION:;
#CHARTSTYLE:;
#DIFFICULTY:Medium;
#METER:8;
#RADARVALUES:0.361678,0.415186,0.138838,0.228674,0.000000,310.000000,293.000000,17.000000,28.000000,0.000000,0.000000,0.000000,0.000000,0.000000,0.361678,0.415186,0.138838,0.228674,0.000000,310.000000,293.000000,17.000000,28.000000,0.000000,0.000000,0.000000,0.000000,0.000000;
#CREDIT:Embrace;
#NOTES:
0000
0000
0000
0000
,
0000
0000
0000
0000
,
0000
0000
0000
0000
,
0000
0000
0000
0000
,
0000
0000
0000
0000
,
1000
0001
0010
0000
,
0100
0010
0100
0000
1000
0000
0000
0000
,
0001
0000
0010
0000
0001
0000
0100
0010
,
0000
2000
0000
3001
,
0100
0010
0100
0000
,
0001
1000
0010
1000
0001
0000
0000
0000
,
0100
0000
0001
0000
0010
0000
0100
1000
,
0000
0000
0000
0000
,
0100
0000
0010
0000
0001
0000
0100
0010
,
0000
0000
1000
0000
0001
0010
0100
0000
,
1000
0100
0010
0000
0001
0000
0100
0100
,
0000
0010
0000
1000
,
0001
0100
0001
0000
1000
0100
1000
0100
,
0000
0000
0010
0000
0100
1000
0010
0000
,
0100
0001
0010
0000
0100
0000
0010
0010
,
0000
0001
0000
1000
,
0010
1000
0020
0000
0230
0000
0301
1000
,
0001
0000
0010
0000
0100
1000
0200
0000
,
0310
0001
0020
0000
0230
0000
1300
1000
,
0001
0100
0000
0010
,
1000
0001
2000
0000
3200
0000
0310
0001
,
0010
0000
0001
0000
1000
0010
2000
0000
,
3001
0100
0002
0000
0203
0000
0310
0010
,
0000
1000
0000
1000
,
0200
0000
0010
0310
,
0001
0000
0001
0000
1000
0010
1000
0000
,
0001
0010
0001
0000
0100
0010
1000
0000
,
0000
0001
0000
0010
,
0001
0000
0001
0000
1000
0001
1000
0000
,
0110
0000
1001
0000
0001
1000
0001
0000
,
0010
0100
0010
0000
0001
0001
0001
0000
,
0000
1000
0000
0010
,
1000
0000
1000
0100
0000
0100
0010
0000
,
0010
0001
0000
0000
0100
0010
0100
0000
,
0001
0000
0001
0010
0000
0010
0100
0000
,
0100
1000
0000
0000
0100
0010
0100
0000
,
2000
0000
0010
3020
0000
0100
0230
0000
,
0001
0301
0000
0000
0010
0100
0010
0000
,
0002
0000
0100
0203
0000
0010
0320
0000
,
1000
1030
0000
0001
0010
0000
0001
0000
,
1001
0000
1000
0000
0010
0000
0100
0001
,
1000
0000
1000
0000
0100
0010
0001
0000
,
1000
0010
0100
0000
0010
0000
1000
1000
,
0000
0001
0010
0001
0010
0001
0010
0000
,
0120
0000
0031
0000
1000
0000
0001
0100
,
0010
0000
0010
0000
1000
0001
0010
0000
,
0100
1000
0001
0000
0100
0000
0010
0010
,
0000
2000
0000
0000
,
3010
0000
0010
0000
0100
0000
0001
1000
,
0100
0000
0010
0000
0001
1000
0001
0000
,
0100
0000
0010
0000
0100
0000
0001
0001
,
1000
0100
0010
0001
,
1001
0000
1000
0000
0100
0000
0010
0001
,
1000
0000
0010
0000
0100
0001
0100
0000
,
0010
0000
1000
0000
0001
0000
0010
0010
,
0100
1000
0001
0010
,
0220
0000
0330
0000
0000
1001
0000
0000
,
1000
0001
0100
0000
0000
0010
0100
0000
,
0001
0000
1000
0000
0000
1001
0000
0000
,
0022
0000
0033
0000
0000
1010
0000
0000
,
0010
0110
0000
0000
0000
1001
0000
0000
,
0202
0000
0303
0000
0000
0100
0010
0000
,
0010
0000
1001
0000
0000
1100
0000
0000
,
0220
0000
0330
0000
0000
1001
0000
1000
,
0010
0000
0100
0001
0000
0000
0010
0000
,
0100
1000
0100
0000
0000
0000
0000
0000
,
0010
0000
0001
1000
0000
0000
0001
0000
,
0100
0010
0100
0000
0001
0010
0000
0000
;

//---------------dance-single - ----------------
#NOTEDATA:;
#CHARTNAME:;
#STEPSTYPE:dance-single;
#DESCRIPTION:;
#CHARTSTYLE:;
#DIFFICULTY:Hard;
#METER:12;
#RADARVALUES:0.521517,0.506758,0.106170,0.163339,0.155172,447.000000,434.000000,13.000000,20.000000,0.000000,0.000000,0.000000,0.000000,0.000000,0.521517,0.506758,0.106170,0.163339,0.155172,447.000000,434.000000,13.000000,20.000000,0.000000,0.000000,0.000000,0.000000,0.000000;
#CREDIT:Embrace;
#NOTES:
0000
0000
0000
0000
,
0000
0000
0000
0000
,
0000
0000
0000
0000
,
0000
0000
0000
0000
,
0000
0000
0000
0000
0000
0000
0000
1000
,
0001
0010
0001
0010
0100
0000
1000
0000
,
0001
0100
0001
0100
0010
1000
0001
0000
,
0010
0100
1000
0100
0010
0001
1000
1000
,
0002
0000
0000
0000
0000
0000
0103
0001
,
1000
0100
1000
0001
0200
0000
0310
1000
,
0001
0100
0010
1000
0200
0000
0310
0000
,
0001
0010
0001
0100
0010
1000
0001
0002
,
0000
0000
0000
0003
,
1001
1000
0100
0010
0001
1000
0010
0010
,
0000
0000
0100
0000
0010
1000
0100
1000
,
0010
0100
0001
1000
0100
0010
0001
0001
,
0000
0000
0000
0000
1000
0000
0000
0010
0000
0000
1000
0000
0001
0000
0000
0000
,
0011
0010
0100
1000
0001
0100
0010
0010
,
0000
0000
1000
0000
0100
1000
0010
0100
,
0001
0100
0010
1000
0001
0010
0100
0100
,
0000
0000
0000
0000
0010
0000
0000
0001
0000
0000
0001
0000
0000
0000
0010
0000
,
0110
0100
1000
1000
0001
0001
0100
0010
,
0200
0000
0310
0000
1000
1000
0001
0001
,
0010
0010
0001
0001
1000
0010
1000
0010
,
0100
0000
0001
0000
1000
0000
0000
1000
0000
0000
0100
0000
0000
0010
0000
0000
,
1001
0001
0100
0100
0010
0010
1000
0100
,
2000
0000
3001
0000
0100
0100
0001
0001
,
0010
0010
0001
0001
1000
0100
0010
0100
,
1000
0000
0010
0000
0100
0000
0000
0100
0000
0000
0001
0000
0000
1000
0000
0000
,
0200
0000
0010
0000
1000
1000
1300
0000
,
0001
0000
0010
0001
1000
0001
0100
0000
,
0010
1000
0100
0000
0010
0001
0100
0000
,
0010
0000
0000
0000
1000
0000
0000
0001
0000
1000
0000
0001
0100
0000
0000
0000
,
0010
0100
0001
1000
0001
0010
0100
0000
,
0110
0000
1001
0000
1000
0010
0100
0000
,
0010
1000
0001
1000
0100
0010
0010
0000
,
0001
0000
0000
0000
0100
0000
0000
0001
0000
0010
0000
0001
1000
0000
0000
0000
,
0020
0000
0100
0100
0000
1030
0002
0000
,
0010
0010
0000
1003
0000
0001
0010
0100
,
1100
0000
1000
0001
0000
0100
0010
0000
,
0010
0100
0000
0001
1000
0100
1000
0010
,
0200
0000
0010
0010
0000
0301
2000
0000
,
0010
0010
0000
3001
0000
1000
0100
0010
,
0011
0000
0001
1000
0000
1000
0010
0000
,
0100
0010
0000
1000
2000
0000
3001
0000
,
0011
0010
0100
1000
0001
0001
1000
1000
,
0020
0000
0130
0000
0001
0010
0001
0100
,
0001
0001
1000
0100
1000
1000
0010
0010
,
0000
0100
0001
1000
0001
0100
0001
0000
,
1010
1000
0001
0010
0100
0100
0010
0010
,
0001
1000
0010
0000
0100
0001
0010
0001
,
0100
0010
1000
0001
1000
1000
0100
0100
,
0010
0000
0000
0000
0002
0000
0000
0000
0000
0000
0103
0000
0010
0000
1000
0010
,
1000
0001
0100
0010
1000
0100
1000
0010
,
0200
0000
0301
0000
0010
0001
1000
0001
,
0100
0001
1000
0001
0010
0100
1000
1000
,
0001
0000
0001
0000
0100
0000
0000
0010
0000
0000
1000
0000
0000
0000
0001
0000
,
0011
0010
0001
1000
0010
0010
0100
0100
,
0002
0000
1003
0000
0010
0100
0001
0010
,
0100
0010
0001
1000
0010
0010
1000
1000
,
0001
0000
0001
0000
0010
0000
0000
0010
0000
0000
0010
0000
0000
0010
0000
0000
,
1001
0000
1000
0000
0000
0001
0000
0000
0100
0000
0010
0000
0000
1000
0000
0000
,
0001
1000
0001
0000
0010
0000
0000
0010
0000
0000
0100
0000
1000
0000
0000
1000
,
0001
0000
0000
0000
0100
0000
0000
0100
0000
0000
0010
0000
0000
0010
0000
0000
,
1000
0001
1000
0000
0100
0000
0000
0010
0000
0000
1001
0000
0000
0000
0001
0010
,
0001
0000
0010
0000
0000
0100
0000
0000
1000
0000
0001
0000
0000
0001
0000
0000
,
0100
0001
0100
0001
1000
0000
0000
0010
0000
0000
1000
0000
0001
0000
0000
0001
,
0010
0000
0000
0000
0100
0000
0000
0100
0000
0000
1000
0000
0000
1000
0000
0000
,
0001
1000
0100
1000
0001
0000
0000
0010
0000
0000
0100
0000
0000
0000
0010
0100
,
1000
0001
1000
0020
0000
0030
0100
0001
,
1000
0100
0020
0000
0030
0000
0000
0000
,
0001
1000
0010
0200
0000
0300
0001
0010
,
0001
0100
0010
1000
0100
2000
0000
0000
,
3000
0000
0000
0000
;

//---------------dance-single - ----------------
#NOTEDATA:;
#CHARTNAME:;
#STEPSTYPE:dance-single;
#DESCRIPTION:;
#CHARTSTYLE:;
#DIFFICULTY:Challenge;
#METER:15;
#RADARVALUES:0.694189,0.804851,0.163339,0.334844,0.624770,595.000000,575.000000,20.000000,41.000000,0.000000,0.000000,0.000000,0.000000,0.000000,0.694189,0.804851,0.163339,0.334844,0.624770,595.000000,575.000000,20.000000,41.000000,0.000000,0.000000,0.000000,0.000000,0.000000;
#CREDIT:Embrace;
#NOTES:
0000
0000
0000
0000
,
0000
0000
0000
0000
,
0000
0000
0000
0000
,
0000
0000
0000
0000
,
0000
0000
0000
0000
0000
0000
0000
0001
,
0010
0100
1000
0001
0200
0000
0310
0000
,
0001
0010
1000
1000
0001
0010
1000
0000
,
0010
0100
1000
0010
0100
0001
1000
1000
,
0200
0000
0000
0000
0000
0000
1300
0001
,
0100
1000
0100
0010
2000
0000
3001
0010
,
1000
0001
0100
1000
0002
0000
0203
0000
,
0310
0000
0010
0000
1000
0000
0010
0100
0000
0100
0010
0000
1000
0000
0200
0000
,
0020
0000
0000
0330
,
1001
0000
1000
0000
0010
0000
0100
0001
0000
0010
0100
0000
1000
0000
1000
0000
,
0010
0100
0010
0000
1000
0000
0000
0000
0002
0000
0010
0000
1003
0000
0001
0000
,
2000
0000
0100
0000
3001
0000
1000
0100
0000
1000
0010
0000
0200
0000
0010
0000
,
0301
1000
0001
0000
1000
0000
0100
0010
0000
0010
0001
0000
1000
0000
0010
1000
,
0001
0000
0010
0000
0100
0000
0001
0100
0000
0010
0001
0000
1000
0000
0001
0000
,
1000
0010
1000
0000
0001
0000
0000
0000
0200
0000
0010
0000
0301
0000
1000
0000
,
0002
0000
0010
0000
1003
0000
0010
0100
0000
1000
0100
0000
0020
0000
0100
0000
,
1030
0001
1000
0000
0100
0000
0000
0010
0000
0010
0001
0000
0100
0000
0010
1000
,
0001
0000
1000
0000
0001
0010
0001
0010
0100
1000
0100
1000
0001
0000
0001
1000
,
0100
1000
0000
0000
0110
0000
0000
0000
0001
1000
0001
0000
0100
0001
1000
0001
,
0100
0010
0100
0010
0100
0001
0100
0000
0001
1000
0100
0000
0010
0100
0010
0100
,
1000
0001
0010
0000
0100
0000
0000
0010
0000
0010
0001
0000
1000
0000
0000
0000
,
1001
0000
1000
0010
1000
0010
0100
0010
0100
0001
1000
0001
1000
0100
0000
1000
,
0001
0100
0001
0100
0002
0000
0000
0000
1003
0000
1000
0000
0010
0100
0010
0100
,
0001
1000
0001
1000
0100
1000
0001
0000
0010
0001
1000
0000
0010
0100
0010
0100
,
0001
1000
0001
0000
0100
0000
0001
1000
0000
1000
0100
0000
0100
0010
0000
0010
,
0002
0010
1000
2003
0010
0001
3100
0000
,
0020
0000
1030
0010
0001
0100
0020
0000
,
1030
0010
0002
0000
1003
0100
0002
0000
,
0003
0000
0000
0000
1000
0000
0000
0001
0000
0001
0000
0001
1000
0000
0000
0000
,
0001
0010
0100
0010
0002
0100
1003
0000
,
1100
0000
0011
0000
0001
0100
0020
0000
,
1030
0010
0001
1000
0100
0001
0002
0000
,
0003
0000
0000
0000
1000
0000
0000
0001
0000
0001
0000
0001
1000
0000
0000
0000
,
0020
0000
0100
0000
1030
0000
0001
0010
0000
0010
0100
0000
1000
0000
0100
0010
,
0001
0000
2000
0000
0010
0000
3001
0100
0000
0100
0010
0000
0010
0000
0010
0000
,
1000
0000
0000
0000
0100
0000
1000
0001
0000
0001
0010
0000
0002
0000
0010
0000
,
1003
0010
0100
0000
0001
0000
1000
0100
0000
0100
0010
0000
0010
0000
0010
0000
,
0002
0000
0010
0000
1003
0000
0001
0100
0000
0100
0010
0000
0001
0010
0100
0001
,
0000
0001
2000
0000
0001
0000
3100
0010
0000
0100
0001
0100
0020
0000
0001
0000
,
0031
0000
1000
0000
0010
0000
0100
1000
0000
1000
0100
0000
0010
1000
0001
0010
,
0000
0000
0100
0001
0100
0000
0010
0001
2000
0000
0000
0000
3010
0000
0000
0000
,
0102
0000
0100
0000
1000
0000
0013
0000
0100
0010
0100
0000
0010
0000
0001
1000
,
0010
0100
0001
0000
1000
0000
0000
0000
0001
0100
0001
0000
0010
0100
0010
0000
,
0001
1000
0010
0000
0100
0000
0100
0000
0002
0000
1000
0000
0013
0100
0010
0100
,
2000
0001
0100
0001
0100
0001
3100
0000
,
0012
0000
1000
0000
0103
0010
1000
0000
0001
0000
0100
0000
1000
0000
0100
0001
,
1000
0100
0010
0000
0100
0000
0000
0000
0020
0000
0001
0000
0130
1000
0001
0000
,
0200
0000
0001
0000
0310
0000
0100
0001
1000
0100
0010
0000
1000
0000
0010
0001
,
1000
0001
1000
0000
0020
0000
0000
0000
0000
0000
0000
0000
0030
0000
0000
0000
,
0110
0000
0100
0000
0001
0000
1000
0100
0000
1000
0001
0000
0100
0000
0100
0000
,
0010
1000
0010
0000
0100
0000
0001
1000
0100
0000
0010
0000
0001
0000
0001
0000
,
1000
0000
0001
0000
0100
0000
0010
1000
0001
0000
0100
0000
0001
1000
0000
0001
,
0010
0100
0010
0000
0001
0000
1000
0010
0000
0100
0010
0000
1000
0000
1000
0001
,
0010
0000
0100
1000
0001
0000
0100
0000
0010
0001
0010
0000
1000
0000
0001
0000
,
0010
0001
0010
0000
0100
0000
0000
0100
1000
0000
1000
0000
0001
0000
0001
0000
,
0010
0000
1000
0000
0010
0001
1000
0000
0001
0100
0010
0000
1000
0000
1000
0000
,
0001
0100
0001
0000
1000
0000
0000
0100
0000
0100
0010
0000
0001
1000
0000
0000
,
1010
0000
1000
0010
1000
0000
0001
0000
1000
0000
1100
0000
0000
0100
0000
0000
,
0010
0001
0010
0001
1000
0000
0000
0010
0000
0000
0100
0000
1001
0000
0000
0001
,
0010
0000
0100
0000
0110
0000
0000
0001
0000
0000
1010
0000
0000
0001
0000
0000
,
1000
0100
1000
0001
0010
0000
0000
0001
0000
0000
0101
0000
0000
1000
0010
1000
,
0001
0000
0101
0000
0000
0100
0000
0000
0001
0000
0011
0000
0000
1000
0000
0000
,
0001
0010
0100
1000
0100
0000
0000
0100
0000
0000
1000
0000
1001
0000
0000
0001
,
0100
0000
0010
0000
0110
0000
0000
1000
0000
0000
0011
0000
0000
1000
0000
0000
,
0010
0100
0010
0100
0001
0000
0000
1000
0000
0000
0110
0000
0000
0001
1000
0100
,
0010
0100
1000
0002
0000
0000
0103
0010
,
0001
0010
2000
0000
0000
0000
3000
0000
,
0001
0010
0100
2000
0000
0000
3010
0100
,
0001
0010
1000
0010
0100
2000
0000
0000
,
3000
0000
0000
0000
;

//---------------dance-double - ----------------
#NOTEDATA:;
#CHARTNAME:;
#STEPSTYPE:dance-double;
#DESCRIPTION:;
#CHARTSTYLE:;
#DIFFICULTY:Easy;
#METER:4;
#RADARVALUES:0.186673,0.267365,0.081669,0.351178,0.000000,160.000000,150.000000,10.000000,43.000000,0.000000,0.000000,0.000000,0.000000,0.000000,0.186673,0.267365,0.081669,0.351178,0.000000,160.000000,150.000000,10.000000,43.000000,0.000000,0.000000,0.000000,0.000000,0.000000;
#CREDIT:Embrace;
#NOTES:
00000000
00000000
00000000
00000000
,
00000000
00000000
00000000
00000000
,
00000000
00000000
00000000
00000000
,
00000000
00000000
00000000
00000000
,
00000000
00000000
00000000
00000000
,
00000001
00000000
00000010
00000000
,
00000100
00000000
00000100
00000000
,
00020000
00030000
00002000
00003000
,
02000000
00000000
00000000
03000000
,
00100000
00000000
10000000
00000000
,
00010000
00000000
00010000
00000000
,
00200000
00300000
00002000
00003000
,
00010000
00000000
00000000
00000000
,
00011000
00000000
00001000
01000000
,
00010000
00000000
00200000
00300000
,
00002000
00003000
00010000
00010000
,
00010000
00000000
00000010
00000000
,
00000110
00000000
00000100
00000001
,
00001000
00000000
00000200
00000300
,
00010000
00000000
00001000
00001000
,
00001000
00000000
01000000
00000000
,
02200000
00000000
00000000
03300000
,
00010000
00000000
10000000
01000000
,
20000000
30000000
00020000
00030000
,
00100000
00001000
00010000
00000000
,
00022000
00000000
00000000
00033000
,
00000010
00000000
00000100
00000001
,
00000200
00000300
00000002
00000003
,
00000010
00000000
00000100
00000000
,
00002000
00000000
00000000
00003000
,
00000010
00000000
00010000
00000000
,
00001000
00000000
00100000
00010000
,
00000000
10000000
00000000
10000000
,
00010000
00000000
01000000
00000000
,
00001000
00011000
00001000
00011000
,
00010000
00000000
00000010
00000010
,
00000000
00000100
00000000
00000100
,
00000002
00000000
00000003
00000020
,
00000000
00000030
00000100
00010000
,
00002000
00000000
00003000
00020000
,
00000000
00030000
00000010
00001000
,
00000002
00000000
00000003
00000200
,
00000000
00000300
00000010
00010000
,
00002000
00000000
00003000
02000000
,
00000000
03000000
00020000
00030000
,
10010000
00000000
10000000
01000000
,
00100000
00000000
00001000
00010000
,
00000100
00000000
00001000
00000001
,
00000000
00001000
00001000
00001000
,
00001001
00000000
00000001
00000100
,
00000010
00000000
00000010
00001000
,
00000100
00000000
00010000
00001000
,
00000000
00020000
00000000
00030000
,
00011000
00000000
00001000
01000000
,
00010000
00000000
20000000
30000000
,
00200000
00300000
02000000
03000000
,
00010000
00000000
00100000
00001000
,
00010000
00000000
00000100
00001000
,
00000001
00000000
00000020
00000030
,
00000200
00000300
00020000
00030000
,
00001000
00000000
00010000
00000000
,
00011000
00000000
00000000
00000010
,
00002000
00003000
00000000
00000100
,
00000010
00000000
00000000
00000001
,
00000200
00000300
00000010
00010000
,
00002000
00003000
00000000
00100000
,
00020000
00030000
00000000
01000000
,
00100000
01000000
00000000
00010000
,
00200000
00300000
00000000
01000000
,
20000000
30000000
00000000
00020000
,
00000000
00030000
00000000
00000000
,
02000000
03000000
00000000
00200000
,
00300000
10000000
00020000
00030000
;

//---------------dance-double - ----------------
#NOTEDATA:;
#CHARTNAME:;
#STEPSTYPE:dance-double;
#DESCRIPTION:;
#CHARTSTYLE:;
#DIFFICULTY:Medium;
#METER:8;
#RADARVALUES:0.362845,0.415186,0.138838,0.228674,0.000000,311.000000,294.000000,17.000000,28.000000,0.000000,0.000000,0.000000,0.000000,0.000000,0.362845,0.415186,0.138838,0.228674,0.000000,311.000000,294.000000,17.000000,28.000000,0.000000,0.000000,0.000000,0.000000,0.000000;
#CREDIT:Embrace;
#NOTES:
// measure 0
00000000
00000000
00000000
00000000
,  // measure 1
00000000
00000000
00000000
00000000
,  // measure 2
00000000
00000000
00000000
00000000
,  // measure 3
00000000
00000000
00000000
00000000
,  // measure 4
00000000
00000000
00000000
00000000
,  // measure 5
10000000
00100000
01000000
00000000
,  // measure 6
00001000
00010000
00001000
00000000
00010000
00000000
00000000
00000000
,  // measure 7
00000100
00000000
00000010
00000000
00000001
00000000
00000010
00000100
,  // measure 8
00000000
00020000
00000000
00031000
,  // measure 9
00010000
00000100
00001000
00000000
,  // measure 10
00000001
00000100
00000010
00000100
00000001
00000000
00000000
00000000
,  // measure 11
00001000
00000000
00000010
00000000
00010000
00000000
00001000
00010000
,  // measure 12
00000000
00000000
00000000
00000000
,  // measure 13
00001000
00000000
01000000
00000000
00100000
00000000
10000000
00010000
,  // measure 14
00000000
00000000
00100000
00000000
01000000
00100000
00001000
00000000
,  // measure 15
00100000
00010000
10000000
00000000
00100000
00000000
01000000
01000000
,  // measure 16
00000000
00010000
00000000
00100000
,  // measure 17
00001000
00010000
00001000
00000000
00010000
00000010
00001000
00000010
,  // measure 18
00000000
00000000
00001000
00000000
00000100
00001000
00000001
00000000
,  // measure 19
00000010
00000001
00001000
00000000
00000010
00000000
00000100
00000100
,  // measure 20
00000000
00000010
00000000
00010000
,  // measure 21
00001000
00010000
00002000
00000000
00203000
00000000
01300000
10000000
,  // measure 22
01000000
00000000
00100000
00000000
00010000
10000000
00020000
00000000
,  // measure 23
01030000
00100000
02000000
00000000
03200000
00000000
10300000
10000000
,  // measure 24
00010000
00100000
00000000
00001000
,  // measure 25
00010000
00001000
00020000
00000000
00030200
00000000
00000310
00000001
,  // measure 26
00000010
00000000
00000100
00000000
00001000
00000001
00002000
00000000
,  // measure 27
00003010
00000100
00000020
00000000
00002030
00000000
00003001
00000001
,  // measure 28
00000000
00000010
00000000
00000010
,  // measure 29
00000200
00000000
00001000
00001300
,  // measure 30
00000010
00000000
00000010
00000000
00010000
00001000
00010000
00000000
,  // measure 31
00001000
00100000
00010000
00000000
10000000
01000000
00100000
00000000
,  // measure 32
00000000
00010000
00000000
01000000
,  // measure 33
00100000
00000000
00100000
00000000
01000000
00010000
01000000
00000000
,  // measure 34
01001000
00000000
00011000
00000000
00010000
00001000
00010000
00000000
,  // measure 35
00000100
00001000
00000001
00000000
00000100
00000100
00000100
00000000
,  // measure 36
00000000
00000010
00000000
00010000
,  // measure 37
00001000
00000000
00100000
00010000
00000000
01000000
00100000
00000000
,  // measure 38
10000000
01000000
00000000
00000000
00100000
00001000
00010000
00000000
,  // measure 39
00000100
00000000
00001000
00000001
00000000
00000100
00000010
00000000
,  // measure 40
00001000
00000001
00000000
00000000
00001000
00000100
00010000
00000000
,  // measure 41
00002000
00000000
01000000
02003000
00000000
00100000
03200000
00000000
,  // measure 42
10000000
10300000
00000000
00000000
00010000
00100000
00001000
00000000
,  // measure 43
00020000
00000000
00000100
00030200
00000000
00000010
00000320
00000000
,  // measure 44
00000001
00000031
00000000
00001000
00000100
00000000
00000010
00000000
,  // measure 45
00000110
00000000
00000001
00000000
00001000
00000000
00000010
00000100
,  // measure 46
00000001
00000000
00001000
00000000
00000100
00010000
00001000
00000000
,  // measure 47
01000000
00010000
10000000
00000000
01000000
00000000
00100000
00100000
,  // measure 48
00000000
00001000
00010000
00001000
00010000
00001000
00010000
00000000
,  // measure 49
00021000
00000000
00030010
00000000
00000100
00000000
00000001
00001000
,  // measure 50
00000100
00000000
00000100
00000000
00000010
00000001
00001000
00000000
,  // measure 51
00000010
00000100
00000010
00000000
00010000
00000000
00001000
00001000
,  // measure 52
00000000
00020000
00000000
00000000
,  // measure 53
00031000
00000000
00001000
00000000
00100000
00000000
00010000
10000000
,  // measure 54
00100000
00000000
01000000
00000000
00100000
01000000
00001000
00000000
,  // measure 55
00010000
00000000
00000100
00000000
00000010
00000000
00000001
00000001
,  // measure 56
00001000
00000100
00010000
00001000
,  // measure 57
00011000
00000000
00100000
00000000
00010000
00000000
01000000
00100000
,  // measure 58
01000000
00000000
00010000
00000000
00100000
01000000
00100000
00000000
,  // measure 59
01000000
00000000
10000000
00000000
00010000
00000000
01000000
01000000
,  // measure 60
00001000
00010000
00000010
00000100
,  // measure 61
00000220
00000000
00000330
00000000
00000000
00001001
00000000
00000000
,  // measure 62
00000001
00001000
00000100
00000000
00000000
00000010
00000001
00000000
,  // measure 63
00001000
00000000
00000010
00000000
00000000
00010010
00000000
00000000
,  // measure 64
00022000
00000000
00033000
00000000
00000000
00110000
00000000
00000000
,  // measure 65
00100000
01100000
00000000
00000000
00000000
10010000
00000000
00000000
,  // measure 66
02020000
00000000
03030000
00000000
00000000
01000000
00001000
00000000
,  // measure 67
00010000
00000000
00011000
00000000
00000000
00001100
00000000
00000000
,  // measure 68
00000220
00000000
00000330
00000000
00000000
00001001
00000000
00001000
,  // measure 69
00000010
00000100
00000001
00001000
00000000
00000000
00000100
00000000
,  // measure 70
00000010
00000100
00001000
00000000
00000000
00000000
00000000
00000000
,  // measure 71
00000001
00000000
00000100
00000010
00000000
00000000
00010000
00000000
,  // measure 72
00001000
01000000
00010000
00000000
10000000
01000000
00000000
00000000
;

//---------------dance-double - ----------------
#NOTEDATA:;
#CHARTNAME:;
#STEPSTYPE:dance-double;
#DESCRIPTION:;
#CHARTSTYLE:;
#DIFFICULTY:Hard;
#METER:12;
#RADARVALUES:0.521517,0.506758,0.106170,0.163339,0.155172,447.000000,434.000000,13.000000,20.000000,0.000000,0.000000,0.000000,0.000000,0.000000,0.521517,0.506758,0.106170,0.163339,0.155172,447.000000,434.000000,13.000000,20.000000,0.000000,0.000000,0.000000,0.000000,0.000000;
#CREDIT:Embrace;
#NOTES:
00000000
00000000
00000000
00000000
,
00000000
00000000
00000000
00000000
,
00000000
00000000
00000000
00000000
,
00000000
00000000
00000000
00000000
,
00000000
00000000
00000000
00000000
00000000
00000000
00000000
00001000
,
01000000
00010000
01000000
00010000
10000000
00000000
01000000
00000000
,
00100000
00001000
00100000
00001000
00010000
00000010
00000100
00000000
,
00000001
00001000
00000100
00000010
00000100
00010000
00001000
00001000
,
00020000
00000000
00000000
00000000
00000000
00000000
01030000
10000000
,
00010000
00100000
00010000
10000000
00200000
00000000
01300000
00001000
,
00010000
00000010
00001000
00000001
00000020
00000000
00000130
00000000
,
00010000
00001000
00010000
00000010
00000100
00000001
00001000
00002000
,
00000000
00000000
00000000
00003000
,
00001001
00000001
00000010
00000100
00010000
00001000
01000000
01000000
,
00000000
00000000
00010000
00000000
10000000
01000000
10000000
00010000
,
01000000
00001000
00010000
00000100
00000010
00000001
00001000
00001000
,
00000000
00000000
00000000
00000000
00000010
00000000
00000000
00000010
00000000
00000000
00000100
00000000
00000001
00000000
00000000
00000000
,
00001001
00001000
00000100
00010000
00001000
00100000
00010000
00010000
,
00000000
00000000
01000000
00000000
00100000
01000000
00010000
10000000
,
01000000
00100000
00001000
00010000
00000010
00001000
00000001
00000001
,
00000000
00000000
00000000
00000000
00000010
00000000
00000000
00000010
00000000
00000000
00000001
00000000
00001000
00000000
00000010
00000000
,
00010010
00010000
00001000
00001000
00100000
00100000
00010000
10000000
,
00200000
00000000
01300000
00000000
00001000
00001000
00010000
00010000
,
00000100
00000100
00001000
00001000
00000010
00000100
00000010
00000100
,
00000001
00000000
00001000
00000000
00000100
00000000
00000000
00000100
00000000
00000000
00010000
00000000
00000000
00001000
00000000
00000000
,
01001000
01000000
00100000
00100000
10000000
10000000
01000000
01000000
,
00200000
00000000
00301000
00000000
00010000
00010000
00001000
00001000
,
00100000
00100000
01000000
01000000
10000000
00010000
01000000
00001000
,
00010000
00000000
00000100
00000000
00001000
00000000
00000000
00000001
00000000
00000000
00000010
00000000
00000000
00001000
00000000
00000000
,
00020000
00000000
00000010
00000000
00001000
00001000
00031000
00000000
,
01000000
00000000
00100000
10000000
00010000
01000000
00001000
00000000
,
00010000
00001000
00100000
00000000
01000000
10000000
00010000
00000000
,
00100000
00000000
00000000
00000000
00001000
00000000
00000000
00010000
00000000
00001000
00000000
00010000
00000010
00000000
00000000
00000000
,
00001000
00000001
00000010
00000100
00000010
00000001
00000100
00000000
,
00000110
00000000
00001001
00000000
00000001
00000010
00000100
00000000
,
00001000
00000010
00000100
00001000
00010000
00001000
00001000
00000000
,
00100000
00000000
00000000
00000000
00010000
00000000
00000000
01000000
00000000
00100000
00000000
10000000
00010000
00000000
00000000
00000000
,
02000000
00000000
00100000
00100000
00000000
03001000
00020000
00000000
,
00001000
00001000
00000000
00030100
00000000
00000010
00000100
00010000
,
00011000
00000000
00000100
00001000
00000000
00000001
00000100
00000000
,
00001000
00010000
00000000
00000010
00000000
00000100
00000001
00001000
,
00000200
00000000
00000010
00000010
00000000
00010300
00002000
00000000
,
00100000
00100000
00000000
00013000
00000000
01000000
10000000
00010000
,
10010000
00000000
10000000
00100000
00000000
01000000
00001000
00000000
,
00010000
00000100
00000000
00000010
00000020
00000000
00000031
00000000
,
00001001
00001000
00000001
00000100
00000010
00000010
00010000
00010000
,
00002000
00000000
00103000
00000000
01000000
00100000
00010000
10000000
,
00100000
00100000
01000000
00001000
00010000
00010000
00000100
00000100
,
00000000
00000010
00000100
00001000
00000100
00000010
00000001
00000000
,
00000101
00000100
00000010
00010000
00001000
00001000
00100000
00100000
,
00010000
01000000
00100000
00000000
10000000
01000000
00100000
01000000
,
10000000
00010000
01000000
00001000
00010000
00010000
00000010
00000010
,
00000100
00000000
00000000
00000000
00000002
00000000
00000000
00000000
00000000
00000000
00001003
00000000
00000010
00000000
00000100
00000010
,
00000100
00000001
00001000
00000010
00010000
00001000
00100000
00010000
,
02000000
00000000
03100000
00000000
10000000
01000000
00100000
01000000
,
00010000
00001000
00010000
00000010
00001000
00000100
00000010
00000010
,
00000001
00000000
00000001
00000000
00001000
00000000
00000000
00000010
00000000
00000000
00000100
00000000
00000000
00000000
00000001
00000000
,
00001001
00001000
00000010
00000100
00000010
00000010
00010000
00010000
,
00002000
00000000
00103000
00000000
01000000
10000000
00010000
01000000
,
00100000
00010000
00001000
00010000
00000010
00000010
00000100
00000100
,
00000001
00000000
00000001
00000000
00001000
00000000
00000000
00001000
00000000
00000000
00001000
00000000
00000000
00001000
00000000
00000000
,
00001100
00000000
00000100
00000000
00000000
00010000
00000000
00000000
00001000
00000000
00010000
00000000
00000000
00000010
00000000
00000000
,
00000100
00000001
00000100
00000000
00000010
00000000
00000000
00000010
00000000
00000000
00010000
00000000
00001000
00000000
00000000
00001000
,
00100000
00000000
00000000
00000000
01000000
00000000
00000000
01000000
00000000
00000000
00100000
00000000
00000000
00100000
00000000
00000000
,
00010000
10000000
00010000
00000000
01000000
00000000
00000000
00100000
00000000
00000000
01100000
00000000
00000000
00000000
10000000
01000000
,
10000000
00000000
00010000
00000000
00000000
00100000
00000000
00000000
01000000
00000000
00010000
00000000
00000000
00001000
00000000
00000000
,
00010000
00000010
00010000
00000010
00001000
00000000
00000000
00000001
00000000
00000000
00000010
00000000
00000100
00000000
00000000
00001000
,
00000001
00000000
00000000
00000000
00000100
00000000
00000000
00000100
00000000
00000000
00000010
00000000
00000000
00000010
00000000
00000000
,
00010000
00001000
01000000
00001000
00010000
00000000
00000000
00100000
00000000
00000000
10000000
00000000
00000000
00000000
01000000
00100000
,
00010000
10000000
00100000
02000000
00000000
03000000
00010000
10000000
,
01000000
00010000
00002000
00000000
00003000
00000000
00000000
00000000
,
00010000
00001000
00000010
00000002
00000000
00000003
00001000
00000010
,
00000100
00000010
00010000
00001000
01000000
00200000
00000000
00000000
,
00300000
00000000
00000000
00000000
;

//---------------dance-double - ----------------
#NOTEDATA:;
#CHARTNAME:;
#STEPSTYPE:dance-double;
#DESCRIPTION:;
#CHARTSTYLE:;
#DIFFICULTY:Challenge;
#METER:15;
#RADARVALUES:0.691856,0.804851,0.163339,0.326677,0.616603,593.000000,573.000000,20.000000,40.000000,0.000000,0.000000,0.000000,0.000000,0.000000,0.691856,0.804851,0.163339,0.326677,0.616603,593.000000,573.000000,20.000000,40.000000,0.000000,0.000000,0.000000,0.000000,0.000000;
#CREDIT:Embrace;
#NOTES:
00000000
00000000
00000000
00000000
,
00000000
00000000
00000000
00000000
,
00000000
00000000
00000000
00000000
,
00000000
00000000
00000000
00000000
,
00000000
00000000
00000000
00000000
00000000
00000000
00000000
00001000
,
00010000
00000010
00000100
00000001
00002000
00000000
00003100
00000000
,
00000010
00001000
00010000
00010000
00000010
00001000
00010000
00000000
,
01000000
00100000
10000000
01000000
00010000
00001000
00100000
00100000
,
00020000
00000000
00000000
00000000
00000000
00000000
01030000
10000000
,
01000000
00100000
00010000
00001000
00020000
00000000
00031000
00000010
,
00000001
00001000
00000010
00000100
00000002
00000000
00000023
00000000
,
00000130
00000000
00000010
00000000
00000001
00000000
00000100
00000010
00000000
00000010
00000100
00000000
00001000
00000000
00020000
00000000
,
00002000
00000000
00000000
00033000
,
00101000
00000000
00100000
00000000
01000000
00000000
10000000
00010000
00000000
00100000
00001000
00000000
00010000
00000000
00010000
00000000
,
00100000
01000000
00100000
00000000
00010000
00000000
00000000
00000000
00002000
00000000
01000000
00000000
00013000
00000000
00000010
00000000
,
00020000
00000000
00001000
00000000
00030100
00000000
00000010
00000100
00000000
00001000
00000001
00000000
00000020
00000000
00000001
00000000
,
00000130
00001000
00000100
00000000
00010000
00000000
00001000
01000000
00000000
01000000
00010000
00000000
10000000
00000000
00010000
00100000
,
00001000
00000000
00010000
00000000
00000010
00000000
00000100
00001000
00000000
00010000
00000010
00000000
00001000
00000000
00000001
00000000
,
00000010
00000100
00000010
00000000
00001000
00000000
00000000
00000000
00020000
00000000
00000010
00000000
00031000
00000000
01000000
00000000
,
00002000
00000000
00010000
00000000
00103000
00000000
01000000
00010000
00000000
01000000
10000000
00000000
00020000
00000000
00100000
00000000
,
10030000
01000000
10000000
00000000
00010000
00000000
00000000
01000000
00000000
01000000
00001000
00000000
00010000
00000000
00000100
00010000
,
00001000
00000000
00010000
00000010
00001000
00000010
00001000
00000001
00000100
00000001
00000100
00000010
00000100
00000000
00001000
00010000
,
00001000
00010000
00000000
00000000
01001000
00000000
00000000
00000000
00010000
10000000
01000000
00000000
00100000
01000000
10000000
00010000
,
00100000
00010000
00100000
00001000
00010000
00001000
00010000
00000000
00000010
00001000
00000001
00000000
00000010
00000100
00000010
00000100
,
00001000
00000000
00001000
00000000
00000001
00000000
00000000
00001000
00000000
00001000
00000010
00000000
00010000
00000000
00000000
00000000
,
00011000
00000000
00001000
01000000
00010000
00000000
01000000
00100000
10000000
00010000
10000000
00000000
00010000
00100000
00000000
01000000
,
10000000
01000000
10000000
00010000
00200000
00000000
00000000
00000000
01300000
00000000
00010000
00000000
00001000
00010000
00001000
00010000
,
00000010
00001000
00000001
00000100
00000001
00000100
00000010
00000000
00010000
00000010
00001000
00000000
00000001
00000010
00000001
00000010
,
00000100
00010000
00000100
00000000
00010000
00000000
00001000
01000000
00000000
01000000
00010000
00000000
00010000
00100000
00000000
00100000
,
02000000
10000000
00100000
03200000
01000000
00010000
00301000
00000000
,
00000200
00000000
00001300
00000100
00000001
00000010
00000100
00000000
,
00000010
00001000
00020000
00000000
00130000
10000000
02000000
00000000
,
03000000
00000000
00000000
00000000
10000000
00000000
00000000
00010000
00000000
00010000
00000000
00010000
10000000
00000000
00000000
00000000
,
00010000
00100000
01000000
00010000
00002000
00010000
00003100
00000000
,
00000101
00000000
00001010
00000000
00000010
00010000
00002000
00000000
,
01003000
00001000
00010000
00001000
00000100
00000010
00000020
00000000
,
00000030
00000000
00000000
00000000
00001000
00000000
00000000
00000001
00000000
00000001
00000000
00000001
00001000
00000000
00000000
00000000
,
00000020
00000000
00000100
00000000
00001030
00000000
00000001
00000010
00000000
00000010
00000100
00000000
00001000
00000000
00000100
00010000
,
00001000
00000000
02000000
00000000
00010000
00000000
03100000
10000000
00000000
10000000
00010000
00000000
00010000
00000000
00010000
00000000
,
00100000
00000000
00000000
00000000
00010000
00000000
10000000
01000000
00000000
01000000
00100000
00000000
00020000
00000000
10000000
00000000
,
01030000
00001000
00010000
00000000
00000100
00000000
00001000
00000001
00000000
00000001
00000010
00000000
00000010
00000000
00000010
00000000
,
00000200
00000000
00001000
00000000
00010300
00000000
00001000
01000000
00000000
01000000
00010000
00000000
10000000
00100000
01000000
10000000
,
00000000
01000000
00200000
00000000
01000000
00000000
10300000
00010000
00000000
00100000
00010000
00100000
00002000
00000000
00010000
00000000
,
00013000
00000000
00000100
00000000
00000010
00000000
00000100
00000001
00000000
00000001
00000100
00000000
00000010
00000001
00001000
00000010
,
00000000
00000000
00010000
00001000
00010000
00000000
00100000
10000000
00200000
00000000
00000000
00000000
01300000
00000000
00000000
00000000
,
02001000
00000000
00010000
00000000
00100000
00000000
03010000
00000000
10000000
01000000
10000000
00000000
00010000
00000000
00100000
01000000
,
00100000
00001000
00010000
00000000
00000100
00000000
00000000
00000000
00001000
00000001
00001000
00000000
00000010
00000100
00000010
00000000
,
00000100
00000001
00001000
00000000
00000100
00000000
00000100
00000000
00002000
00000000
00000001
00000000
00003100
00000010
00000100
00000010
,
00002000
00010000
00100000
00010000
00100000
00010000
00103000
00000000
,
00020100
00000000
00001000
00000000
00030010
00001000
00000001
00000000
00000100
00000000
00001000
00000000
00000100
00000000
00000001
00001000
,
00000100
00000010
00000001
00000000
00001000
00000000
00000000
00000000
00000020
00000000
00001000
00000000
00010030
00001000
00100000
00000000
,
00020000
00000000
10000000
00000000
01030000
00000000
00100000
01000000
00001000
00010000
00001000
00000000
00000010
00000000
00000100
00000010
,
00000001
00000010
00000001
00000000
00002000
00000000
00000000
00000000
00000000
00000000
00000000
00000000
00003000
00000000
00000000
00000000
,
00001001
00000000
00000001
00000000
00000010
00000000
00000100
00001000
00000000
00010000
00100000
00000000
01000000
00000000
01000000
00000000
,
10000000
00010000
10000000
00000000
00100000
00000000
01000000
00001000
00010000
00000000
00001000
00000000
01000000
00000000
00100000
00000000
,
00010000
00000000
00001000
00000000
00000100
00000000
00000001
00001000
00000100
00000000
00000010
00000000
00000100
00010000
00000000
00001000
,
00100000
00010000
00100000
00000000
00010000
00000000
10000000
00100000
00000000
01000000
00010000
00000000
01000000
00000000
01000000
00010000
,
10000000
00000000
01000000
00100000
00010000
00000000
00001000
00000000
00000100
00000010
00000100
00000000
00001000
00000000
00000001
00000000
,
00000100
00000010
00001000
00000000
00000001
00000000
00000000
00000001
00000010
00000000
00000010
00000000
00000100
00000000
00000100
00000000
,
00000010
00000000
00001000
00000000
00010000
00001000
00100000
00000000
00010000
10000000
00100000
00000000
01000000
00000000
01000000
00000000
,
00100000
10000000
00010000
00000000
00100000
00000000
00000000
01000000
00000000
01000000
10000000
00000000
00010000
00100000
00000000
00000000
,
00101000
00000000
00001000
00100000
00001000
00000000
00010000
00000000
00000010
00000000
00001010
00000000
00000000
00001000
00000000
00000000
,
00000001
00000100
00000001
00000100
00000010
00000000
00000000
00001000
00000000
00000000
00000100
00000000
00011000
00000000
00000000
00001000
,
00100000
00000000
00010000
00000000
00110000
00000000
00000000
10000000
00000000
00000000
01010000
00000000
00000000
10000000
00000000
00000000
,
00010000
10000000
00010000
00100000
01000000
00000000
00000000
00100000
00000000
00000000
00011000
00000000
00000000
00001000
00010000
00000010
,
00001000
00000000
00001001
00000000
00000000
00000001
00000000
00000000
00000010
00000000
00000110
00000000
00000000
00000001
00000000
00000000
,
00001000
00000100
00010000
00001000
01000000
00000000
00000000
00100000
00000000
00000000
10000000
00000000
10010000
00000000
00000000
00010000
,
00100000
00000000
00001000
00000000
00011000
00000000
00000000
01000000
00000000
00000000
00010010
00000000
00000000
00000001
00000000
00000000
,
00001000
00000001
00001000
00000001
00000010
00000000
00000000
00000100
00000000
00000000
00011000
00000000
00000000
00010000
00000100
00001000
,
00000001
00000010
00001000
00020000
00000000
00000000
00130000
10000000
,
00100000
00010000
00002000
00000000
00000000
00000000
00003000
00000000
,
00010000
01000000
00100000
00020000
00000000
00000000
10030000
00100000
,
01000000
00010000
00001000
00000010
00001000
00000200
00000000
00000000
,
00000300
00000000
00000000
00000000
;
