#VERSION:0.83;
#TITLE:Touch Me;
#SUBTITLE:;
#ARTIST:BEMANI Sound Team "GekiReco & Sota F.";
#TITLETRANSLIT:;
#SUBTITLETRANSLIT:;
#ARTISTTRANSLIT:;
#GENRE:;
#CREDIT:;
#MUSIC:Touch Me (GekiReco & Sota F.).ogg;
#BANNER:Touch Me (GekiReco & Sota F.).png;
#BACKGROUND:Touch Me (GekiReco & Sota F.)-bg.png;
#CDTITLE:;
#SAMPLESTART:37.280;
#SAMPLELENGTH:18.309;
#SELECTABLE:YES;
#OFFSET:-0.883;
#BPMS:0.000=136.000;
#STOPS:;
#BGCHANGES:;
#FGCHANGES:;

//--------------- dance-single - chronon ----------------
#NOTEDATA:;
#STEPSTYPE:dance-single;
#DESCRIPTION:chronon;
#DIFFICULTY:Beginner;
#METER:3;
#RADARVALUES:0,0,0,0,0;
#NOTES:
0000
0000
0000
0000
,
0000
0000
0000
0000
,
0000
0000
0000
0000
,
0000
0000
0000
0000
,
0000
0000
0000
0000
,
1000
0000
0100
0000
,
0010
0000
0000
0000
,
0001
0000
0100
0000
,
0010
0000
0000
0000
,
1001
0000
0000
0000
,
1000
0000
0001
0000
,
0000
0000
0000
0000
,
0001
0000
1000
0000
,
1001
0000
0000
0000
,
0001
0000
1000
0000
,
0000
0000
0000
0000
,
1000
0000
0001
0000
,
2002
0000
0000
3003
,
1000
0000
1000
0000
,
0001
0000
0001
0000
,
1000
0000
0001
0000
,
0010
0000
0001
0000
,
1000
0000
0000
0000
,
0010
0000
1000
0000
,
0001
0000
0000
0000
,
0100
0000
0001
0000
,
1000
0000
0000
0000
,
0100
0000
1000
0000
,
0001
0000
0000
0000
,
1000
0000
0001
0000
,
1000
0000
1000
0000
,
0001
0000
0020
0000
,
0000
0030
0100
0000
,
2000
0000
0000
3000
,
0001
0000
1000
0000
,
0002
0000
0003
0000
,
1000
0000
0100
0000
,
0010
0000
0100
0000
,
1000
0000
0001
0000
,
1000
0000
0100
0000
,
0010
0010
0010
0000
,
0001
0000
0100
0000
,
0010
0010
0010
0000
,
2000
0000
0000
3000
,
0001
0000
0001
0000
,
1000
0000
1000
0000
,
0001
0000
1000
0000
,
0100
0000
1000
0000
,
0001
0000
0000
0000
,
0100
0000
0001
0000
,
1000
0000
0000
0000
,
0010
0000
1000
0000
,
0001
0000
0000
0000
,
0010
0000
0001
0000
,
1000
0000
0000
0000
,
0001
0000
1000
0000
,
0001
0000
0001
0000
,
0000
1001
0000
0000
;

//--------------- dance-single - chronon ----------------
#NOTEDATA:;
#STEPSTYPE:dance-single;
#DESCRIPTION:chronon;
#DIFFICULTY:Easy;
#METER:6;
#RADARVALUES:0,0,0,0,0;
#NOTES:
0000
0000
0000
0000
,
0000
0000
0000
0000
,
0000
0000
0000
0000
,
0000
0000
0000
0000
,
0000
0000
0000
0000
,
0001
0100
1000
0000
,
0001
0010
1000
0000
,
1000
0100
0001
0000
,
1000
0010
0001
0000
,
1001
1000
0020
0130
,
0010
1000
0001
0000
,
1000
0001
0020
0130
,
0010
0001
1000
0000
,
1001
0001
0200
0310
,
0100
0001
1000
0000
,
0001
1000
0200
0310
,
0100
1000
0001
0000
,
1000
0020
0000
0130
,
0001
1000
0001
0000
,
0020
0130
0020
0031
,
1000
0001
0010
0001
,
0200
0000
0301
0000
0100
0000
0010
0200
,
0000
0310
1000
0000
0010
0000
1000
0000
,
0200
0000
0310
0000
1000
0000
0010
0200
,
0000
0310
0001
0000
0010
0000
0001
0000
,
0200
0000
0310
0000
0100
0000
0001
0200
,
0000
0310
1000
0000
0010
0000
1000
0000
,
0200
0000
0310
0000
1000
0000
0010
0200
,
0000
1300
0001
0000
1000
0000
0010
0200
,
0000
0301
0100
0000
0001
0000
1000
0000
,
0001
1000
0000
0001
0000
1000
0001
0000
,
1000
0100
0010
0002
,
0000
0000
0103
0001
,
0100
0020
0000
0000
,
1030
0010
0100
0001
,
1000
2002
0000
3003
,
0001
0020
0000
0000
,
0130
1000
0001
1000
,
0010
0200
0000
0000
,
0301
0100
0010
0100
,
0001
1000
0001
0000
,
1000
0100
0010
0100
,
1000
0001
1000
0000
,
0001
0200
0000
0310
,
1000
0001
1000
0000
,
0200
0310
0200
1300
,
0001
1000
0100
1000
,
0020
0000
1030
0000
0010
0000
0100
0020
,
0000
0130
0001
0000
0100
0000
0001
0000
,
0020
0000
0130
0000
0001
0000
0100
0020
,
0000
0130
1000
0000
0100
0000
1000
0000
,
0020
0000
0130
0000
0010
0000
1000
0020
,
0000
0130
0001
0000
0100
0000
0001
0000
,
0020
0000
0130
0000
0001
0000
0100
0020
,
0000
0031
1000
0000
0001
0000
0100
0020
,
0000
1030
0010
0000
1000
0000
0001
0000
,
1000
0001
0000
1000
0000
0001
1000
0000
,
0000
1001
0000
0000
;

//--------------- dance-single - chronon ----------------
#NOTEDATA:;
#STEPSTYPE:dance-single;
#DESCRIPTION:chronon;
#DIFFICULTY:Medium;
#METER:11;
#RADARVALUES:0,0,0,0,0;
#NOTES:
0000
0000
0000
0000
,
0000
0000
0000
0000
,
0000
0000
0000
0000
,
0000
0000
0000
0000
,
0000
0000
0000
0000
0000
0000
1000
0001
,
1000
0100
0001
0100
,
1000
0010
0001
0010
,
1000
0100
0001
0100
,
1000
0000
0000
0001
0000
0000
1000
0000
0000
0000
0001
0000
0100
0000
0000
0020
,
0000
0000
0130
0000
0001
0000
0000
0020
0000
0000
0130
0000
1000
0000
0000
0000
,
0001
0000
0000
0100
0000
0010
0000
1000
0000
0000
0000
0100
0000
0010
0000
0100
,
0000
0000
0000
0001
0000
0100
0000
1000
0000
0000
1000
0000
0010
0000
0000
0000
,
0200
0000
0000
0001
0000
0010
0000
0310
0000
0000
1000
0000
0100
0000
0000
0020
,
0000
0000
0130
0000
1000
0000
0000
0020
0000
0000
0130
0000
0001
0000
0000
0000
,
1000
0000
0000
0100
0000
0010
0000
0001
0000
0000
0000
0100
0000
0010
0000
0100
,
0000
0000
0000
1000
0000
0100
0000
0001
0000
0000
0001
0000
0010
0000
0000
0000
,
0200
0000
0000
1000
0000
0010
0000
0310
0000
0000
0001
0000
0100
0000
0000
0020
,
0000
0000
1030
0000
0002
0000
0000
0000
0000
0000
1003
0000
0100
0020
0000
0000
,
0130
0000
0010
0001
0000
0000
1000
0000
0002
0000
0000
0000
0103
0000
0010
0000
,
1001
0000
0100
0010
1001
0000
1000
0001
,
0100
0010
0000
0010
0000
0010
0100
0002
,
0010
0000
0000
1003
0000
0000
0100
0000
0010
0000
0100
0000
1000
0000
0020
0000
,
0000
0000
1030
0000
0010
0000
0000
0000
0100
0000
0010
0000
2000
0000
0000
0100
,
0000
3001
0010
0100
0001
0100
1000
0020
,
0000
0000
0130
0000
0001
1000
0000
0000
0001
0010
0000
0000
0010
0000
0002
0000
,
0100
0000
0000
1003
0000
0000
0010
0000
0100
0000
0010
0000
1000
0000
0200
0000
,
0000
0000
1300
0000
0100
0000
0000
0000
0010
0000
0100
0000
2000
0000
0000
0010
,
0000
3001
0100
0010
0001
0010
1000
0200
,
0000
0000
0310
0000
0001
1000
0000
0000
0001
0100
0000
0000
0020
0000
0100
0000
,
0000
1030
0001
1000
0001
0010
0001
0010
,
0100
0100
0000
0100
0000
0100
0100
1000
,
0001
0000
0000
0000
1000
0000
0000
0000
0010
0100
0000
0002
0000
0000
0000
0000
,
0103
0000
0010
0000
0001
0010
0100
0001
,
0000
0001
0020
0000
0130
0000
0010
0000
,
1000
0010
0100
0000
1000
0000
1100
0000
,
0110
0000
1002
0000
0103
0010
0100
0001
,
1000
0001
0010
0100
,
1000
0000
0000
0100
0000
0010
0000
0001
0000
0000
0000
1000
0000
0010
0000
0000
,
0100
0010
0000
0200
0000
0000
0000
0000
0000
0000
0310
0000
0100
0000
0000
0010
,
0000
1000
0000
0200
0000
0310
0000
0100
0000
0000
1000
0000
0001
0000
0100
0000
,
0001
0000
0000
0020
0000
0130
0000
0010
0000
0000
0001
0000
1000
0000
0000
0010
,
0000
1000
0000
0001
0000
1000
0000
0100
0000
0000
0010
0000
0100
0000
1000
0000
,
0020
0000
0000
1000
0000
0100
0000
0130
0000
0000
0001
0000
0010
0000
0000
0200
,
0000
0000
1300
0000
0002
0000
0000
0000
0000
0000
1003
0000
0010
0200
0000
0000
,
0310
0000
0100
0001
0000
1000
0001
0000
2000
0000
0000
0000
3100
0000
0010
0000
,
1001
0000
0100
0010
1001
0000
0001
1000
,
0100
0010
0000
0010
0000
0010
0100
2000
,
0010
0000
0000
3001
0000
0000
0100
0000
0010
0000
0100
0000
0001
0000
0020
0000
,
0000
0000
0031
0000
0010
0000
0000
0000
0100
0000
0010
0000
0002
0000
0000
0100
,
0000
1003
0010
0100
1000
0100
0001
0020
,
0000
0000
0130
0000
1000
0001
0000
0000
1000
0010
0000
0000
0010
0000
2000
0000
,
0100
0000
0000
3001
0000
0000
0010
0000
0100
0000
0010
0000
0001
0000
0200
0000
,
0000
0000
0301
0000
0100
0000
0000
0000
0010
0000
0100
0000
0002
0000
0000
0010
,
0000
1003
0100
0010
1000
0010
0001
0200
,
0000
0000
0310
0000
1000
0001
0000
0000
1000
0100
0000
0000
0020
0000
0100
0000
,
0000
0031
1000
0001
1000
0010
1000
0010
,
0100
0100
0000
0100
0000
0100
0100
0001
,
0000
0011
0000
0000
;

//--------------- dance-single - chronon ----------------
#NOTEDATA:;
#STEPSTYPE:dance-single;
#DESCRIPTION:chronon;
#DIFFICULTY:Hard;
#METER:15;
#RADARVALUES:0,0,0,0,0;
#NOTES:
0000
0000
0000
0000
,
0000
0000
0000
0000
,
0000
0000
0000
0000
,
0000
0000
0000
0000
,
0000
0000
0000
0000
0000
0000
0001
1000
,
0001
0100
0010
0100
0001
1000
0001
0000
,
1000
0100
0010
0100
1000
0001
1000
0000
,
0010
0100
0010
1000
0001
1000
0100
0000
,
1000
0100
0000
0010
0100
0000
0010
0001
0000
1000
0001
0000
0100
0000
0010
2000
,
0000
0000
3001
0000
0010
0000
0100
0001
0000
0100
0010
0000
0100
0000
1000
0000
,
0001
0100
0000
0010
0000
1000
0000
0100
0000
1000
0000
0100
0000
0010
0000
0001
,
0000
1000
0000
1000
0000
0010
0100
0001
0000
0010
0001
0000
0010
0200
0000
0000
,
1300
0100
0000
1100
0000
0110
0000
1001
0000
0001
0100
0000
0010
0100
0000
0002
,
0000
0000
1003
0000
0010
0000
0100
1000
0000
0100
0010
0000
0100
0000
0001
0000
,
1000
0100
0000
0010
0000
0001
0000
0100
0000
0001
0000
0100
0000
0010
0000
1000
,
0000
0001
0000
0001
0000
0010
0100
1000
0000
0010
1000
0000
0010
0200
0000
0000
,
0301
0100
0000
0101
0000
0110
0000
1001
0000
1000
0100
0000
0010
0100
0000
2000
,
0000
0000
3001
0000
0200
0000
0000
0000
0310
0000
1000
0000
0001
0010
0000
0100
,
1000
0000
0001
1000
0000
0010
0100
0000
0010
0000
1000
0000
0001
0000
0010
0100
,
1000
0000
0001
0000
1010
0000
0000
0010
1000
0000
0001
0000
1100
0000
0100
0000
,
0010
0000
0100
0000
1000
0001
1000
0000
0010
0000
0100
0000
0001
0000
0200
0000
,
1000
0000
0000
0310
0100
0000
0001
0000
1000
0000
0100
0000
0010
0000
2100
0000
,
0000
0000
3100
0000
1000
0000
0010
0000
0100
0000
0001
0000
0010
0200
0000
0001
,
0000
0310
0100
0010
1000
0001
0100
0210
,
0000
0000
0310
0000
0001
1000
0001
0000
0001
0100
0001
0000
0100
0000
0020
0000
,
0001
0000
0000
0130
0010
0000
1000
0000
0001
0000
0010
0000
0100
0000
0012
0000
,
0000
0000
0013
0000
0001
0000
0100
0000
0010
0000
1000
0000
0100
0020
0000
1000
,
0000
0130
0010
0100
0001
1000
0010
0120
,
0000
0000
0130
0000
1000
0001
1000
0000
1000
0010
1000
0000
0010
0000
0100
0000
,
1000
0100
0010
0100
0001
0100
0010
0100
,
0001
0001
1000
0001
0100
0001
0001
0010
,
0011
0000
0001
0000
0010
0000
0100
0000
0010
0001
0000
0200
0001
0000
0000
0000
,
0301
0100
0010
0100
1000
0100
0001
0020
,
0000
0130
1000
0100
0010
0001
1000
0001
,
0100
0001
0100
0010
1000
0001
1000
0100
0010
0100
0000
1000
0000
0001
0000
0100
,
0010
0000
0000
0000
2001
0000
0000
3010
0100
0001
1000
0100
0010
0100
1000
0001
,
0100
0010
0100
0000
0001
0000
1000
0000
0001
0000
0010
0000
0100
0000
1000
0100
,
0010
0100
0000
0001
0000
0100
0000
1000
0000
0001
0000
1000
0000
0010
0000
1000
,
0010
1000
0000
0200
1000
0000
0000
0000
0310
0000
0001
0000
1000
0000
0001
0100
,
0000
0010
0000
0002
0000
0013
0100
0001
0000
0010
0100
1000
0001
1000
0010
0100
,
0001
0100
0000
2000
0000
3100
0010
1000
0000
0100
0010
0001
1000
0001
0010
0200
,
0000
0001
0000
0010
0000
1300
0100
0010
0000
0100
1000
0001
1000
0010
0100
0010
,
1000
0010
0000
1010
0000
0110
0000
1001
0000
0001
0010
0000
0100
0010
0000
1001
,
0000
0000
1000
0000
0020
0000
0000
0000
0130
0000
0001
0000
1000
0100
0000
0010
,
0001
0000
1000
0001
0000
0100
0010
0000
0100
0000
0001
0000
1000
0000
0100
0010
,
0001
0000
1000
0000
0101
0000
0000
0100
0001
0000
1000
0000
0011
0000
0010
0000
,
0100
0000
0010
0000
0001
1000
0001
0000
0100
0000
0010
0000
1000
0000
0020
0000
,
0001
0000
0130
0001
0100
0000
0001
1000
0001
0000
0010
0000
0100
0000
0012
0000
,
0000
0000
0013
0000
0001
1000
0100
0000
1000
0001
0100
0000
0010
0200
0000
1000
,
0000
0000
0310
1000
0010
0000
0100
0000
1000
0000
0001
0000
0010
0000
2001
0000
,
0000
0000
3100
0000
1000
0100
0010
0000
0100
0010
0001
0000
1000
0000
0200
0000
,
0001
0000
0310
0001
0010
0000
0001
1000
0001
0000
0100
0000
0010
0000
0102
0000
,
0000
0000
0103
0000
0001
1000
0010
0000
1000
0001
0010
0000
0100
0020
0000
1000
,
0000
0000
0130
1000
0100
0000
0010
0000
1000
0000
0001
0000
0100
0000
2001
0000
,
0000
0000
3010
0000
1000
0010
0100
0000
0010
0100
0001
0000
0100
0000
0010
0000
,
0001
0010
0100
0010
1000
0010
0100
0010
,
1000
1000
0001
1000
0010
1000
1000
0100
,
0000
1010
0000
0000
;

//--------------- dance-single - old ESP ----------------
#NOTEDATA:;
#STEPSTYPE:dance-single;
#DESCRIPTION:old ESP;
#DIFFICULTY:Edit;
#METER:13;
#RADARVALUES:0,0,0,0,0;
#NOTES:
0000
0000
0000
0000
,
0000
0000
0000
0000
,
0000
0000
0000
0000
,
0000
0000
0000
0000
,
0000
0000
0000
0000
0000
0000
1000
0001
,
1000
0100
0010
0100
1000
0001
1000
0000
,
0001
0100
0010
0100
0001
1000
0001
0000
,
0010
0100
0010
0001
1000
0001
0100
0000
,
0001
0100
0000
0010
0100
0000
0010
1000
0000
0001
1000
0000
0100
0000
0010
0002
,
0000
0000
1003
0000
0010
0000
0100
1000
0000
0100
0010
0000
0100
0000
0001
0000
,
1000
0100
0000
0010
0000
0001
0000
0100
0000
0001
0000
0100
0000
0010
0000
1000
,
0000
0001
0000
0001
0000
0010
0100
1000
0000
0010
1000
0000
0010
0200
0000
0000
,
0301
0100
0000
0101
0000
0110
0000
1001
0000
1000
0100
0000
0010
0100
0000
2000
,
0000
0000
3001
0000
0100
0000
0010
0001
0000
0010
0100
0000
0010
0000
1000
0000
,
0001
0010
0000
0100
0000
1000
0000
0010
0000
1000
0000
0010
0000
0100
0000
0001
,
0000
1000
0000
1000
0000
0100
0010
0001
0000
0100
0001
0000
0100
0020
0000
0000
,
1030
0010
0000
1010
0000
0110
0000
1001
0000
0001
0010
0000
0100
0010
0000
0002
,
0000
0000
1003
0000
0020
0000
0000
0000
1030
0000
0001
0000
0010
0200
0000
0000
,
1300
0000
0100
0010
0000
0010
0001
0000
2000
0000
0000
0000
3010
0000
0100
0010
,
0100
0000
0010
0000
1001
0000
0000
0010
0100
0000
0010
0000
1001
0000
1000
0000
,
0010
0100
0001
1000
0010
1000
0100
0020
,
0001
0000
0000
0130
0000
0000
1000
0000
0001
0000
1000
0000
0010
0000
0210
0000
,
0000
0000
0310
0000
1000
0000
0001
0000
1000
0000
0100
0000
0010
0002
0000
1000
,
0000
0103
0010
0100
1000
0100
0010
1002
,
0000
0013
0001
0010
0100
1000
0010
0200
,
0001
0000
0000
0310
0000
0000
1000
0000
0001
0000
1000
0000
0100
0000
0120
0000
,
0000
0000
0130
0000
1000
0000
0001
0000
1000
0000
0010
0000
0100
0002
0000
1000
,
0000
0013
0100
0010
1000
0010
0100
1002
,
0000
0103
0001
0100
0010
1000
0002
0010
,
0000
1003
0001
1000
0010
1000
0100
0010
,
0001
0001
1000
0001
0100
0001
0001
0010
,
0001
0000
0000
0000
1000
0000
0000
0000
0010
1000
0000
0200
0000
0000
0000
0000
,
0310
0000
0100
0000
0001
0100
1000
0010
,
0000
0010
0200
0000
0310
0000
0100
0000
,
1000
0100
0010
1000
0100
0000
1100
0000
,
0110
0000
1002
0000
0103
0010
0100
0001
,
1000
0100
0010
0000
0100
0000
0000
0000
1000
0000
0001
0000
0100
0000
0001
0100
,
0010
0100
0000
0001
0000
1000
0000
0001
0000
0010
0000
0100
0000
1000
0000
0000
,
0001
1000
0000
0020
0000
0000
0000
0000
0000
0000
1030
0000
0010
0000
0100
0010
,
0000
0100
0000
2000
0000
3100
0010
0100
0000
0001
1000
0000
0001
0000
0010
0000
,
0100
0010
0000
2000
0000
3010
0100
0010
0000
0001
1000
0000
0010
0000
0100
0010
,
0000
1000
0000
0001
0000
0010
0001
1000
0000
0100
0010
0000
0100
0000
1000
0000
,
0001
0010
0000
0011
0000
0110
0000
1001
0000
1000
0010
0000
0100
0001
0000
2000
,
0000
0000
3001
0000
0020
0000
0000
0000
0031
0000
1000
0000
0010
0200
0000
0000
,
0301
0000
0100
0010
0000
0010
1000
0000
0002
0000
0000
0000
0013
0000
0100
0010
,
0100
0000
0010
0000
1001
0000
0000
0010
0100
0000
0010
0000
1001
0000
0001
0000
,
0010
0100
1000
0001
0010
0001
0100
0020
,
0001
0000
0000
0130
0010
0000
1000
0000
0001
0000
1000
0000
0100
0000
1200
0000
,
0000
0000
1300
0000
0001
0000
0010
0000
0100
0000
1000
0000
0100
0020
0000
1000
,
0000
0130
0010
0100
0001
1000
0010
2010
,
0000
3010
0100
1000
0001
1000
0010
0200
,
1000
0000
0000
0310
0100
0000
0001
0000
1000
0000
0001
0000
0010
0000
0021
0000
,
0000
0000
0031
0000
1000
0000
0010
0000
0100
0000
0001
0000
0100
0020
0000
0001
,
0000
0130
0010
0100
1000
0001
0010
0012
,
0000
0013
0100
0001
1000
0010
2000
0100
,
0000
3001
1000
0001
0100
0001
0010
0100
,
1000
1000
0001
1000
0010
1000
1000
0100
,
0000
1010
0000
0000
;
