#TITLE:The Ocean And You;
#SUBTITLE:;
#ARTIST:Motoaki Furukawa;
#TITLETRANSLIT:;
#SUBTITLETRANSLIT:;
#ARTISTTRANSLIT:;
#GENRE:;
#CREDIT:Braeden;
#MUSIC:The Ocean and You.ogg;
#BANNER:;
#BACKGROUND:;
#CDTITLE:;
#SAMPLESTART:44.115;
#SAMPLELENGTH:11.300;
#SELECTABLE:YES;
#OFFSET:-0.086;
#BPMS:0.000=128.000
,184.000=127.000
;
#STOPS:;
#BGCHANGES:;
#FGCHANGES:;

//--------------- dance-single - ----------------
#NOTES:
     dance-single:
     :
     Beginner:
     2:
     0,0,0,0,0:
0000
0000
0000
0000
,
0000
0000
0000
0000
,
0000
0000
1001
0000
,
0000
0000
0001
0000
,
1000
0000
0001
0000
,
0100
0000
0010
0000
,
1000
0000
1001
0000
,
0001
0000
0001
0000
,
0000
0000
1000
0000
,
0010
0000
0100
0000
,
0000
0000
0002
0000
,
0003
0000
0020
0000
,
0030
0000
0200
0000
,
0300
0000
0001
0000
,
1000
0000
1001
0000
,
0000
0000
0001
0000
,
0000
0000
1000
0000
,
0000
0000
0200
0000
,
0300
0000
0001
0000
,
0001
0000
2000
0000
,
3000
0000
0200
0000
,
0300
0000
0010
0000
,
0001
0000
0000
1000
,
0000
0000
2002
0000
,
3003
0000
0001
0000
,
0100
0000
0200
0000
,
0300
0000
0020
0000
,
0030
0000
1000
0000
,
0001
0000
0200
0000
,
0000
0300
0001
0000
,
0000
0000
1000
0000
,
1000
0000
0010
0000
,
0100
0000
0010
0000
,
1000
0000
0001
0000
,
0010
0000
0100
0000
,
1000
0000
0001
0000
,
0100
0000
0010
0000
,
1000
0000
0100
0000
,
0010
0000
0001
0000
,
0100
0000
0020
0000
,
0030
0000
2000
0000
,
3000
0000
0002
0000
,
0003
0000
1000
0000
,
0001
0000
0100
0000
,
0010
0000
1000
0000
,
0001
0000
1000
0000
,
0010
0000
0000
0000
;

//--------------- dance-single - ----------------
#NOTES:
     dance-single:
     :
     Easy:
     5:
     0,0,0,0,0:
0000
0000
0000
0000
,
0000
0000
0000
0000
,
0000
0000
2002
0000
,
3003
0000
1000
0001
,
0100
0010
2000
0000
,
3002
0000
0203
0000
,
0310
1000
1001
0001
,
0100
0000
0020
0000
0000
1030
0000
0001
,
0000
1000
0000
0000
1001
0000
0000
0000
,
0001
0000
0200
0000
0000
0310
0000
1000
,
0000
0001
0000
0000
0011
0000
0020
0000
,
0000
0130
0000
0000
1000
0000
0002
0000
,
0000
0103
0000
0000
0002
0000
0003
0000
,
2000
3000
0001
0100
,
0001
1000
1001
0001
,
0010
0000
0100
0000
1000
0000
0001
1000
,
0000
0001
0000
0000
1001
0000
1000
0010
,
0000
1000
0000
0000
0002
0000
0000
0103
,
0000
0010
0000
0000
1010
0000
0100
0000
,
0001
0000
1000
0000
0001
0000
0010
0200
,
0000
1300
0000
0000
1001
0000
0001
0020
,
0000
0032
0000
0000
1003
0000
0010
0000
,
2010
3100
0010
0001
,
1000
0000
0010
0000
2010
0000
0000
3100
,
0000
0010
0011
0001
,
2000
0000
3000
0000
1002
0000
0000
1003
,
0000
0000
0010
0000
0210
0000
0000
0310
,
0000
2000
0000
0000
3001
0000
0010
0000
,
0100
1000
0002
0000
,
0000
0000
0003
0000
2001
0000
0000
3020
,
0000
0130
0010
1000
,
0001
0010
0100
1000
,
0001
1000
1010
0010
,
0100
0001
0010
0100
,
0200
0300
1000
0001
,
0200
0300
0001
1000
,
0010
0100
0001
0010
,
0100
0000
0010
0001
,
1000
0010
1000
0001
,
0100
0000
0010
0000
2000
0000
3001
0200
,
0000
0301
0000
0000
0101
0000
0020
0000
,
0000
0031
2100
0001
,
0000
3010
0100
0001
,
0010
0100
2000
0000
,
3020
0000
2030
0000
,
3001
0010
0200
0000
,
2300
0000
0000
0000
,
0000
0000
3200
0000
,
0000
0000
0000
0300
;

//--------------- dance-single - ----------------
#NOTES:
     dance-single:
     :
     Medium:
     8:
     0,0,0,0,0:
0000
0000
0000
0000
,
0000
0000
0000
0000
,
0000
0000
2002
0000
,
0003
0000
3010
0000
1000
0001
1000
0010
,
1000
0001
0100
0000
0210
0000
0000
0000
,
0302
0000
2003
0000
,
3001
0010
0100
1000
0001
0000
0000
0100
,
0010
0100
0001
2000
0000
3200
0000
0320
,
0000
0032
0000
0003
1001
0000
0000
1000
,
0010
0100
0010
2000
0000
3002
0000
0203
,
0000
0310
2000
0000
3001
0010
0100
2000
,
0000
3001
0100
0000
0001
0010
0100
2000
,
0000
3001
0100
0000
0120
0000
0000
1030
,
0002
0000
1003
0000
0001
0100
0001
0010
,
0001
0100
0010
0000
1010
0000
1000
0010
,
0000
1000
0010
0000
0200
0000
0301
0020
,
0000
0031
0100
0000
0002
0000
1003
0200
,
0000
0310
0001
0000
2000
0000
3100
0020
,
0000
0031
0010
0000
0110
0000
0000
0100
,
0010
0001
0010
0100
1000
0001
1000
0020
,
0000
0230
0000
0301
2000
0000
3100
0010
,
0000
0002
0000
0000
1003
0100
1000
0001
,
0200
0000
0310
1000
0010
1000
0001
0100
,
0010
1000
0100
0000
2100
0000
0000
3002
,
0000
0103
0010
0100
0001
0010
0100
1000
,
0001
0000
0000
0100
0000
0000
0000
0000
1020
0000
0000
0000
0000
0000
0230
0000
,
0000
0301
0010
0001
0010
0100
1000
0002
,
0000
0103
0001
0000
0101
0000
0100
0010
,
0100
0001
0010
0100
2000
0000
0001
0000
,
0010
0000
3001
0000
2000
0000
0000
3020
,
0000
0000
0130
0000
0001
1000
0001
0010
,
0100
1000
0100
0000
1100
0000
1000
0000
,
0001
0000
0000
0100
0000
0000
0010
0000
1000
0000
0000
0000
0200
0000
0000
0000
,
0310
0000
0000
0010
0000
0000
0100
0000
0010
0000
0001
0000
2000
0000
0000
0000
,
3001
0000
0000
0010
0000
0000
0001
0000
1000
0000
0010
0000
1000
0000
0000
0000
,
0001
0000
0000
0010
0000
0000
0000
0000
0100
0000
1000
0000
0001
0000
0000
0000
,
0010
0001
0010
0001
0200
0000
0000
0000
,
0301
0000
0000
0100
0000
0000
0001
0000
1000
0000
0100
0000
0010
0000
0000
0000
,
0002
0000
2003
0000
3010
0100
0010
0000
,
2000
0000
0000
0000
0000
3000
0000
0000
1002
0000
0000
0000
0103
0000
0020
0000
,
0000
2030
0000
3001
2000
0000
0002
0000
,
3003
0001
0201
0010
,
0300
0000
0010
0000
0100
0001
1000
0010
,
1000
0001
0010
0100
2000
0000
3000
0000
,
2002
3003
0102
0000
,
1003
0100
0010
0001
1000
0000
0000
0000
,
0002
2003
0000
0000
,
3000
0000
2000
0000
,
0000
0000
0000
3000
;

//--------------- dance-single - XO JA ----------------
#NOTES:
     dance-single:
     XO JA:
     Hard:
     11:
     0,0,0,0,0:
0000
0000
0000
0000
,
0000
0000
0000
0000
,
0000
0000
2002
0000
,
0003
0000
3010
0000
0100
0001
0001
1000
,
0010
0010
0100
0001
2002
0000
3003
0000
,
0220
0330
0102
0000
,
1003
0100
0010
0001
2000
0000
3001
1000
,
0100
0010
1000
0010
0100
1000
0001
1000
,
0010
1000
0001
1000
1020
0000
0130
0010
,
1000
0001
0100
1000
0100
0010
1000
0002
,
0000
0000
1003
0000
0001
0100
0001
0000
1000
0000
0001
0000
0010
0000
2000
0000
,
0000
3010
0002
0000
1003
0001
0100
2000
,
0000
3100
0010
0000
2010
0000
3000
0001
,
0001
0100
0010
1000
0001
0001
0100
0010
,
0010
1000
0100
0010
0012
0000
1003
0010
,
1000
0001
0100
0000
1000
0000
0100
0010
,
0100
0001
1000
0000
1001
0000
0001
0100
,
0010
0001
0020
0000
0230
0000
0301
2000
,
0000
3100
1000
0000
1001
0000
0001
1000
,
0001
0100
0001
0100
1000
0100
0010
2000
,
0000
3002
0000
0103
0120
0000
1030
0002
,
0000
0023
0100
0000
0031
1000
1000
0010
,
2010
0000
3001
0001
1000
0010
0100
0010
,
1000
1000
0001
0000
0101
0000
0001
2000
,
0000
3001
0010
0100
0001
0100
0010
0001
,
1000
0010
0000
1000
0000
0010
1000
0000
1002
0000
0000
0000
1003
0000
0002
0000
,
0000
0103
0010
0100
1000
0100
0010
2000
,
0000
3001
1000
0000
1001
0001
0100
0010
,
0001
0010
0100
0001
2000
0000
0010
0000
,
0100
0000
3010
0000
0210
0000
0001
0302
,
0000
0000
1003
0000
0001
0001
0100
0010
,
1000
0000
0010
0000
1000
0000
0001
0000
1000
0000
0001
0100
0001
0000
0100
0000
,
0001
0000
0000
0100
0000
0000
1000
0000
0000
0100
0000
0000
0102
0000
0000
0000
0000
0000
1003
0000
0010
0000
1000
0000
,
0001
0000
0000
0100
0000
0000
0010
0000
1000
0000
0001
0000
0001
0000
1000
0000
,
0100
0000
0000
0010
0000
0000
0001
0000
1000
0000
0010
0000
0010
0000
1000
0000
,
0001
0000
0000
0010
0000
0000
0100
0000
1000
0000
0001
0000
0001
0000
0100
0010
,
0100
0010
0100
0000
0001
0000
1000
0000
0001
0000
0010
0000
0010
0000
0000
0000
,
0100
0000
0000
1000
0000
0000
0001
0000
0101
0000
0100
0000
0100
0000
0000
0000
,
0010
1000
0010
1000
0001
0100
0100
0010
,
1000
0100
0010
0001
2001
0000
3010
0200
,
0000
0301
0100
0010
2010
0000
3001
0000
,
0100
0010
1000
0000
1002
0000
0100
0000
,
0010
0000
1003
0000
0001
0100
0100
0010
,
1000
1000
0100
0010
0022
0000
0033
0000
,
2002
3003
0220
0030
,
0301
1000
0001
1000
0100
0000
0010
0000
0210
0000
0000
0000
0000
0000
0000
0000
,
0320
0032
0000
0000
,
0003
0000
2002
0000
,
0000
0000
0000
3003
;

//--------------- dance-single - XO SJ DS RH ----------------
#NOTES:
     dance-single:
     XO SJ DS RH:
     Challenge:
     15:
     0.425,0.383,0.126,0.524,0.063:
0000
0000
0000
0000
,
0000
0000
0000
0000
,
0000
0000
2002
0003
,
3100
0000
0010
0000
0001
0000
1000
0000
1001
0000
0001
0100
0001
0010
0100
1000
,
0001
0010
0001
0010
0100
1000
0100
0000
0220
0000
0000
0000
0330
0000
0000
0000
,
2002
3003
2100
0000
,
3001
0100
0010
1000
0001
0000
1000
0000
1001
0000
0000
0000
0001
0000
1000
0000
,
0001
0010
0100
0001
0100
0010
0001
2000
,
0000
3100
0010
0000
0011
0000
0001
1000
,
0001
0100
0010
0001
0010
0100
0001
2000
,
0000
0000
3100
0000
0010
0001
1000
0000
0001
0000
1000
0000
0010
0000
0002
0000
,
0000
0013
2000
0000
3001
1000
0100
0002
,
0000
0000
0000
0103
0000
0000
1000
0000
0000
0000
0000
0000
2100
0000
0000
0000
0000
0000
3010
0000
0000
0100
0001
0100
,
0001
0000
1000
0000
0100
0000
1000
0000
0001
0100
0001
0100
0010
1000
0001
0010
,
0001
0100
0010
1000
0010
0100
0001
0000
1002
0000
0000
0000
1000
0000
1000
0000
,
0000
0100
1003
0000
0002
0000
1000
0013
,
0100
1000
0001
0000
1002
0000
1000
1000
,
0000
0100
1003
0000
0002
0000
0103
2000
,
0000
3100
0001
0000
0011
0000
0010
0100
,
0001
0100
0010
0001
1001
1000
0100
0020
,
0000
0000
0031
1000
0001
0000
0010
0000
0012
0000
0000
0000
1003
0000
0020
0000
,
0000
0000
0031
0000
0010
0000
0000
0000
1010
0000
1000
0000
1000
0000
0001
0010
,
0200
0000
0000
0000
1300
0010
1000
0010
0100
0001
0010
0001
1000
0010
0100
0001
,
1000
0010
1000
0100
1000
0001
0010
0000
0011
0000
0001
0000
0100
0000
1000
0000
,
0100
0001
0010
1000
1010
0010
0100
1000
,
0001
0010
0000
0010
0000
0010
0001
0000
1001
0000
1000
0000
0100
0000
0001
0000
,
0100
0000
0010
0001
0010
0000
0100
0000
0110
0000
0010
0000
0002
0000
1000
0000
,
0000
0000
0013
0100
0010
0000
0001
0000
1001
0000
1000
0000
0001
0000
1000
0000
,
0001
0010
0000
1000
0000
0010
0100
0000
2100
0000
0000
0000
0001
0000
0000
0000
,
3010
0000
0000
0100
0001
0000
1000
0000
2001
0000
0000
0000
3001
0000
0100
0000
,
0010
0000
1000
0001
0200
0000
0000
0000
0301
1000
0001
1000
0010
0000
1000
0000
,
0001
0010
0100
0010
0001
0010
0100
1000
0001
0000
0100
0010
1000
0000
0100
0000
,
0001
0000
0000
0000
0000
0000
0100
0000
0000
0010
0000
0000
0100
0000
0000
0000
0000
0000
1000
0000
0000
0000
0000
0000
1001
0000
0000
0000
0000
0000
0001
0000
0000
0000
0000
0000
0100
0000
0000
0000
0010
0000
0000
0000
1000
0000
0000
0000
,
0001
0010
0100
1000
0001
0000
0100
0000
2001
0000
0001
0000
3001
0000
1000
0000
,
0010
0000
0000
0000
0000
0000
1000
0000
0000
0100
0000
0000
0010
0000
0000
0000
0000
0000
0001
0000
0000
0000
0000
0000
1001
0000
0000
0000
0000
0000
1000
0000
0000
0000
0000
0000
1000
0000
0000
0000
0001
0000
0000
0000
1000
0000
0000
0000
,
0001
0000
0000
0000
0100
0000
0000
0000
0002
0000
0000
0000
0000
0000
0000
0000
0000
0000
1000
0000
0003
0000
0000
0000
1010
0000
0000
0000
0000
0000
0010
0000
0000
0000
0000
0000
0010
0000
0000
0000
0000
0000
1000
0000
0000
0001
0000
0000
,
1000
0000
0000
0100
0000
0000
0010
0000
0000
0001
0000
0000
0010
0000
0000
0100
0000
0000
1000
0000
0000
0000
0000
0000
1001
0000
0000
0000
0001
0000
0000
0000
0100
0000
0000
0000
0010
0000
0000
0000
1000
0000
0000
0000
0010
0000
0000
0000
,
1000
0100
0000
0010
0001
0000
0100
0000
0110
0000
0010
0000
0010
0000
1000
0000
,
0001
0010
0100
1000
0001
0100
0001
0100
0010
1000
0001
0010
0100
0000
1000
0001
,
1000
0100
0010
0001
1000
0010
0100
0001
2000
0000
0000
0000
0001
0000
3200
0000
,
0000
0010
1300
0001
0201
0000
0010
0000
,
0301
0000
0000
1000
0000
0000
0010
0000
1000
0000
0010
0000
0210
0000
0000
0000
0000
0000
0302
0000
0000
0000
0000
0000
,
1003
0000
0010
0000
1000
0000
0001
0000
1000
0100
1000
0010
0100
0001
0010
0001
,
1000
0100
0010
0001
0010
0100
1000
0000
2002
0000
0000
0000
3003
0000
0000
0000
,
0202
0303
0210
0000
,
0310
1000
0010
1000
0001
0000
0100
0000
0120
0000
0000
0000
0000
0000
0000
0000
,
1030
0000
0000
0000
0001
0000
1000
0000
0000
0000
0000
0000
0001
0000
0000
0000
0000
0000
0100
0000
0010
0000
0000
0000
1000
0000
0000
0000
0100
0000
0000
0000
0010
0000
0000
0000
0001
0000
0000
0000
0000
0000
0000
2000
0000
0000
0000
0000
,
0000
0000
3020
0000
,
0000
0000
0000
0030
;

//--------------- dance-double - ----------------
#NOTES:
     dance-double:
     :
     Easy:
     5:
     0,0,0,0,0:
00000000
00000000
00000000
00000000
,
00000000
00000000
00000000
00000000
,
00000000
00000000
00022000
00000000
,
00033000
00000000
00001000
01000000
,
00010000
10000000
20020000
30030000
,
02200000
03300000
20020000
30030000
,
00010000
00100000
00001000
00010000
,
00000010
00000000
00002000
00000000
00000000
00003010
00000000
00001000
,
00000000
00000001
00000000
00000000
00001001
00000000
00000000
00000000
,
00000001
00000000
00000200
00000000
00000000
00000310
00000000
00010000
,
00000000
00001000
00000000
00000000
00010000
00000000
00002000
00000000
,
00000000
01003000
00000000
00000000
00010000
00000000
20000000
00000000
,
00000000
31000000
11000000
01000000
,
00100000
00001000
00010000
00000010
,
00001000
00000001
00001001
00001000
,
00000010
00000000
00001000
00000000
00000002
00000000
00000000
00001003
,
00000000
00000010
00000000
00000000
00010020
00000000
00000000
00001030
,
00000000
00001000
00000000
00000000
00000200
00000000
00000000
00010300
,
00000000
00010000
00000000
00000000
00011000
00000000
00000000
00000000
,
00001000
00000000
01000000
00000000
01100000
00000000
00000000
00200000
,
00000000
10300000
00010000
02000000
,
03000000
00100000
10010000
10000000
,
00010000
00100000
00001000
00010000
,
00000100
00000000
00001000
00000000
00001002
00000000
00000000
00001003
,
00000000
00000001
00001001
00001000
,
00000200
00000000
00000300
00000000
00010200
00000000
00000000
00010300
,
00000000
00001000
00011000
00020000
,
00000000
00031000
00101000
00100000
,
00010000
10000000
00020000
00000000
,
00030000
00000000
00000000
00000000
02000000
00000000
00000000
03001000
,
00000000
00010000
00000100
00001000
,
00000001
00001000
00001001
00000001
,
00002000
00003000
00001010
00000010
,
00002000
00003000
00000001
00001000
,
00000020
00000030
00001001
00000001
,
00002000
00003000
00000100
00010000
,
00001000
00100000
00010000
01000000
,
00200000
00300000
10010000
00010000
,
20000000
30200000
01300000
00001000
,
00010000
00000000
00001000
00000000
00012000
00000000
00000000
00013000
,
00000000
00000010
00000000
00000000
00000220
00000000
00000000
00000000
,
00000330
00000100
00000101
00000001
,
00000000
00001000
00000010
00010000
,
00001000
01000000
20020000
30030000
,
00220000
00330000
00022000
00033000
,
00001000
00010000
00000200
00000000
,
00020300
00000000
00000000
00000000
,
00000000
00000000
00000000
00000000
,
00000000
00000000
00000000
00030000
;

//--------------- dance-double - ----------------
#NOTES:
     dance-double:
     :
     Medium:
     10:
     0,0,0,0,0:
00000000
00000000
00000000
00000000
,
00000000
00000000
00000000
00000000
,
00000000
00000000
00022000
00000000
,
00033000
00000000
00000000
00000000
00001000
00010000
00001000
00100000
,
00001000
01000000
00010000
00000000
20020000
00000000
30030000
00000000
,
00220000
00330000
00022000
00033000
,
00010000
00000010
00000100
00000010
00010000
00000000
00000001
00001000
,
00000100
00000010
00000001
00000200
00000000
00002300
00000000
00003200
,
00000000
00000301
00001000
00000000
00001001
00000000
00000001
00001000
,
00000100
00010000
00001000
02000000
00000000
03200000
00000000
00320000
,
00000000
00130000
01000000
00000000
00010000
01000000
00100000
20000000
,
00000000
30020000
00000000
00030000
01000000
00001000
00010000
00002000
,
00000000
00013000
00000000
00000000
00011000
00000000
00010000
00000100
,
00001000
00000000
00000001
00000000
00001000
00000100
00000010
00000001
,
00000010
00000100
00001000
00000000
00001001
00000000
00000001
00000000
,
00000001
00000000
00001000
00000000
00000001
00000000
00000100
00001000
,
00000000
00010000
00000000
00000000
00001000
00000000
00010000
00100000
,
00000000
10000000
00000000
00000000
00020000
00000000
00000000
01030000
,
00000000
00001000
00000000
00000000
00011000
00000000
00010000
00000000
,
00001000
00010000
00001000
00010000
00000010
00001000
00000010
00002000
,
00000000
00003001
00000000
00000000
00001001
00000000
00000001
00000100
,
00000000
00001000
00010000
00000000
00001000
00100000
00010000
00100000
,
00001000
00000000
00010000
00000100
00001000
00000100
00010000
00001000
,
00000100
00000010
00001000
00000000
00001001
00000000
00000001
00000100
,
00000000
00001000
00010000
00000000
00011000
00000000
00001000
01000000
,
00100000
00000000
00000000
10000000
00000000
00000000
00010000
00000000
02000000
00000000
00000000
00000000
13000000
00000000
01000000
00000000
,
00000000
00010000
00100000
00000000
00101000
00000000
00001000
00010000
,
00000100
00000000
00001000
00000000
00000001
00001000
00000100
00000001
,
00000100
00000010
00000100
00001000
00000002
00000000
00000100
00000000
,
00001003
00000000
00000100
00000000
00020100
00000000
00000000
00030010
,
00010000
00000000
00011000
00000000
00001000
01000000
00100000
01000000
,
00001000
00010000
00001000
00000000
00001000
00100000
00010000
00000000
,
10000000
00000000
00000000
00000000
00000000
00000000
00000000
00000000
00000000
00100000
00000000
00000000
00000000
00000000
00000000
00000000
00000000
00000000
10000000
00000000
00000000
00000000
00000000
00000000
00200000
00000000
00000000
00000000
00000000
00000000
00000000
00000000
00000000
00000000
00000000
00000000
10300000
00000000
00000000
00000000
01000000
00000000
00000000
00000000
10000000
00000000
00000000
00000000
,
01000000
00000000
00000000
10000000
00000000
00000000
00010000
00000000
00200000
00000000
00000000
00000000
00301000
00000000
00000000
00000000
,
00010000
00000000
00000000
00000100
00000000
00000000
00010000
00000000
00001000
00000000
00000000
00000000
00010000
00000000
00000000
00000000
,
00000020
00000000
00000000
00001000
00000030
00000000
00000000
00000000
00000010
00000000
00001000
00000000
00001000
00000000
00000001
00000000
,
00000100
00000010
00010000
00001000
00010000
00000000
00000010
00000000
,
00001000
00000000
00000000
00001000
00000000
00000000
00000100
00000000
00010000
00000000
00001000
00000000
00001000
00000000
00000000
00000000
,
01000000
00100000
01000000
00010000
01000000
00100000
01000000
00100000
,
01000000
00000000
00010000
00000000
10020000
00000000
10030000
00100000
,
00000000
00010000
00000000
00001000
00020000
00000000
00032000
00000000
,
00003000
00010000
00012000
00013000
,
00000000
00000010
00001000
00000000
00000001
00000010
00000100
00010000
,
00001000
01000000
00010000
00000000
02002000
00000000
03003000
00000000
,
00202000
00303000
00020200
00030300
,
00000000
00010000
00000000
00000000
00000100
00000000
00001000
00000000
00000001
00000000
00000000
00000000
00000000
00000000
00000000
00000000
,
00002000
00000000
00000000
00003001
00000000
00001000
00000100
00001000
00000100
00001000
00000000
00000000
,
00000002
00000000
00002003
00000000
,
00000000
00000000
00000000
00003000
;

//--------------- dance-double - ----------------
#NOTES:
     dance-double:
     :
     Hard:
     12:
     0,0,0,0,0:
00000000
00000000
00000000
00000000
,
00000000
00000000
00000000
00000000
,
00000000
00000000
00012000
00100000
,
00000000
00000000
01003000
00000000
00010000
01000000
00100000
00010000
,
00100000
01000000
00010000
00100000
00202000
00000000
00303000
00000000
,
00020200
00030300
00002200
00003300
,
00001000
00000001
00000100
00000010
00001010
00000000
00001000
00000100
,
00000001
00000100
00000010
00000001
00001000
00000010
00000100
00000020
,
00000000
00010030
00001000
00000000
00011000
00000000
00010000
00001000
,
00000100
00001000
00010000
00002000
00000000
01003000
00100000
02000000
,
00000000
03001000
00010000
00000000
00011000
00010000
00001000
00000200
,
00000000
00001300
00020000
00000000
00030010
00000100
00001000
00000200
,
00000000
00000310
00010000
00000000
00010020
00000000
00010030
00001000
,
00001000
00000000
00100000
00000000
00010000
00000000
00100000
00000000
00010000
01000000
00010000
00000000
10000000
00100000
10000000
00000000
,
01000000
00100000
00010000
00000000
00100000
00000000
00001000
00000000
00201000
00000000
00000000
00000000
00310000
00000000
01000000
00000000
,
00100000
01000000
00010000
10000000
00020000
00000000
00130000
20000000
,
00000000
30100000
00010000
00000000
00110000
00000000
00100000
00001000
,
00000010
00001000
00010000
00000000
00000020
00000000
00001000
00002030
,
00000000
00003001
00000100
00000010
00010010
00000000
00010000
00001000
,
01000000
00100000
00010000
00100000
10100000
10000000
00010000
02000000
,
00000000
00000000
03001000
00100000
00010000
00000000
00100000
00000000
00002000
00000000
00000000
00000000
00013000
00000000
00000100
00000000
,
00000000
00000000
00000010
00000000
00000100
00000000
00000000
00000000
00001100
00000000
00001000
00000000
00001000
00000000
00000010
00001000
,
00000020
00000000
00000000
00000000
00000130
00000001
00000100
00000001
00000100
00000000
00000001
00000000
00000010
00000000
00000010
00000000
,
00001000
00000010
00000100
00001000
00001200
00000000
00010300
00002000
,
00000000
01003000
00010000
10000000
10010000
00010000
10000000
00010000
,
10000000
00100000
00000000
01000000
00000000
00010000
00100000
00000000
00120000
00000000
00000000
00000000
00130000
00000000
00002000
00000000
,
00000000
00013000
00000100
00000010
00000011
00000001
00001000
00000002
,
00000000
00000000
00000103
00000010
00000100
00000000
00000000
00000000
00000101
00000000
00000001
00000000
00000100
00000000
00001000
00000000
,
00010000
00100000
10000000
00010000
01020000
00000000
00100000
00000000
,
10030000
00000000
00000000
00010000
10000000
00000000
00010000
00000000
00200000
00000000
00000000
00000000
00000010
00000000
00300020
00000000
,
00000000
00000000
00001030
00000010
00001000
00000000
00000000
00000000
00000001
00000000
00001000
00000100
00001000
00000000
00000001
00000000
,
00001000
00000100
00000000
00000010
00000000
00000001
00001000
00000000
00000001
00000000
00010000
00001000
00010000
00000000
00001000
00000000
,
01000000
00000000
00000000
00000000
00000000
00000000
00100000
00000000
00000000
10000000
00000000
00000000
00100000
00000000
00000000
00000000
00000000
00000000
10000000
00000000
00000000
00000000
00000000
00000000
10020000
00000000
00000000
00000000
00000000
00000000
00000000
00000000
00000000
00000000
00000000
00000000
10030000
00000000
00000000
00000000
00100000
00000000
00000000
00000000
01000000
00000000
00000000
00000000
,
00010000
00000000
00100000
00000000
00010000
00000000
20000000
00000000
00000000
00000000
00000000
00000000
30020000
00000000
00000000
00100000
00000000
00000000
00100000
00000000
00000000
00000000
00000000
00000000
,
00130000
00000000
00000000
00001000
00000000
00000000
00010000
00000000
00000100
00000000
00001000
00000000
00001000
00000000
00000001
00001000
,
00000100
00000000
00000000
00001000
00000010
00000000
00000100
00000000
00000101
00000000
00000001
00000000
00000001
00000000
00001000
00000100
,
00001000
00000000
00000000
00000100
00000000
00000000
00000010
00000000
00000000
00000100
00000000
00000000
00001000
00000000
00000100
00000000
00001000
00000000
00000100
00000000
00010000
00000000
00001000
00000000
,
00010000
00000000
00000000
00000100
00000000
00000000
00010000
00000000
00011000
00000000
00001000
00000000
00001000
00000000
01000000
00000000
,
00100000
10000000
00100000
10000000
00010000
01000000
00010000
01000000
00100000
00000000
10000000
00000000
00010000
00000000
01000000
00000000
,
00100000
01000000
00000000
00020000
00000000
00000000
00130000
00000000
00102000
00000000
00000000
00000000
00010000
00000000
00010000
00000000
,
00000000
00013000
00000100
00001000
00002010
00000000
00003200
00000000
,
00000300
00000010
00000001
00000000
00002001
00000000
00003020
00000000
,
00000000
00000000
00001030
00000000
00000010
00000000
00001000
00000000
00000100
00001000
00000100
00000000
00001000
00000000
00001000
00000000
,
00000100
00000000
00010000
00000010
00010000
00000000
00001000
00000000
00022000
00000000
00000000
00000000
00033000
00000000
00000000
00000000
,
00220000
00330000
02200000
03300000
,
00100000
00010000
00100000
01000000
10000000
00000000
00001000
00000000
00021000
00000000
00000000
00000000
00000000
00000000
00000000
00000000
,
00030020
00000000
00000000
00001030
00000000
00000001
00001000
00000100
00010000
00002000
00000000
00000000
,
00000000
20003000
00000000
00000000
,
00000000
00000000
00000000
30000000
;
