#TITLE:Tokyo Calling;
#SUBTITLE:;
#ARTIST:ATARASHII GAKKO!;
#TITLETRANSLIT:;
#SUBTITLETRANSLIT:;
#ARTISTTRANSLIT:;
#GENRE:;
#CREDIT:;
#BANNER:Tokyo Calling.png;
#BACKGROUND:Tokyo Calling-bg.png;
#LYRICSPATH:Tokyo Calling.lrc;
#CDTITLE:;
#MUSIC:Tokyo Calling.ogg;
#OFFSET:0.063000;
#SAMPLESTART:54.780075;
#SAMPLELENGTH:16.000000;
#SELECTABLE:YES;
#BPMS:0.000000=158.000000
,112.000000=155.500000
,144.000000=158.000000
;
#STOPS:
;
#BGCHANGES:0.250=Tokyo Calling.mp4=1.000=0=0=1=====,
99999=-nosongbg-=1.000=0=0=0 // don't automatically add -songbackground-
;
#KEYSOUNDS:;
#ATTACKS:;

//---------------dance-single - ----------------
#NOTES:
     dance-single:
     :
     Challenge:
     12:
     0.484288,0.553767,0.199413,0.507596,0.000000,374.000000,352.000000,22.000000,56.000000,128.000000,0.000000,0.484288,0.553767,0.199413,0.507596,0.000000,374.000000,352.000000,22.000000,56.000000,128.000000,0.000000:
0000
0000
0000
0000
,
0000
0000
0000
0000
,
0000
0000
0000
0000
,
0000
0000
0000
0000
,
1002
0000
1003
0100
0001
0020
0000
1030
,
0200
0000
0320
0000
0031
2000
0000
3010
,
0100
0001
1000
0000
0001
1000
0100
0000
,
1000
0100
0010
0001
0100
MMMM
0000
0000
,
2001
0000
3001
0010
1000
0200
0000
0301
,
0020
0000
0230
0000
1300
0002
0000
0103
,
0010
1000
0001
0000
1000
0001
0010
0000
,
0001
0010
0100
1000
0010
MMMM
0000
0000
,
1002
0000
1303
0100
0001
0010
1000
0000
,
2010
0000
3001
0100
1000
0010
0001
0000
,
0012
0000
1003
0100
0001
0010
1000
0000
,
0001
MMMM
1300
MMMM
,
2010
0000
3001
0010
1000
0100
0001
0000
,
0102
0000
1003
0010
0001
0100
1000
0000
,
2100
0000
3001
0010
1000
0100
0001
0000
,
1000
MMMM
0031
MMMM
,
1000
0100
0001
0100
1000
0100
0001
0100
,
1000
0100
0001
0100
1000
0010
MMMM
0000
,
0301
0010
1000
0010
0001
0010
1000
0010
,
0001
0010
1000
0010
0001
0100
MMMM
0000
,
1030
0001
0100
0001
0010
0001
0100
0001
,
1000
0001
0100
0001
0010
0100
MMMM
0000
,
3001
1000
0100
1000
0010
1000
0100
1000
,
0001
1000
0100
1000
0010
0100
MMMM
0000
,
2002
0000
0000
3000
,
0020
0003
2030
3200
,
0002
0000
0000
0300
,
0200
0003
2300
3020
,
0002
0000
0000
0033
,
2002
0003
0100
0010
,
0002
0000
0000
3003
,
2002
3000
0010
0103
,
2001
0000
3001
0010
1000
0200
0000
0301
,
1000
0000
MMMM
0000
MMMM
0000
MMMM
0300
,
0001
0100
0001
0100
1000
0100
1000
0100
,
0010
1000
0100
0010
0001
1000
0010
0000
,
1002
0000
1003
0100
0001
0020
0000
1030
,
0001
0010
1000
0010
0001
0200
0000
3301
,
1000
0010
1000
0010
0001
0010
0001
0010
,
0100
0001
0010
0100
1000
0001
1000
0000
,
MMMM
0000
1300
0010
0001
0200
0000
1300
,
0001
1000
0001
1000
0100
0200
0000
0310
,
0001
0100
0001
0100
1000
0100
1000
0100
,
0001
0010
0100
1000
0010
0010
0100
0000
,
MMMM
0000
0331
0010
1000
0200
0000
0331
,
1000
0001
1000
0001
0100
0200
0000
0310
,
1000
0100
1000
0100
0001
0100
0001
0100
,
1000
MMMM
MMMM
MMMM
,
0002
0000
0000
0103
0000
0000
MMMM
0000
,
1000
0100
0000
0010
0001
0000
MMMM
0000
,
2000
0000
0000
3010
0100
0000
MMMM
0000
,
1001
0000
0001
0010
0100
1000
MMMM
0000
,
1002
0000
1003
0100
0001
0010
1000
0000
,
2001
0000
3001
0100
1000
0010
0001
0000
,
1002
0000
1003
0100
0001
0010
1000
0000
,
0001
MMMM
1000
MMMM
,
2001
0000
3001
0010
1000
0100
0001
0000
,
1002
0000
1003
0010
0001
0100
1000
0000
,
2001
0000
3001
0010
1000
0100
0001
0000
,
1000
MMMM
0001
MMMM
,
2010
0000
3001
0100
1000
0020
0000
0031
,
2000
0000
0001
0000
0100
0200
0000
3300
,
1000
0001
0100
MMMM
1000
0001
0100
MMMM
,
1000
0001
0100
MMMM
1000
0001
0000
0000
,
0102
0000
1003
0010
0001
0200
0000
1300
,
0002
0000
1000
0000
0010
0020
0000
0033
,
0001
1000
0010
MMMM
0001
1000
0010
MMMM
,
0001
1000
0010
MMMM
0001
1000
0001
1000
;

//---------------dance-single - ----------------
#NOTES:
     dance-single:
     :
     Hard:
     13:
     0.653918,0.717262,0.353504,0.407889,0.262862,505.000000,466.000000,39.000000,45.000000,0.000000,0.000000,0.653918,0.717262,0.353504,0.407889,0.262862,505.000000,466.000000,39.000000,45.000000,0.000000,0.000000:
0000
0000
0000
0000
,
0000
0000
0000
0000
,
0000
0000
0000
0000
,
0000
0000
0000
0000
,
2001
0000
3001
0100
1000
0200
0000
0310
,
1000
0000
0001
0000
1000
0200
0000
0310
,
0001
0100
0002
0000
1003
0100
2000
0000
,
3001
0010
0100
1000
0010
0010
0000
0000
,
1002
0000
1003
0010
0001
0020
0000
0130
,
0001
0000
1000
0000
0001
0020
0000
0130
,
1000
0010
2000
0000
3001
0010
0002
0000
,
1003
0100
0010
0001
0100
0100
0000
0000
,
0101
0000
0000
1000
0100
0000
1000
0000
0010
0000
0100
0000
0001
0000
0000
0000
,
1100
0000
0000
0001
0010
0000
0001
0000
0100
0000
0010
0000
1000
0000
0000
0000
,
1001
0000
0000
0001
0100
0000
1000
0000
0100
0000
0010
0000
1000
0000
0000
0000
,
0001
0000
0010
0100
0010
0000
0001
0000
1000
0000
0010
0000
0100
0000
0000
0000
,
0101
0000
0000
0001
0010
0000
1000
0000
0010
0000
0001
0000
1000
0000
0000
0000
,
1010
0000
0000
1000
0010
0000
0001
0000
0010
0000
1000
0000
0001
0000
0000
0000
,
1001
0000
0000
0001
0010
0000
1000
0000
0010
0000
0100
0000
1000
0000
0000
0000
,
0001
0000
0100
0010
0100
0000
0001
0000
1000
0000
0100
0000
0010
0000
0000
0000
,
0011
0000
1000
0100
1000
0000
0001
0100
0001
0000
1000
0000
0001
0000
0100
0000
,
0010
0000
1000
0000
0100
0000
0010
0000
0001
0100
0010
0000
1000
0000
0000
0000
,
1100
0000
0001
0010
0001
0000
1000
0010
1000
0000
0001
0000
1000
0000
0010
0000
,
0100
0000
0001
0000
0010
0000
0100
0000
1000
0010
0100
0000
0001
0000
0000
0000
,
0101
0000
1000
0100
0010
0000
0001
0100
0010
0000
1000
0000
0001
0000
1000
0100
,
1000
0000
0001
0000
0100
0000
0010
0000
1000
0100
0010
0000
0001
0000
0000
0000
,
1010
0000
0001
0010
0100
0000
1000
0010
0100
0000
0001
0000
1000
0000
0001
0010
,
0001
0000
1000
0000
0010
0000
0100
0000
0001
0010
0100
0000
1000
0000
0000
0000
,
2002
0000
0000
3003
,
0202
0000
0300
0300
0010
0000
1003
0000
,
2002
0000
0000
3003
,
2200
0300
0010
3001
,
0202
0000
0000
0303
,
2020
0030
0001
3100
,
2200
0000
0000
3300
,
0022
0030
1000
0103
,
1001
0000
0001
0010
0100
2000
0000
3010
,
0100
0000
0010
0000
0001
0000
0010
0000
1000
0000
0000
0001
0000
0000
0010
0000
,
0011
0000
0001
0000
0100
0000
0010
0000
1000
0100
0010
0000
0001
0000
1000
0000
,
0010
0000
0100
0010
0100
0000
0001
0000
0010
0000
0010
0000
0100
0000
1000
0000
,
1100
0000
0000
0000
0001
0100
0010
0000
1000
0000
1020
0000
0000
0000
0130
0000
,
1000
0100
0010
0100
0001
0102
0000
1003
,
0100
0000
0010
0000
0001
0000
0100
0000
0010
1000
0001
0000
0010
0000
0100
0000
,
1000
0000
0010
0100
0010
0000
1000
0000
0100
0000
0100
0000
0010
0000
0001
0000
,
0011
0000
0000
0000
1000
0010
0100
0000
0001
0000
2001
0000
0000
0000
3100
0000
,
0001
0100
1000
0010
0100
0120
0000
0031
,
0010
0000
1000
0000
0100
0000
0010
0000
0001
1000
0001
0000
0100
0000
0010
0000
,
1000
0000
0001
0010
0100
0000
1000
0000
0020
0000
0230
0000
0301
0000
1000
0000
,
1100
0000
0000
0000
0001
0100
0010
0000
1000
0000
1002
0000
0000
0000
0013
0000
,
1000
0010
0001
0100
0010
0210
0000
1300
,
0100
0000
0001
0000
0010
0000
0100
0000
1000
0001
1000
0000
0010
0000
0100
0000
,
0001
0000
0000
0000
,
2100
0000
0000
0000
3001
0000
0100
0000
0000
0000
0100
0000
0001
1000
0001
1000
,
0100
0000
0100
0000
0000
0000
1000
0000
1000
0000
0000
0000
0001
0100
0001
0100
,
0010
0000
0000
0000
1000
0000
0001
0000
0001
0000
0000
0000
1000
0100
1000
0100
,
0010
0000
0001
0100
0001
0000
1000
0010
1000
0000
0001
0000
0100
0000
0000
0000
,
1001
0000
0000
1000
0100
0000
0010
0000
0001
0000
0001
0000
0100
0000
0010
0030
,
1010
0000
0000
0001
0010
0000
0100
0000
1000
0000
1000
0000
0010
0000
0100
0000
,
0101
0000
0000
1000
0001
0000
1000
0000
0100
0000
0100
0300
0010
0000
0001
0000
,
0200
0310
1310
0101
,
1001
0000
0000
0001
0100
0000
1000
0000
0100
0010
0100
0000
0010
0000
1000
0000
,
0001
0000
0000
1000
0100
0000
0001
0000
0100
0010
0100
0000
0010
0000
0001
0000
,
1000
0000
0000
0001
0100
0000
1000
0000
0100
0010
0100
0000
0010
0000
1000
0000
,
0001
0010
1000
0010
0001
0100
0010
1000
,
2010
0000
0001
0000
3100
0200
0000
0310
,
0002
0000
0100
0000
1000
2003
0000
3010
,
0100
0001
0100
1000
0100
0010
0100
0001
,
0010
0000
0100
0010
0100
0000
1000
0001
1000
0000
0010
0000
0100
0000
0000
0000
,
0002
0000
1000
0000
0013
0020
0000
0130
,
2000
0000
0010
0000
0001
3002
0000
0103
,
0010
1000
0010
0001
0010
0100
0010
1000
,
0001
0000
1000
0100
1000
0000
0001
0100
0001
0000
0010
0000
0100
0010
0100
0010
;

//---------------dance-single - ----------------
#NOTES:
     dance-single:
     :
     Medium:
     10:
     0.409184,0.456836,0.163156,0.444146,0.000000,316.000000,298.000000,18.000000,49.000000,0.000000,0.000000,0.409184,0.456836,0.163156,0.444146,0.000000,316.000000,298.000000,18.000000,49.000000,0.000000,0.000000:
0000
0000
0000
0000
,
0000
0000
0000
0000
,
0000
0000
0000
0000
,
0000
0000
0000
0000
,
2000
0000
3010
0000
0100
0002
0000
0000
,
1003
0100
0020
0030
,
0001
0100
0001
0000
1000
0100
1000
0000
,
0002
0000
0023
0000
0130
2000
0300
0000
,
3002
0000
0103
0000
0010
2000
0000
0000
,
3001
0010
0200
0300
,
1000
0010
1000
0000
0001
0010
0001
0000
,
2000
0000
3200
0000
0310
0002
0030
0000
,
1003
0000
1100
0000
0100
0010
0001
0000
,
0100
0000
0101
0000
0100
0010
1000
0000
,
0100
0000
1100
0000
0100
0010
0001
0000
,
2000
0010
0002
3003
,
0001
0000
0011
0000
0010
0100
1000
0000
,
0010
0000
1010
0000
0010
0100
0001
0000
,
0010
0000
0011
0000
0010
0100
1000
0000
,
0002
0100
2000
3003
,
1000
0100
1000
0000
0001
0100
0001
0000
,
1000
0100
0010
0000
0002
0000
1003
0000
,
0001
0010
0001
0000
1000
0010
1000
0000
,
0001
0010
0100
0000
2000
0000
3001
0000
,
1000
0100
1000
0000
0100
0010
0100
0000
,
0010
0001
0010
0000
0001
0001
1003
0000
,
0001
0100
0001
0000
0100
0010
0100
0000
,
0010
1000
0010
0000
1000
1000
3001
0000
,
0202
0000
0000
0303
,
2000
0000
0100
0100
,
0200
0000
0000
3300
,
0002
0000
0100
0100
,
0200
0000
0000
0303
,
2000
0000
0010
0001
,
0020
0000
0000
3030
,
0002
0000
0010
1000
,
0013
0000
0001
1000
0001
1000
0000
0000
,
0220
0000
0000
0330
,
1001
0000
1000
0000
0001
0010
0100
0000
,
1000
0100
1000
0000
0001
0001
0100
0000
,
0010
0000
1000
0001
1000
0001
0000
0000
,
1000
0000
0100
0000
1000
0010
1000
0000
,
0001
0100
0001
0000
1000
0100
1000
0000
,
0100
0010
0001
0000
1000
1000
0010
0000
,
1001
0000
0001
1000
0001
1000
0000
0000
,
0002
0000
0023
0000
0130
2000
0000
0000
,
3001
0100
0001
0000
1000
0010
1000
0000
,
0001
0010
0100
0000
1000
0001
0100
0000
,
1013
0000
1000
0001
1000
0001
0000
0000
,
2000
0000
3200
0000
0310
0002
0000
0000
,
1003
0010
1000
0000
0001
0100
0010
1000
,
0001
0000
0000
0000
,
0002
0000
0000
0023
0000
0000
0100
0000
,
0230
0000
0000
2300
0000
0000
0010
0000
,
3020
0000
0000
0230
0000
0000
0302
0000
,
1003
0100
1000
0000
0001
0100
0001
0000
,
1001
0000
1000
0100
0010
0001
0000
0000
,
1001
0000
1000
0100
0010
0001
0000
0000
,
1001
0000
1000
0100
0010
0001
0000
0000
,
2000
3020
0230
0301
,
1001
0000
0001
0010
0100
1000
0000
0000
,
1001
0000
0001
0010
0100
1000
0000
0000
,
1001
0000
0001
0010
0100
1000
0000
0000
,
0002
0203
0320
1030
,
1001
0000
0001
0100
0001
0100
0000
0000
,
0001
0000
0100
0000
0010
0010
0000
0000
,
1000
1000
0100
0010
,
0001
0000
1000
0000
0001
0200
0000
0000
,
0310
0000
1000
0010
1000
0010
0000
0000
,
1000
0000
0010
0000
0100
0100
0000
0000
,
0001
0001
0010
0100
,
1000
0000
0001
0000
1000
0100
0010
0001
,
0030
0000
0000
0000
;

//---------------dance-single - ----------------
#NOTES:
     dance-single:
     :
     Easy:
     7:
     0.290055,0.325179,0.108771,0.181284,0.000000,224.000000,212.000000,12.000000,20.000000,0.000000,0.000000,0.290055,0.325179,0.108771,0.181284,0.000000,224.000000,212.000000,12.000000,20.000000,0.000000,0.000000:
0000
0000
0000
0000
,
0000
0000
0000
0000
,
0000
0000
0000
0000
,
0000
0000
0000
0000
,
0001
0100
0010
0000
,
1000
0100
0010
0000
,
0001
0001
1000
1000
,
0010
0100
0001
0000
,
1000
0100
0010
0000
,
0001
0100
0010
0000
,
1000
1000
0001
0001
,
0010
0100
1000
0000
,
0001
0000
0100
0000
0010
0010
0000
0000
,
1000
0000
0100
0000
0010
0010
0000
0000
,
0001
0000
0100
0000
0010
0010
0000
0000
,
1000
0000
0001
0000
,
1000
0000
0001
0000
0100
0100
0000
0000
,
0001
0000
1000
0000
0100
0100
0000
0000
,
1000
0000
0001
0000
0100
0100
0000
0000
,
0001
0000
1000
0000
,
0001
0100
0010
0100
,
1000
0100
0001
0001
,
1000
0100
0010
0100
,
0001
0100
1000
1000
,
0001
0010
0100
0010
,
1000
0010
0001
0001
,
1000
0010
0100
0010
,
0001
0010
1000
1000
,
2002
0000
3003
0000
,
0002
0003
0020
0030
,
2002
0000
3003
0000
,
2000
3000
0020
0030
,
2002
0000
3003
0000
,
0002
0003
0200
0300
,
0220
0000
0330
0000
,
2000
3000
0200
0300
,
0220
0000
0000
0330
,
2002
0000
0000
3003
,
0001
0100
0010
1000
,
0100
0010
0001
0000
,
1000
0000
0010
0000
0010
0010
0000
0000
,
1000
0001
0010
0000
,
0010
0001
1000
0010
,
0100
0001
1000
0000
,
0001
0000
0100
0000
0100
0100
0000
0000
,
0001
1000
0100
0000
,
0100
1000
0010
0100
,
0001
1000
0001
0000
,
1000
0000
0010
0000
0010
0010
0000
0000
,
1000
0001
0010
0000
,
0010
0001
0100
0010
,
1000
0000
0000
0000
,
0001
0000
0000
0001
0000
0000
0000
0000
,
0010
0000
0000
0010
0000
0000
0000
0000
,
0100
0000
0000
0100
0000
0000
0000
0000
,
1000
1000
0001
0001
,
1001
1000
0010
0000
,
1001
0001
0010
0000
,
1001
1000
0010
0000
,
1000
0100
0010
0000
,
1001
0001
0100
0000
,
1001
1000
0100
0000
,
1001
0001
0100
0000
,
0001
0100
0010
0000
,
1000
0000
0100
0000
0010
0010
0000
0000
,
0001
0000
0100
0000
0010
0010
0000
0000
,
1000
1000
0001
0001
,
1000
0001
0100
0000
,
0001
0000
1000
0000
0100
0100
0000
0000
,
1000
0000
0001
0000
0100
0100
0000
0000
,
0001
0001
1000
1000
,
0100
0010
0001
1000
;

//---------------dance-single - ----------------
#NOTES:
     dance-single:
     :
     Beginner:
     3:
     0.121719,0.162023,0.009064,0.000000,0.000000,94.000000,93.000000,1.000000,0.000000,0.000000,0.000000,0.121719,0.162023,0.009064,0.000000,0.000000,94.000000,93.000000,1.000000,0.000000,0.000000,0.000000:
0000
0000
0000
0000
,
0000
0000
0000
0000
,
0000
0000
0000
0000
,
0000
0000
0000
0000
,
1000
0000
0000
0000
,
0000
0000
0000
0000
,
0001
0000
0000
0000
,
0000
0000
0000
0000
,
0100
0000
0000
0000
,
0000
0000
0000
0000
,
0010
0000
0000
0000
,
0000
0000
0000
0000
,
1000
0000
1000
0000
,
1000
0000
0000
0000
,
0001
0000
0001
0000
,
0001
0000
0000
0000
,
0010
0000
0010
0000
,
0010
0000
0000
0000
,
0100
0000
0100
0000
,
0100
0000
0000
0000
,
1000
1000
1000
0000
,
1000
0000
0000
0000
,
0001
0001
0001
0000
,
0001
0000
0000
0000
,
0100
0100
0100
0000
,
0100
0000
0000
0000
,
0001
0001
0001
0000
,
0001
0000
0000
0000
,
1000
0000
0000
0000
,
1000
0000
0000
0000
,
0100
0000
0000
0000
,
0100
0000
0000
0000
,
0010
0000
0000
0000
,
0010
0000
0000
0000
,
0001
0000
0000
0000
,
0001
0000
0000
0000
,
1000
0000
0000
0000
,
0001
0000
0000
0000
,
0100
0000
0100
0000
,
0100
0000
0000
0000
,
0010
0010
0010
0000
,
0010
0000
0000
0000
,
1000
0000
1000
0000
,
1000
0000
0000
0000
,
0001
0001
0001
0000
,
0001
0000
0000
0000
,
0010
0000
0010
0000
,
0010
0000
0000
0000
,
0100
0100
0100
0000
,
0100
0000
0000
0000
,
1000
0000
1000
0000
,
1000
0000
0000
0000
,
0001
0000
0000
0000
,
0100
0000
0000
0000
,
0010
0000
0000
0000
,
1000
0000
0000
0000
,
0000
0001
0001
0000
,
0000
1000
1000
0000
,
0000
0001
0001
0000
,
0000
0000
0000
0000
,
0000
1000
1000
0000
,
0000
0001
0001
0000
,
0000
1000
1000
0000
,
0000
0000
0000
0000
,
1001
0000
0000
0000
,
0001
0000
0000
0000
,
0100
0000
0100
0000
,
0100
0000
0000
0000
,
0010
0000
0000
0000
,
0010
0000
0000
0000
,
1000
0000
1000
0000
,
1000
0000
1000
0000
;

//---------------dance-double - ----------------
#NOTES:
     dance-double:
     :
     Challenge:
     12:
     0.479108,0.521192,0.226605,0.471339,0.000000,370.000000,345.000000,25.000000,52.000000,280.000000,0.000000,0.479108,0.521192,0.226605,0.471339,0.000000,370.000000,345.000000,25.000000,52.000000,280.000000,0.000000:
// measure 0
00000000
00000000
00000000
00000000
,  // measure 1
00000000
00000000
00000000
00000000
,  // measure 2
00000000
00000000
00000000
00000000
,  // measure 3
00000000
00000000
00000000
00000000
,  // measure 4
10020000
00000000
10030000
00100000
00010000
02000000
00000000
03100000
,  // measure 5
00002000
00000000
00023000
00000000
00030010
00000200
00000000
00000301
,  // measure 6
00001000
00000100
00020000
00000000
00031000
00000100
00000020
00000000
,  // measure 7
00001030
00000100
00000010
00000001
00000100
MMMMMMMM
00000000
00000000
,  // measure 8
00002001
00000000
00003001
00000100
00001000
00000020
00000000
00000130
,  // measure 9
00020000
00000000
00032000
00000000
01003000
00200000
00000000
10300000
,  // measure 10
00010000
00100000
00002000
00000000
00013000
00100000
02000000
00000000
,  // measure 11
03010000
00100000
01000000
10000000
00100000
MMMMMMMM
00000000
00000000
,  // measure 12
20010000
00000000
30010000
01000000
10000000
00100000
00010000
00000000
,  // measure 13
00120000
00000000
10030000
01000000
00010000
00100000
10000000
00000000
,  // measure 14
20100000
00000000
30010000
01000000
10000000
00100000
00010000
00000000
,  // measure 15
00101000
0000MMMM
00010010
MMMM0000
,  // measure 16
00001002
00000000
00001003
00000010
00000001
00000100
00001000
00000000
,  // measure 17
00002100
00000000
00003001
00000010
00001000
00000100
00000001
00000000
,  // measure 18
00000102
00000000
00001003
00000010
00000001
00000100
00001000
00000000
,  // measure 19
00010100
MMMM0000
01001000
0000MMMM
,  // measure 20
00001000
00010000
01000000
00010000
00001000
00010000
01000000
00010000
,  // measure 21
00001000
00000100
00000010
00010000
00001000
00000000
MMMMMMMM
00000000
,  // measure 22
00010000
00001000
00000010
00001000
00010000
00001000
00000010
00001000
,  // measure 23
00010000
00100000
01000000
00001000
00010000
00000000
MMMMMMMM
00000000
,  // measure 24
00001000
00100000
10000000
00100000
00001000
00100000
10000000
00100000
,  // measure 25
00001000
00100000
10000000
00100000
00001000
00000000
MMMMMMMM
00000000
,  // measure 26
00013000
00000010
00000001
00000010
00010000
00000010
00000001
00000010
,  // measure 27
00010000
00000010
00000001
00000010
00010000
00000000
MMMMMMMM
00000000
,  // measure 28
00022000
00000000
00000000
00030000
,  // measure 29
00000020
00000030
00000001
00000100
,  // measure 30
00020000
00000000
00000000
00003000
,  // measure 31
00200000
03300000
10000000
01000000
,  // measure 32
00002000
00000000
00000000
00030000
,  // measure 33
20000000
30000000
01000000
00000100
,  // measure 34
00023000
00000000
00000000
00000000
,  // measure 35
00000002
00000003
00000100
01000000
,  // measure 36
00031000
00000000
00001000
01000000
10000000
00200000
00000000
00310000
,  // measure 37
10000000
MMMMMMMM
MMMMMMMM
MMMMMMMM
,  // measure 38
10000000
01000000
10000000
01000000
00010000
01000000
00010000
00001000
,  // measure 39
00000010
00000001
00000100
00000010
00001000
00001000
00000001
00000000
,  // measure 40
MMMMMMMM
00000000
00000001
00000100
00001000
00000020
00000000
00000031
,  // measure 41
00001000
00000100
00001000
00000001
00000100
00000020
00000000
00001330
,  // measure 42
00000001
00000010
00000001
00000010
00001000
00000010
00001000
00010000
,  // measure 43
01000000
10000000
00100000
01000000
00010000
00010000
10000000
00000000
,  // measure 44
MMMMMMMM
00000000
10000000
00100000
00010000
02000000
00000000
13000000
,  // measure 45
00010000
00100000
00010000
10000000
00100000
00200000
00000000
00310000
,  // measure 46
00001000
00000100
00010000
00000100
00001000
00010000
01000000
00010000
,  // measure 47
00001000
00000010
00000001
00000100
00000010
00000010
00001000
00000000
,  // measure 48
MMMMMMMM
00000000
00000001
00000100
00001000
00000020
00000000
00000031
,  // measure 49
00001000
00000100
00001000
00000001
00000100
00000200
00000000
00001300
,  // measure 50
00010000
00100000
00001000
00100000
00010000
00001000
00100000
01000000
,  // measure 51
10000000
MMMMMMMM
MMMMMMMM
MMMMMMMM
,  // measure 52
00021000
00000000
00000000
00030010
00000000
00000000
MMMMMMMM
00000000
,  // measure 53
00012000
00010000
00000000
00100000
00103000
00000000
MMMMMMMM
00000000
,  // measure 54
00021000
00000000
00000001
00000001
00031000
00000000
MMMMMMMM
00000000
,  // measure 55
00012000
00000000
10000000
10000000
00013000
00000000
MMMMMMMM
00000000
,  // measure 56
10020000
00000000
10030000
01000000
00010000
00001000
00000010
00000000
,  // measure 57
MMMMMMMM
00000000
00000001
00000100
00001000
00010000
00100000
00000000
,  // measure 58
MMMMMMMM
00000000
10000000
01000000
00010000
00001000
00000010
00000000
,  // measure 59
MMMMMMMM
00001001
MMMMMMMM
00000110
,  // measure 60
00002001
00000000
00003001
00000010
00001000
00010000
01000000
00000000
,  // measure 61
MMMMMMMM
00000000
10000000
00100000
00010000
00001000
00000100
00000000
,  // measure 62
MMMMMMMM
00000000
00000001
00000010
00001000
00010000
01000000
00000000
,  // measure 63
MMMMMMMM
10010000
MMMMMMMM
01100000
,  // measure 64
00021000
00000000
00031000
01000000
10000000
00200000
00000000
00301000
,  // measure 65
00020000
00000000
00032000
00000000
01003000
02000000
00000000
03100000
,  // measure 66
00010000
00001000
00100000
MMMMMMMM
00010000
00001000
00100000
MMMMMMMM
,  // measure 67
00010000
00001000
00100000
MMMMMMMM
00010000
00001000
00000000
00000000
,  // measure 68
00012000
00000000
00013000
00000010
00000001
00000200
00000000
00010300
,  // measure 69
00002000
00000000
00023000
00000000
00030010
00000020
00000000
00000130
,  // measure 70
00001000
00010000
00000100
MMMMMMMM
00001000
00010000
00000100
MMMMMMMM
,  // measure 71
00001000
00010000
00000100
MMMMMMMM
00001000
00010000
00001000
00010000
;

//---------------dance-double - ----------------
#NOTES:
     dance-double:
     :
     Hard:
     13:
     0.653918,0.749865,0.344440,0.462275,0.235669,505.000000,467.000000,38.000000,51.000000,0.000000,0.000000,0.653918,0.749865,0.344440,0.462275,0.235669,505.000000,467.000000,38.000000,51.000000,0.000000,0.000000:
00000000
00000000
00000000
00000000
,
00000000
00000000
00000000
00000000
,
00000000
00000000
00000000
00000000
,
00000000
00000000
00000000
00000000
,
00021000
00000000
00031000
00000100
00000010
00002000
00000000
00003001
,
00000010
00000100
00000020
00000000
00001030
00020000
00000000
00031000
,
01000000
00100000
02000000
00000000
03010000
00100000
00002000
00000000
,
00013000
00000010
00000100
00000010
00010000
00010000
00000000
00000000
,
00012000
00000000
00013000
00100000
01000000
00020000
00000000
10030000
,
01000000
00100000
02000000
00000000
03010000
00002000
00000000
00013000
,
00000010
00000100
00000020
00000000
00001030
00000100
00020000
00000000
,
00031000
01000000
00100000
01000000
00001000
00001000
00000000
00000000
,
00011000
00000000
00000000
00010000
00000010
00000000
00000100
00000000
00000001
00000000
00001000
00000000
00000100
00000000
00000000
00000000
,
00001100
00000000
00000000
00000001
00000100
00000000
00000010
00000000
00001000
00000000
00000100
00000000
00010000
00000000
00000000
00000000
,
00011000
00000000
00000000
00001000
00100000
00000000
00010000
00000000
01000000
00000000
00100000
00000000
10000000
00000000
00000000
00000000
,
00010000
00000000
00100000
01000000
00100000
00000000
00010000
00000000
10000000
00000000
00100000
00000000
01000000
00000000
00001000
00000000
,
01001000
00000000
00000000
01000000
00010000
00000000
00100000
00000000
00001000
00000000
00001000
00000000
00010000
00000000
00000010
00000000
,
00001010
00000000
00000000
00000010
00001000
00000000
00000100
00000000
00010000
00000000
00010000
00000000
00001000
00000000
00100000
00000000
,
00110000
00000000
00000000
00010000
01000000
00000000
00001000
00000000
00010000
00000000
00010000
00000000
00000100
00000000
00001000
00000000
,
00000010
00000000
00000100
00000010
00000100
00000000
00000001
00000000
00000010
00000000
00000100
00000000
00010000
00000000
00000000
00000000
,
00011000
00000000
00000100
00010000
00000100
00000000
00010000
00001000
00010000
00000000
00001000
00000000
01000000
00000000
00100000
00000000
,
10000000
00000000
01000000
00000000
00010000
00000000
01000000
00000000
00100000
00001000
00010000
00000000
00001000
00000000
00000000
00000000
,
00011000
00000000
00100000
00001000
00100000
00000000
00001000
00010000
00001000
00000000
00010000
00000000
00000010
00000000
00000100
00000000
,
00000001
00000000
00000010
00000000
00001000
00000000
00000010
00000000
00000100
00010000
00001000
00000000
00010000
00000000
00000000
00000000
,
00010100
00000000
00010000
00001000
01000000
00000000
00001000
00010000
00000100
00000000
00010000
00000000
00001000
00000000
01000000
00100000
,
01000000
00000000
00010000
00000000
10000000
00000000
01000000
00000000
00100000
00001000
00010000
00000000
00001000
00000000
00000000
00000000
,
00101000
00000000
00001000
00010000
00000010
00000000
00010000
00001000
00100000
00000000
00001000
00000000
00010000
00000000
00000010
00000000
,
00000100
00000010
00000000
00000010
00001000
00000000
00000001
00000000
00000010
00000100
00010000
00000000
00001000
00000000
00100000
00000000
,
00202000
00000000
00000000
00003000
,
00320000
00000000
02030000
03001000
,
00020020
00000000
00000000
00030000
,
00002030
00000000
00003200
00010300
,
00022000
00000000
00000000
00033000
,
20020000
00030000
30200000
00310000
,
00022000
00000000
00000000
00033000
,
00002002
00003000
00000023
00001030
,
00012000
00000000
00013000
00100000
01000000
00020000
00000000
10030000
,
01000000
00000000
00010000
00000000
00001000
00000000
00000010
00000000
00000100
00000000
00000000
00001000
00000000
00000000
00000001
00000000
,
00000101
00000000
00000100
00000000
00000010
00000000
00001000
00000000
00000100
00010000
00000100
00000000
00010000
00000000
00001000
00000000
,
01000000
00000000
00100000
10000000
00010000
00000000
00100000
00000000
00001000
00000000
00001000
00000000
00010000
00000000
00000000
00000000
,
00021000
00000000
00000000
00000000
00030010
00000100
00000010
00000000
00001000
00000000
00002100
00000000
00000000
00000000
00003001
00000000
,
00000100
00001000
00010000
00100000
01000000
02100000
00000000
33010000
,
00100000
00000000
01000000
00000000
00100000
00000000
10000000
00000000
00100000
00010000
00100000
00000000
00001000
00000000
00010000
00000000
,
00000010
00000000
00000100
00000010
00001000
00000000
00000100
00000000
00010000
00000000
00010000
00000000
00001000
00000000
00000300
00000000
,
00012000
00000000
00000000
00000000
01003000
00100000
01000000
00000000
00010000
00000000
00120000
00000000
00000000
00000000
10030000
00000000
,
00100000
00010000
00001000
00000100
00000010
00000120
00000000
00001033
,
00000100
00000000
00000010
00000000
00000100
00000000
00000001
00000000
00000100
00001000
00000100
00000000
00010000
00000000
00001000
00000000
,
01000000
00000000
00100000
01000000
00010000
00000000
00100000
00000000
00001000
00000000
00001000
00000000
00010000
00000000
00300000
00000000
,
00201000
00000000
00000000
00000000
00301000
00010000
00001000
00000000
00010000
00000000
00010020
00000000
00000000
00000000
00000130
00000000
,
00001000
00000100
00000001
00000010
00000100
00002100
00000000
00003001
,
00000100
00001000
00010000
00100000
10000000
01000000
00010000
00001000
,
00010000
00000000
00000000
00000000
,
00010200
00000000
00000000
00000000
00010300
00000000
00001000
00000000
00000000
00000000
00001000
00000000
01000000
00010000
01000000
00010000
,
00100000
00000000
00100000
00000000
00000000
00000000
00001000
00000000
00001000
00000000
00000000
00000000
00010000
00001000
00010000
00001000
,
00010000
00000000
00000000
00000000
00000010
00000000
00001000
00000000
00000100
00000000
00000000
00000000
00001000
00000001
00001000
00000001
,
00000100
00000010
00001000
00000100
00010000
00000010
00000100
00000001
,
00000011
00000000
00000000
00000001
00000100
00000000
00001000
00000000
00010000
00000000
00100000
00000000
10000000
00000000
01000000
00000000
,
11000000
00000000
00000000
10000000
00100000
00000000
00010000
00000000
00001000
00000000
00000100
00000000
00000001
00000000
00000010
00000000
,
00000011
00000000
00000000
00000001
00000010
00000000
00001000
00000000
00010000
00000000
01000000
00000000
10000000
00000000
00100000
00000000
,
02000000
00000000
00000000
00000000
03010000
00000000
00000000
00000000
01010000
00000000
00000000
00000000
00101000
00300000
00000000
00000000
,
00311000
00000000
00000000
00001000
00010000
00000000
00100000
00000000
00001000
00000000
00001000
00000000
00100000
00000000
00010000
00000000
,
00001000
00000000
00000000
00010000
00001000
00000000
00000010
00000000
00010000
00000000
00010000
00000000
00000010
00000000
00001000
00000000
,
00010000
00000000
00000000
00001000
00010000
00000000
00100000
00000000
00001000
00000000
00001000
00000000
00100000
00000000
00010000
00000000
,
00001000
00010000
00000100
00000010
00000001
00000100
00000010
00001000
,
00001020
00000000
00000103
00000000
00010030
00020000
00000000
00031000
,
01000000
00100000
20000000
00000000
30010000
00020000
00000000
00130000
,
00001000
00010000
00001000
00000100
00001000
00010000
00000100
00010000
,
00001000
00000000
00100000
00010000
00100000
00000000
00010000
01000000
00100000
00000000
10000000
00000000
00010000
00000000
00000000
00000000
,
02010000
00000000
30100000
00000000
03001000
00002000
00000000
00013000
,
00000010
00000100
00000002
00000000
00001003
00002000
00000000
00003100
,
00010000
00001000
00010000
00100000
00010000
00001000
00100000
00001000
,
00010000
00000000
00000100
00001000
00000100
00000000
00001000
00000010
00000100
00000000
00000100
00000000
00000001
00001000
00000001
00001000
;

//---------------dance-double - ----------------
#NOTES:
     dance-double:
     :
     Medium:
     10:
     0.427313,0.488618,0.163156,0.344440,0.000000,330.000000,312.000000,18.000000,38.000000,0.000000,0.000000,0.427313,0.488618,0.163156,0.344440,0.000000,330.000000,312.000000,18.000000,38.000000,0.000000,0.000000:
00000000
00000000
00000000
00000000
,
00000000
00000000
00000000
00000000
,
00000000
00000000
00000000
00000000
,
00000000
00000000
00000000
00000000
,
00011000
00000000
00001000
00000000
00100000
00020000
00000000
00000000
,
10030000
00000000
00100000
00000000
01000000
00200000
00000000
00000000
,
10300000
01000000
10000000
00000000
00010000
01000000
00010000
00000000
,
00100000
00000000
00001000
00000000
00010000
00000020
00000000
00000000
,
00010330
00000000
00010000
00000000
00000100
00002000
00000000
00000000
,
00003001
00000000
00000100
00000000
00000010
00000200
00000000
00000000
,
00000301
00000010
00000001
00000000
00001000
00000010
00001000
00000000
,
00000100
00000000
00010000
00000000
00001000
02000000
00000000
00000000
,
03100000
00000000
10000000
00000000
01000000
00100000
00010000
00000000
,
01000000
00000000
00001000
00000000
00010000
00001000
00010000
00000000
,
00000100
00000000
00001000
00000000
00000001
00000100
00000010
00000000
,
00002000
00000010
00000002
00003003
,
00000101
00000000
00000001
00000000
00000010
00000100
00001000
00000000
,
00000010
00000000
00010000
00000000
00001000
00010000
00001000
00000000
,
00100000
00000000
00010000
00000000
10000000
00100000
01000000
00000000
,
00020000
01000000
20000000
30030000
,
10000000
01000000
00100000
00000000
01000000
00100000
00001000
00000000
,
00010000
00000000
00000010
00000000
00000100
00000010
00000100
00000000
,
00000001
00000010
00000100
00000000
00000010
00000100
00010000
00000000
,
00001000
00000000
00100000
00000000
01000000
00100000
01000000
00000000
,
10000000
01000000
00100000
01000000
10000000
01000000
00100000
00000000
,
00010000
00000000
01000000
00001000
00010000
00000000
00001100
00000000
,
00000001
00000100
00000010
00000100
00000001
00000100
00000010
00000000
,
00001000
00000000
00000100
00010000
00001000
00000000
01010000
00000000
,
20010000
00000000
00000000
00000000
,
32000000
00000000
03200000
00302000
,
00023000
00000000
00000000
00000000
,
00030020
00000000
00000230
00000302
,
00002003
00000000
00000000
00000000
,
00003200
00000000
00000320
00002030
,
00023000
00000000
00000000
00000000
,
00230000
00000000
00320000
03032000
,
00303100
00000000
00000010
00000100
00000010
00000100
00000000
00000000
,
00000001
00001000
00002002
00003003
,
00000001
00000100
00000010
00000000
00001000
00000100
00000010
00000000
,
00000100
00010100
00010000
00011000
,
00001000
00000000
00100000
00010000
00100000
00010000
00000000
00000000
,
10000000
00100000
01000000
00000000
00010000
10000000
00000000
00000000
,
10000000
00100000
01000000
00000000
00010000
00100000
01000000
00000000
,
00100000
00101000
00001000
00011000
,
00010100
00000000
00000001
00000100
00000001
00000100
00000000
00000000
,
00000001
00001000
00000001
00001000
00000100
00000000
00000000
00000000
,
00010000
00000100
00010000
00000000
00001000
00010000
00001000
00000000
,
00100000
00001000
00020000
00000000
00031000
00000000
00000000
00000000
,
00101000
00000000
10000000
00100000
10000000
00100000
00000000
00000000
,
10000000
00010000
10000000
00010000
00100000
00000000
00000000
00000000
,
00001000
00100000
00001000
00000000
00010000
00001000
00010000
00001000
,
00010000
00000000
00000000
00000000
,
00020100
00000000
00000000
00000100
00000000
00000000
00031000
00000000
,
00010000
00001000
00000000
00010000
00001000
00000000
01000000
00000000
,
01002000
00000000
00000000
01000000
00000000
00000000
00013000
00000000
,
00001000
00010000
00001000
00010000
00002000
00000000
00013000
00000000
,
00010200
00000000
00001300
00000001
00001000
00000001
00000100
00000000
,
00000010
00000000
00010000
00001000
00010000
00001000
00100000
00000000
,
00010000
00000000
10000000
00100000
10000000
00100000
01000000
00000000
,
00002000
00000000
00023000
00331000
,
00201000
00000000
00310000
10000000
00010000
10000000
00100000
00000000
,
01000000
00000000
00001000
00010000
00001000
00010000
00000100
00000000
,
00001000
00000000
00000001
00000100
00000001
00000100
00000010
00000000
,
00001000
00000100
00010000
00001000
,
00011000
00000000
00100000
00010000
00100000
00010000
00000000
00000000
,
10000000
00100000
02000000
00000000
03010000
00000000
00000000
00000000
,
10000000
01000000
10000000
00000000
00010000
01000000
00010000
00000000
,
00100000
00001000
00010000
00000000
00001000
00001000
00000000
00000000
,
00011000
00000000
00000100
00001000
00000100
00001000
00000000
00000000
,
00000001
00000100
00000020
00000000
00001030
00000000
00000000
00000000
,
00000001
00000010
00000001
00000000
00001000
00000010
00001000
00000000
,
00000100
00010000
00001000
00000000
00010000
00001000
00010000
00001000
;

//---------------dance-double - ----------------
#NOTES:
     dance-double:
     :
     Easy:
     7:
     0.309478,0.325179,0.072514,0.117835,0.000000,239.000000,231.000000,8.000000,13.000000,0.000000,0.000000,0.309478,0.325179,0.072514,0.117835,0.000000,239.000000,231.000000,8.000000,13.000000,0.000000,0.000000:
00000000
00000000
00000000
00000000
,
00000000
00000000
00000000
00000000
,
00000000
00000000
00000000
00000000
,
00000000
00000000
00000000
00000000
,
00010000
00001000
00010000
00000000
,
00000100
00000100
00001000
00000000
,
00000001
00000001
00000100
00000100
,
00000010
00010000
00001000
00000000
,
00001000
00010000
00001000
00000000
,
00100000
00100000
00010000
00000000
,
10000000
10000000
00100000
00100000
,
01000000
00001000
00010000
00000000
,
00011000
00010000
00000100
00000010
,
00000001
00000100
00000010
00000000
,
00000100
00000010
00001000
00000100
,
00010000
00010000
00001000
00000000
,
00011000
00001000
00100000
01000000
,
10000000
00100000
01000000
00000000
,
00100000
01000000
00010000
00100000
,
00001000
00001000
00010000
00000000
,
00011000
00001000
00010000
00000100
,
00001000
00000000
00000010
00000000
00000100
00000100
00000100
00000000
,
00000000
00000100
00000010
00001000
,
00000001
00000000
00000010
00000000
00000100
00000100
00000100
00000000
,
00000000
00010000
00001000
00100000
,
00010000
00000000
01000000
00000000
00100000
00100000
00100000
00000000
,
00000000
00100000
10000000
00010000
,
00100000
00000000
00001000
00000000
00010000
00010000
00010000
00000000
,
00022000
00000000
00033000
00000000
,
00002000
00003000
00200000
00300000
,
02000000
00000000
00000000
03000000
,
20000000
30000000
00200000
00300000
,
02000000
00000000
00000000
03000000
,
00002000
00003000
00020000
00030000
,
00000200
00000000
00000000
00000300
,
00002000
00003000
00000002
00000003
,
00000100
00000100
00000100
00000000
,
00000010
00000010
00000010
00000000
,
00001001
00001000
00000100
00010000
,
00001000
00000000
00100000
00000000
00010000
00010000
00000000
00000000
,
10000000
00000000
00100000
00000000
01000000
01000000
00000000
00000000
,
00010000
00000000
00100000
00000000
01000000
01000000
00000000
00000000
,
10000000
00100000
01000000
00010000
,
00100000
00001000
00010000
00000000
,
00011000
00000000
00010000
00000000
00000100
00000100
00000000
00000000
,
00001000
00000000
00000001
00000000
00000100
00000100
00000000
00000000
,
00000001
00000100
00000010
00001000
,
00000100
00000000
00000010
00000000
00000100
00000100
00000000
00000000
,
00001000
00000000
00000100
00000000
00010000
00010000
00000000
00000000
,
00001000
00000000
01000000
00000000
00010000
00010000
00000000
00000000
,
10000000
00100000
01000000
00010000
,
00100000
00000000
00000000
00000000
,
00001000
00000000
00000000
00001000
00000000
00000000
00001000
00000000
,
00010000
00000000
00000000
00010000
00000000
00000000
00010000
00000000
,
00000010
00000000
00000000
00000010
00000000
00000000
00000010
00000000
,
00000100
00000100
00000100
00000100
,
00001001
00000001
00000100
00000010
,
00001000
00000100
00010000
00001000
,
00100000
01000000
10000000
00100000
,
01000000
00000000
00100000
00100000
,
10000000
01000000
00100000
00010000
,
01000000
00001000
00010000
00000100
,
00001000
00000010
00000100
00000001
,
00001000
00000000
00000100
00000100
,
00010000
00000000
00010000
00000000
00001000
00001000
00000000
00000000
,
00010000
00000000
00010000
00000000
00001000
00001000
00000000
00000000
,
00100000
00010000
10000000
00100000
,
01000000
01000000
00001000
00000000
,
00001000
00000000
00001000
00000000
00010000
00010000
00000000
00000000
,
00001000
00000000
00001000
00000000
00010000
00010000
00000000
00000000
,
00000100
00001000
00000001
00000100
,
00000010
00000010
00010000
00011000
;
