#TITLE:Stomp the Summer Sky;
#SUBTITLE:;
#ARTIST:Ziwtra;
#TITLETRANSLIT:;
#SUBTITLETRANSLIT:;
#ARTISTTRANSLIT:;
#GENRE:;
#CREDIT:;
#BANNER:banner.png;
#BACKGROUND:Stomp the Summer Sky-bg.png;
#LYRICSPATH:;
#CDTITLE:;
#MUSIC:Stomp the Summer Sky.ogg;
#OFFSET:1.908000;
#SAMPLESTART:23.245182;
#SAMPLELENGTH:15.499992;
#LASTBEATHINT:1.657212;
#SELECTABLE:YES;
#BPMS:0.000000=124.000000
,116.000000=120.940002
,148.000000=119.000000
,176.000000=121.269997
,180.000000=124.000000
,244.000000=112.000000
,276.000000=111.000000
,277.000000=106.870003
,278.000000=102.989998
,279.000000=98.900002
,280.000000=95.080002
,281.000000=91.019997
,282.000000=86.900002
,283.000000=86.540001
;
#STOPS:
;
#BGCHANGES:;
#KEYSOUNDS:;
#ATTACKS:;

//---------------dance-single - ----------------
#NOTES:
     dance-single:
     :
     Beginner:
     2:
     0.100726,0.150712,0.014102,0.014102,0.000000,100.000000,98.000000,2.000000,2.000000,0.000000,0.000000,0.100726,0.150712,0.014102,0.014102,0.000000,100.000000,98.000000,2.000000,2.000000,0.000000,0.000000:
0000
0000
0000
0000
,
0000
0000
0000
0000
,
0000
0000
0000
0000
,
0000
0000
0000
0000
,
0000
0000
0000
0000
,
1000
0000
1000
0000
,
0001
0000
0001
0000
,
0100
0000
0100
0000
,
0010
0000
0010
0000
,
0100
0000
0100
0000
,
0001
0000
0001
0000
,
1000
0000
1000
0000
,
0100
0000
1001
0000
,
1000
0000
1000
0000
,
0010
0000
0010
0000
,
0100
0000
0000
0000
,
0100
0000
0000
0000
,
0001
0000
0001
0000
,
0010
0000
0010
0000
,
0100
0000
0000
0000
,
0100
0000
0000
0000
,
1000
0000
1000
0000
,
0001
0000
0001
0000
,
0100
0000
0000
0000
,
0100
0000
0000
0000
,
0001
0000
0001
0000
,
1000
0000
1000
0000
,
0010
0000
0000
0000
,
0010
0000
0000
0000
,
1000
0000
0000
0000
,
0100
0000
0100
0000
,
0020
0000
0000
0000
,
0030
0000
0001
0000
,
0001
0000
0000
0000
,
0100
0000
0100
0000
,
0020
0000
0000
0000
,
0030
0000
0000
0000
,
1000
0000
1000
0000
,
0100
0000
0000
0000
,
0010
0000
0010
0000
,
0001
0000
0000
0000
,
0100
0000
0100
0000
,
0010
0000
0000
0000
,
0100
0000
0100
0000
,
0001
0000
0001
0000
,
1000
0000
1000
0000
,
0100
0000
0100
0000
,
0010
0000
0000
0000
,
0010
0000
0000
0000
,
0001
0000
0001
0000
,
0100
0000
0100
0000
,
0010
0000
0000
0000
,
0010
0000
0000
0000
,
1000
0000
1000
0000
,
0001
0000
0001
0000
,
0100
0000
0000
0000
,
0100
0000
0000
0000
,
0001
0000
0001
0000
,
1000
0000
1000
0000
,
0100
0000
0000
0000
,
0100
0000
0000
0000
,
1000
0000
0000
0000
,
0010
0000
0010
0000
,
0100
0000
0000
0000
,
0001
0000
0000
0000
,
0010
0000
0000
0000
,
0001
0000
0000
0000
,
0100
0000
0000
0000
,
0010
0000
0000
0000
,
1000
0000
0000
0000
,
0001
0000
0000
0000
,
0000
1001
0000
0000
;

//---------------dance-single - ----------------
#NOTES:
     dance-single:
     :
     Easy:
     4:
     0.169220,0.227654,0.007051,0.049356,0.000000,168.000000,167.000000,1.000000,7.000000,0.000000,0.000000,0.169220,0.227654,0.007051,0.049356,0.000000,168.000000,167.000000,1.000000,7.000000,0.000000,0.000000:
0000
0000
0000
0000
,
0000
0000
0000
0000
,
0000
0000
0000
0000
,
0000
0000
0000
0000
,
0000
0000
0000
0000
,
1000
0000
0100
0000
,
0010
0001
0010
0000
,
0001
0000
0100
0000
,
0010
1000
0010
0000
,
1000
0000
0001
0000
,
0010
0001
0100
0000
,
0001
0000
1000
0000
,
0010
1000
0100
0100
,
1000
0100
0010
0001
,
0100
0000
0010
0000
,
0100
0000
0100
0000
,
0001
0000
0001
0000
,
1000
0010
0100
0001
,
0010
0000
0100
0000
,
1000
0000
1000
0000
,
0001
0000
0001
0000
,
1000
0010
0001
0010
,
1000
0000
0001
0000
,
0100
0000
0100
0000
,
0010
0000
0100
0000
,
0001
0010
1000
0010
,
0001
0000
0100
0000
,
0010
0000
0010
0000
,
0100
0000
0010
0000
,
1000
0000
0100
0000
,
0010
0001
0100
0010
,
1000
0000
1000
0000
,
0001
0000
0001
0001
,
1000
0000
0010
0000
,
0100
0001
0010
0100
,
1000
0000
0001
0000
,
1000
0000
1000
0000
,
0001
0000
0100
0000
,
1000
0100
0002
0003
,
1000
0000
0100
0000
,
0001
0100
2000
3000
,
0001
0000
0010
0000
,
1000
0010
0002
0003
,
1000
0000
0010
0000
,
0001
0010
0100
0100
,
0001
0010
0100
1000
,
0001
0000
0001
0000
,
1000
0000
1000
0000
,
0010
0000
0010
0000
,
1000
0010
0100
0001
,
1000
0000
1000
0000
,
0001
0000
0001
0000
,
0010
0000
0010
0000
,
0001
0100
0010
1000
,
0100
0000
0100
0000
,
0010
0000
0100
0000
,
1000
0000
0001
0000
,
0100
0010
1000
0001
,
0100
0000
0010
0000
,
0100
0000
0001
0000
,
0010
0000
0100
0000
,
2000
0000
0000
3000
,
0100
0010
0001
0100
,
0010
0000
0010
0000
,
0100
0000
0100
0001
,
0020
0000
0000
0000
,
0031
0100
0010
0100
,
0001
0000
0001
0000
,
1000
0000
1000
0000
,
0010
0000
0010
0000
,
0100
0000
0100
0000
,
0000
2002
0000
3003
;

//---------------dance-single - ----------------
#NOTES:
     dance-single:
     :
     Medium:
     8:
     0.316281,0.354129,0.098712,0.155119,0.000000,314.000000,300.000000,14.000000,22.000000,0.000000,0.000000,0.316281,0.354129,0.098712,0.155119,0.000000,314.000000,300.000000,14.000000,22.000000,0.000000,0.000000:
0000
0000
0000
0000
,
0000
0000
0000
0000
,
0000
0000
0000
0000
,
0000
0000
0000
0000
,
0000
0000
0000
0000
,
1000
0000
0001
0100
0001
0000
1000
0100
,
1000
0000
0001
0001
0001
0000
0010
0100
,
0010
0000
0001
1000
0001
0000
1000
0010
,
1000
0000
0100
0100
0100
0000
1000
0010
,
0100
0000
0001
0010
0100
0000
1000
0001
,
0100
0000
0010
0010
0010
0000
0100
0001
,
1000
0000
0100
1000
0001
0000
0010
0001
,
1000
0010
0110
1001
,
0001
0000
0010
0000
0100
1000
0001
0000
,
1000
0000
0010
0000
0100
0001
1000
0000
,
0200
0001
0010
1300
,
0020
0001
0100
1030
,
0001
0000
0100
0000
0010
1000
0001
0000
,
1000
0000
0100
0000
0010
0001
1000
0000
,
0020
0001
0100
1030
,
0200
0001
0010
1300
,
0001
0000
0010
0000
0001
1000
0010
0000
,
1000
0000
0001
0000
0100
0001
1000
0000
,
0002
0010
0100
1003
,
2000
0010
0100
3001
,
1000
0000
0010
0000
0100
0001
1000
0000
,
0001
0000
1000
0000
0100
1000
0001
0000
,
0002
0100
0010
1003
,
2000
0010
0100
3001
,
0110
0001
1000
1000
,
0100
1000
0010
0000
0100
0000
0100
0000
,
0001
0001
0010
0010
,
0100
0000
0100
0000
0010
0001
1000
0000
,
0010
0100
0001
0001
,
1000
0100
1000
0000
0010
0100
0010
0000
,
1000
0001
0010
0010
,
0001
1000
0010
0010
,
0100
0000
0001
0010
0100
0000
0010
0000
,
0001
0001
2000
3000
,
1000
0000
0010
0100
0010
0000
1000
0000
,
0100
0100
1000
0001
,
0100
0000
0010
0100
0001
0000
0010
0000
,
0100
0100
0020
0030
,
0001
0000
1000
0010
0100
0000
0001
0000
,
1000
0100
0110
1001
,
0001
0000
0010
0000
0100
0010
0001
0000
,
1000
0000
0010
0000
0100
0010
1000
0000
,
0002
0100
1003
1100
,
2000
0100
3001
0101
,
0001
0000
0100
0000
1000
0100
0001
0000
,
1000
0000
0100
0000
0001
0100
1000
0000
,
0002
0010
1003
1010
,
2000
0010
3001
0011
,
1000
0000
0100
0000
0010
0100
1000
0000
,
0001
0000
0100
0000
0010
0100
0001
0000
,
0020
1000
0031
0101
,
0200
1000
0301
0011
,
1000
0000
0010
0000
0001
0010
1000
0000
,
0001
0000
0010
0000
1000
0010
0001
0000
,
0200
1000
0301
0011
,
0020
1000
0031
1100
,
2000
0000
0000
0000
0000
0000
0000
3010
,
0000
0100
0001
0000
0010
0000
0100
0000
,
1000
1000
0001
0001
,
0100
0000
0100
0000
0010
0100
0001
0000
,
0020
0000
0000
0000
0000
0000
0000
0130
,
0000
0010
0001
0000
0100
0000
0010
0000
,
1000
1000
0001
0001
,
0010
0010
0100
0100
,
0010
0001
0100
0010
,
1000
0000
0100
0000
0010
0100
0010
0100
,
0000
2002
0000
3003
;

//---------------dance-single - ----------------
#NOTES:
     dance-single:
     :
     Hard:
     12:
     0.456290,0.480603,0.133966,0.028203,0.049356,453.000000,434.000000,19.000000,4.000000,0.000000,0.000000,0.456290,0.480603,0.133966,0.028203,0.049356,453.000000,434.000000,19.000000,4.000000,0.000000,0.000000:
0000
0000
0000
0000
,
0000
0000
0000
0000
,
0000
0000
0000
0000
,
0000
0000
0000
0000
,
0000
0000
0000
0000
,
1001
0000
1000
0100
0001
0000
0001
0100
,
1000
0000
0001
0100
1000
0000
1000
0100
,
0001
0000
1000
0100
0010
0000
0001
0100
,
0010
0000
0010
0100
0001
0000
0010
0100
,
1000
0000
0010
0000
1000
0000
0001
0100
0000
0000
0001
0000
0010
0000
0100
0000
,
1000
0000
0010
0000
0100
0000
0010
1000
0000
0100
1000
0000
0001
0000
0100
0000
,
0010
0000
0100
0000
0001
0000
0010
0100
0000
0000
0100
0000
0010
0000
0001
0000
,
0100
0000
0010
0000
0100
0000
0001
1000
0100
0000
0000
0000
0110
0000
0000
0000
,
1001
0001
0010
0100
1000
0100
0001
0100
,
1000
0000
0001
0100
0010
0001
0010
1000
,
0001
0010
0100
1100
,
1000
0010
0100
0101
,
1010
1000
0100
0010
0001
0100
1000
0100
,
0001
0000
1000
0100
0001
0100
1000
0010
,
1000
0100
0010
0011
,
0001
0100
0010
1010
,
1001
0001
0100
0010
1000
0100
0010
0001
,
1000
0000
0001
1000
0010
0100
0001
0010
,
0001
0100
1000
0101
,
1000
0100
0001
1100
,
1001
1000
0010
0100
0001
0010
0100
1000
,
0001
0000
1000
0001
0100
0010
0100
0001
,
1000
0100
0001
0011
,
0001
0100
1000
1010
,
1000
0100
0000
1000
0010
1000
0000
0010
,
0001
0010
0000
0001
0100
0001
0000
0100
,
1000
0100
0000
1000
0010
1000
0000
0010
,
0001
0010
0000
0001
0010
0100
0010
0100
,
0010
0100
0000
0001
0100
0001
0000
0010
,
0001
0010
0000
1000
0010
1000
0000
0100
,
1000
0100
0000
0001
0100
0001
0000
0010
,
0001
0010
0000
1000
0010
0001
0000
0001
,
1000
0000
0001
0010
0100
0000
0100
0010
,
0001
0100
1000
0100
0001
0000
0110
0000
,
1001
0000
1000
0100
0001
0000
0001
0100
,
1000
0010
0001
0010
0001
0010
1000
0001
,
1000
0000
0001
0010
1000
0000
1000
0010
,
0001
0100
0010
0100
0001
0000
0011
0000
,
0101
0000
1000
0100
1000
0000
1000
0010
,
0001
0010
1000
0001
0010
1000
0010
0001
,
1000
0000
0000
1000
0100
0000
0010
0000
0001
0000
0100
0000
0010
0000
0100
0000
,
0001
0000
0000
0001
0010
0000
0100
0000
1000
0000
0010
0000
0100
0000
0001
0000
,
1000
0100
0001
0100
0001
0100
1000
0000
,
0001
0100
1000
0100
1000
0100
0001
0001
,
1000
0000
0000
1000
0010
0000
0100
0000
0001
0000
0010
0000
0100
0000
0010
0000
,
0001
0000
0000
0001
0100
0000
0010
0000
1000
0000
0100
0000
0010
0000
0100
0000
,
1000
0010
0001
0010
0001
0010
1000
0000
,
0001
0010
1000
0010
1000
0010
0001
0001
,
1000
0000
0001
0100
0010
0000
1000
0000
0100
0000
0001
0000
0100
0000
0010
0000
,
0001
0000
0100
0010
1000
0000
0100
0000
0010
0000
0100
0000
1000
0000
0001
0000
,
1000
0010
0100
0001
0100
0010
1000
0000
,
0001
0010
0100
1000
0100
0010
0001
0001
,
1000
0000
0010
0100
1000
0000
0100
0000
0001
0000
0010
0000
0100
0000
1000
0000
,
0001
0000
0100
0010
0001
0000
0010
0000
1000
0000
0001
0000
0010
0000
0100
0000
,
1000
0001
0100
0010
1000
0001
0100
0000
,
0001
0000
0010
0000
0100
0000
1000
0000
0010
0000
0100
0000
0001
0000
0100
0010
,
0200
0000
0000
0000
0000
0000
0000
0310
,
0000
1000
0100
0000
0010
0000
0001
0000
,
0100
0100
0010
0010
,
1000
0000
0001
0000
1000
0100
0010
0001
,
0200
0000
0000
0000
0000
0000
0000
0310
,
0000
0100
0001
0000
0010
0100
1000
0000
,
0001
1000
0001
1000
0010
0100
0010
0100
,
0001
1000
0001
1000
0100
0010
0100
0010
,
0001
1000
0001
1000
0100
0010
0100
0010
,
0001
1000
0001
1000
0010
0100
0010
0100
,
0000
0220
0000
0330
;
