#TITLE:Spinning World;
#SUBTITLE:;
#ARTIST:Perfume;
#TITLETRANSLIT:;
#SUBTITLETRANSLIT:;
#ARTISTTRANSLIT:;
#GENRE:;
#CREDIT:;
#BANNER:;
#BACKGROUND:;
#LYRICSPATH:;
#CDTITLE:;
#MUSIC:Spinning World.ogg;
#OFFSET:0.000000;
#SAMPLESTART:22.019999;
#SAMPLELENGTH:17.454000;
#LASTBEATHINT:187.000000;
#SELECTABLE:YES;
#BPMS:0.000000=110.000000
;
#STOPS:
;
#BGCHANGES:0.250=Spinning World.mp4=1.000=0=0=0=StretchNoLoop====,
99999=-nosongbg-=1.000=0=0=0 // don't automatically add -songbackground-
;
#KEYSOUNDS:;
#ATTACKS:;

//---------------dance-single - ----------------
#NOTES:
     dance-single:
     :
     Hard:
     12:
     0.462486,0.480804,0.295122,0.402440,0.420326,362.000000,329.000000,33.000000,45.000000,0.000000,0.000000,0.462486,0.480804,0.295122,0.402440,0.420326,362.000000,329.000000,33.000000,45.000000,0.000000,0.000000:
0000
0000
0000
0000
,
0000
0000
0000
0000
,
0000
0000
0000
0000
0000
0000
0000
0000
0000
0000
0000
0000
0012
0000
0000
0000
0000
2003
0000
0000
0000
0010
0000
0000
,
0010
0000
0000
0000
0000
0000
3001
0000
0000
0000
0000
0000
0010
0000
0000
0001
0000
0000
0100
0000
0000
0010
0000
1000
,
0010
0000
0000
0100
0000
0000
0110
0000
0000
0000
0000
0000
1002
0000
0000
0000
0000
0023
0000
0000
0000
0100
0000
0000
,
0100
0000
0000
0000
0000
0000
0031
0000
0000
0000
0000
0000
1000
0000
0000
0010
0000
0000
1000
0000
0000
0100
0000
0010
,
0001
0000
0000
1000
0000
0000
1001
0000
0000
0000
0000
0000
0201
0000
0000
0000
0000
0320
0000
0000
0000
0001
0000
0000
,
0001
0000
0000
0000
0000
0000
1030
0000
0000
0000
0000
0000
0001
0000
0000
0010
0000
0000
0100
0000
0000
1000
0000
0010
,
1000
0000
0000
0001
0000
0000
1001
0000
0000
0000
0000
0000
0021
0000
0000
0000
0000
0230
0000
0000
0000
0001
0000
0000
,
0001
0000
0000
0000
0000
0000
2300
0000
0000
0000
0000
3001
0000
0000
0000
0000
0000
0000
0000
0000
0000
0000
0000
0000
,
0000
0000
0100
0010
0000
0000
0110
0000
0000
0000
0000
0000
2010
0000
0000
0000
0000
0000
3001
0000
0000
0010
0000
0000
,
1000
0000
0000
0010
0000
0000
0001
0000
1000
0000
0000
1000
0010
0000
0000
0100
0000
0000
1000
0000
0000
0000
0000
0000
,
0110
0000
0000
0000
0000
0000
0001
0000
0000
0000
0000
0000
1000
0000
0000
0100
0000
0000
0001
0000
0100
0000
0000
0020
,
0000
0000
0000
1030
0000
0000
0001
0000
0100
0000
0000
1000
0020
0000
0000
1000
0000
0000
0230
0000
0000
0001
0000
0000
,
0320
0000
0000
0100
0000
0000
0031
0000
0010
0000
0000
0010
1000
0000
0000
0001
0000
0000
1001
0000
0000
1000
0000
0000
,
0100
0000
0000
0010
0000
0000
1010
0000
0000
0000
0000
0010
0001
0000
0000
0100
0000
0000
1000
0000
0100
0000
0000
2010
,
0000
0000
0000
0000
0000
0000
3001
0000
0000
0000
0000
0000
0011
0000
0000
1000
0000
0000
0100
0000
0001
0000
0000
1000
,
0010
0000
0000
0001
0000
0000
0100
0000
1000
0000
0000
0001
0010
0000
0000
1000
0000
0000
0001
0000
0000
0000
0000
0000
,
1000
0000
0000
0010
0000
0000
0001
0000
0100
0000
0000
2100
0000
0000
0000
0000
0000
0000
3001
0000
0000
0100
0000
0000
,
0100
0000
0001
0000
0000
0001
1000
0000
0010
0000
0000
0100
0000
0000
0010
1000
0000
0000
0001
0000
0000
0010
0000
0100
,
0001
0000
0000
0000
0000
0000
0100
0000
1000
0000
0000
2010
0000
0000
0000
0000
0000
0000
3001
0000
0010
0000
0000
0120
,
0000
0000
0000
0000
0000
0000
0031
0000
0100
0000
0000
0120
0000
0000
0000
0000
0000
0000
1030
0000
0000
0001
0000
0000
,
0100
0000
0000
0010
0000
0000
1010
0000
0000
0000
0000
1000
0200
0000
0000
0000
0000
0310
0002
0000
0000
1000
0000
0000
,
1000
0000
0000
0000
0000
0200
0000
0000
0000
0303
0000
0000
0001
0000
0000
1000
0000
0000
1000
0000
0000
0100
0000
0010
,
0100
0000
0000
1000
0000
0000
1001
0000
0000
0000
0000
0010
2000
0000
0000
0000
0000
3001
0200
0000
0000
0010
0000
0000
,
0000
0010
0301
1000
0100
0000
1000
0000
,
0001
0000
0010
0001
0000
0000
1000
0000
0010
0100
0000
0010
0200
0000
0000
0301
0000
1000
0200
0000
0000
0010
0000
0000
,
0010
0000
0000
0000
0000
2000
0000
0000
0000
3300
0000
0000
0001
0000
0000
1000
0000
0000
1000
0000
0000
0010
0000
1000
,
0010
0000
0000
0000
0000
0000
0110
0000
0000
0000
0000
0000
0100
0000
0000
0000
1000
0000
0000
0000
0100
0000
0000
0000
0002
0000
0000
0000
0000
0000
1003
0000
0000
0100
0000
0000
0020
0000
0000
0000
0000
0000
0001
0000
0000
0000
0000
0000
,
0000
0001
0100
0031
0010
0000
0001
0000
,
0100
0000
0001
0100
0000
0000
0220
0000
0330
0000
0000
0010
1000
0000
0000
0100
0000
0000
0001
0000
0100
0000
0000
1000
,
0001
0000
0000
0100
0000
0000
1000
0000
0100
0000
0000
0010
0001
0000
0000
0000
0000
0000
1001
0000
0000
0000
0000
0000
,
0110
0000
0000
0001
0000
0000
1000
0000
0010
0000
0000
1000
0001
0000
0000
0010
0000
0000
1000
0000
0010
0000
0000
0200
,
0000
0000
0000
0301
0000
0000
1000
0000
0010
0000
0000
0001
2000
0000
0000
0001
0000
0000
3020
0000
0000
0100
0000
0000
,
0032
0000
0000
0010
0000
0000
1003
0000
0100
0000
0000
0001
1000
0000
0000
0001
0000
0000
0011
0000
0000
0000
0000
0000
,
0110
0000
0000
0100
0000
0000
0101
0000
0000
0001
0000
0100
1000
0000
0000
0000
0000
0000
1001
0000
0000
0001
0000
0100
,
1000
0000
0000
0000
0000
0000
0110
0000
0000
0010
0000
1000
0100
0000
0000
0010
0000
0000
1000
0000
0001
0000
0000
0100
,
1000
0000
0000
0001
0000
0000
0100
0000
1000
0000
0000
0100
0002
0000
0000
0000
0000
0000
1000
0000
0000
0000
0000
0000
,
1003
0000
0000
0100
0000
0000
0001
0000
0010
0000
0000
1010
0000
0000
0000
0000
0000
0000
1002
0000
0000
0000
0000
0000
,
0010
0000
0000
0000
0000
0000
1003
0000
0100
0000
0000
2000
0000
0000
0000
0010
0000
0000
3010
0000
0000
0000
0000
0000
,
1000
0000
0000
0010
0000
0000
0001
0000
0100
0000
0000
1000
0000
0000
0000
0000
0000
0000
0100
0000
0000
1000
0000
0000
,
0010
0000
0100
0010
2000
0001
3200
0010
,
0302
0000
0000
0100
0000
0000
1003
0000
0100
0000
0000
0001
0000
0000
0000
0000
0000
0000
2001
0000
0000
0000
0000
0000
,
3010
0000
0000
0100
0000
0000
1000
0000
0001
0000
0000
0010
1000
0000
0000
0001
0000
0000
0010
0000
0100
1000
0000
0001
,
0010
0000
0000
0000
0000
0000
0100
0000
0001
0000
0000
0100
1000
0000
0000
0001
0000
0000
0010
0000
0001
0000
0000
0100
,
0001
0000
0000
1000
0000
0000
0100
0000
0010
0000
0000
0002
0000
0000
0000
0000
0000
0000
1003
0000
0000
0000
0000
0000
,
1000
0000
0000
0010
0000
0000
0001
0000
0100
0000
0000
2200
0000
0000
0000
0000
0000
0000
3300
0000
0000
0000
0000
0000
;

//---------------dance-single - ----------------
#NOTES:
     dance-single:
     :
     Medium:
     8:
     0.273403,0.332683,0.125203,0.295122,0.071545,214.000000,200.000000,14.000000,33.000000,0.000000,0.000000,0.273403,0.332683,0.125203,0.295122,0.071545,214.000000,200.000000,14.000000,33.000000,0.000000,0.000000:
0000
0000
0000
0000
,
0000
0000
0000
0000
,
0000
0000
0000
0000
0000
0000
0000
0000
0000
0000
0000
0000
2000
0000
0000
0000
0000
0002
0000
0000
0000
0000
0000
0000
,
0000
3003
1000
0010
,
0100
0000
0000
0001
0000
0000
1000
0000
0000
0000
0000
0000
0200
0000
0000
0000
0000
0020
0000
0000
0000
0000
0000
0000
,
0000
0000
0330
0000
0001
0010
0001
0000
,
1000
0000
0000
0010
0000
0000
0100
0000
0000
0000
0000
0000
0002
0000
0000
0000
0000
0020
0000
0000
0000
0000
0000
0000
,
0000
0033
0001
1000
,
0100
0000
0000
0010
0000
0000
0001
0000
0000
0000
0000
0000
0200
0000
0000
0000
0000
0020
0000
0000
0000
0000
0000
0000
,
0000
0000
0000
0000
0000
0000
0000
0000
0000
0000
0000
0330
0000
0000
0000
0000
0000
0000
0000
0000
0000
0000
0000
0000
,
0000
0000
0110
0000
1001
0000
0001
0010
,
0001
0000
1000
0010
0100
0000
0001
0000
,
1000
0000
0000
0100
0000
0000
0010
0000
0000
0000
0000
0001
0000
0000
0000
1000
0000
0000
0010
0000
0000
0000
0000
0100
,
0000
0001
1000
0000
0002
0000
0023
0000
,
2030
3200
0301
1000
,
0100
0000
0000
0010
0000
0000
0001
0000
0000
0000
0000
0000
1000
0000
0000
0000
0000
0000
0010
0000
0000
0000
0000
0110
,
0000
0000
0000
0000
0000
0000
1000
0000
0000
0000
0000
0001
0000
0000
0000
0010
0000
0000
0100
0000
0000
0000
0000
1000
,
0000
0000
0000
0010
0000
0000
0100
0000
0000
0000
0000
0001
0000
0000
0000
0000
0000
0000
1000
0000
0000
0000
0000
0000
,
0001
0100
1000
0010
0001
0000
1000
0000
,
1000
0000
0001
0000
0001
0000
0010
0001
,
0100
0000
1000
0100
0001
0000
1000
0100
,
0001
0000
1000
0100
0010
0000
0010
0000
,
0010
0110
2002
0000
,
3003
0000
0000
0001
0000
0010
0000
0000
0000
0000
0000
0000
0100
0000
0000
1000
0000
0000
0100
0000
0000
0000
0000
0000
,
1000
0000
0000
0010
0000
0000
1000
0000
0000
0000
0000
0000
0002
0000
0000
0000
0000
0200
0000
0000
0000
0000
0000
0000
,
0000
0000
0303
0000
0001
0010
0001
0000
,
1000
0000
0000
0010
0000
0000
0100
0000
0000
0000
0000
0000
0020
0000
0000
0000
0000
2000
0000
0000
0000
0000
0000
0000
,
0000
0000
3030
0000
0001
0010
0100
1000
,
0001
0000
0000
0000
0000
0000
0100
0000
0000
0000
0000
0000
0002
0000
0000
0000
0000
2000
0000
0000
0000
0000
0000
0000
,
0000
3003
0001
1000
,
0100
0000
0020
0000
1030
0000
0010
0001
,
1000
0000
0010
0100
1000
0000
0100
0000
,
0001
0000
0000
1000
0000
0000
0100
0000
0000
0000
0000
0010
0000
0000
0000
0001
0000
0000
1000
0000
0000
0000
0000
0010
,
0000
0100
0001
0000
2000
0000
3200
0000
,
0302
0023
1030
1001
,
0101
1100
1010
0011
,
1001
0000
0001
1000
0010
0000
0100
0001
,
1000
0000
0100
0010
0001
0000
1000
0000
,
1000
0010
0001
0100
0000
0000
1002
0000
,
1000
1003
0100
0010
,
0001
0100
1000
0010
0001
0000
1000
0001
,
1000
0000
0010
0100
0002
0000
0023
0000
,
2030
3200
0300
1001
,
0001
0000
1000
0010
0001
0000
1000
0010
,
0001
0000
0100
0010
1000
0000
0100
0010
,
1000
0000
0010
0001
2000
0000
3200
0000
,
0302
0013
1001
0000
;

//---------------dance-single - ----------------
#NOTES:
     dance-single:
     :
     Easy:
     4:
     0.163531,0.207927,0.071545,0.223578,0.000000,128.000000,120.000000,8.000000,25.000000,0.000000,0.000000,0.163531,0.207927,0.071545,0.223578,0.000000,128.000000,120.000000,8.000000,25.000000,0.000000,0.000000:
0000
0000
0000
0000
,
0000
0000
0000
0000
,
0000
0000
0002
0000
,
0000
0003
1000
0010
,
1000
0001
0020
0000
,
0000
0030
0100
1000
,
0001
0100
0020
0000
,
0000
0030
1000
0001
,
0010
0100
2000
0002
,
0000
0000
3003
0000
,
0000
1001
1001
0000
,
1000
1000
1000
0000
,
0001
0001
0002
0003
,
2000
3000
0001
0010
,
1000
0100
0001
1000
,
0001
0000
0010
0001
,
0100
0000
0002
0003
,
2000
3000
0001
0100
,
1000
0010
0001
0000
,
0000
1000
0010
0100
,
0001
0000
2000
3000
,
0200
0300
0020
0000
,
0030
0001
1000
0020
,
0000
0030
0100
0000
,
0001
0010
0100
2000
,
0000
3000
0000
0001
,
1000
0010
0100
0002
,
0000
0003
0000
1000
,
0100
1000
0020
0200
,
0000
0330
0001
0001
,
0001
1010
0001
0000
,
0100
0000
0010
0010
,
0010
0000
2000
3000
,
0002
0003
1000
0100
,
0001
0010
1000
0001
,
0001
1000
1000
0100
,
0100
0010
0020
0030
,
0002
0003
1000
0010
,
0001
0100
0000
0220
,
0330
1001
0000
0001
,
0100
0110
1001
0000
,
1000
0000
0001
0010
,
1000
0100
0001
0000
,
1000
0000
0010
0010
,
0110
0000
2000
3000
,
0002
0003
1000
0100
,
0001
0010
1000
0000
;

//---------------dance-single - ----------------
#NOTES:
     dance-single:
     :
     Beginner:
     2:
     0.106040,0.145549,0.089431,0.134147,0.000000,83.000000,73.000000,10.000000,15.000000,0.000000,0.000000,0.106040,0.145549,0.089431,0.134147,0.000000,83.000000,73.000000,10.000000,15.000000,0.000000,0.000000:
0000
0000
0000
0000
,
0000
0000
0000
0000
,
0000
0000
0002
0000
,
0000
0003
0000
0000
,
1000
0000
2000
0000
,
0000
3000
0000
0000
,
1000
0000
0002
0000
,
0000
0003
0000
0000
,
0001
0000
2000
0000
,
0000
0000
3000
0000
,
0000
0000
1001
0000
,
0001
0000
0010
0000
,
1000
0000
0100
0000
,
0001
0000
2000
0000
,
3000
0000
1001
0000
,
0001
0000
0100
0000
,
1000
0000
0010
0000
,
0001
0000
1000
0000
,
0000
1001
1001
0000
,
0001
0000
0010
0000
,
0100
0000
1000
0000
,
0010
0000
0100
0000
,
0000
0001
0001
0002
,
0000
0003
0000
1000
,
0000
1000
1000
2000
,
0000
3000
0000
0001
,
0000
0001
0001
0002
,
0000
0003
0000
1000
,
0000
1000
1000
2000
,
0000
3000
1000
0000
,
0010
0000
1001
0000
,
1000
0000
0010
0000
,
0001
0000
0100
0000
,
1000
0000
0002
0000
,
0003
0000
1001
0000
,
1000
0000
0100
0000
,
0001
0000
0010
0000
,
1000
0000
0002
0000
,
0003
0000
0000
2002
,
0000
3003
0000
0000
,
1000
0000
1001
0000
,
0001
0000
2000
0000
,
3000
0000
0000
1001
,
0000
0001
0000
0020
,
0030
0000
0001
0000
,
0100
0000
1000
0000
,
0010
0000
1001
0000
;

//---------------dance-double - ----------------
#NOTES:
     dance-double:
     :
     Easy:
     5:
     0.163531,0.187134,0.062602,0.214634,0.000000,128.000000,121.000000,7.000000,24.000000,0.000000,0.000000,0.163531,0.187134,0.062602,0.214634,0.000000,128.000000,121.000000,7.000000,24.000000,0.000000,0.000000:
00000000
00000000
00000000
00000000
,
00000000
00000000
00000000
00000000
,
00000000
00000000
00002000
00000000
,
00000000
00003000
00010000
00001000
,
00100000
00010000
20000000
00000000
,
00000000
30000000
00010000
01000000
,
00001000
00010000
00000020
00000000
,
00000000
00000030
00001000
00000001
,
00000010
00000100
00020000
00002000
,
00000000
00000000
00033000
00000000
,
00000000
00011000
00011000
00000000
,
00010000
00010000
00010000
00000000
,
00001000
00001000
00002000
00003000
,
00020000
00030000
00010000
00001000
,
00000100
00000001
00001000
00000001
,
00000010
00000000
00000100
00010000
,
00001000
00000000
00200000
00300000
,
00020000
00030000
10000000
01000000
,
00010000
00100000
10000000
00000000
,
00000000
00010000
01000000
00001000
,
00010000
00000000
00000020
00000030
,
00002000
00003000
00000200
00000000
,
00000300
00000010
00000001
00001000
,
00000000
00000010
00010000
00000000
,
00001000
00100000
00010000
02000000
,
00000000
03000000
00000000
00100000
,
01000000
00001000
00010000
00000020
,
00000000
00000030
00000000
00000100
,
00000001
00000010
00002000
00020000
,
00000000
00033000
00001000
00001000
,
00001000
10010000
10000000
00000000
,
00100000
00000000
01000000
01000000
,
01000000
00000000
00002000
00003000
,
00020000
00030000
00001000
00000100
,
00000010
00001000
00000100
00000010
,
00000010
00000001
00000001
00000100
,
00000100
00000010
00000020
00000030
,
00020000
00030000
00001000
00010000
,
01000000
10000000
00000000
02200000
,
03300000
10010000
00000000
00010000
,
00100000
00001000
00011000
00000000
,
00001000
00000000
00010000
00100000
,
10000000
01000000
00010000
00000000
,
00001000
00000000
00010000
00010000
,
00011000
00000000
00000020
00000030
,
00002000
00003000
00000001
00000100
,
00001000
00000010
00000001
00000000
;

//---------------dance-double - ----------------
#NOTES:
     dance-double:
     :
     Medium:
     9:
     0.273403,0.332683,0.125203,0.295122,0.071545,214.000000,200.000000,14.000000,33.000000,0.000000,0.000000,0.273403,0.332683,0.125203,0.295122,0.071545,214.000000,200.000000,14.000000,33.000000,0.000000,0.000000:
00000000
00000000
00000000
00000000
,
00000000
00000000
00000000
00000000
,
00000000
00000000
00000000
00000000
00000000
00000000
00000000
00000000
00000000
00000000
00000000
00000000
00002000
00000000
00000000
00000000
00000000
00020000
00000000
00000000
00000000
00000000
00000000
00000000
,
00000000
00033000
00001000
00000100
,
00000001
00000000
00000000
00001000
00000000
00000000
00000100
00000000
00000000
00000000
00000000
00000000
00000020
00000000
00000000
00000000
00000000
00000002
00000000
00000000
00000000
00000000
00000000
00000000
,
00000000
00000000
00000033
00000000
00000100
00000010
00000100
00000000
,
00001000
00000000
00000000
00010000
00000000
00000000
00001000
00000000
00000000
00000000
00000000
00000000
02000000
00000000
00000000
00000000
00000000
00020000
00000000
00000000
00000000
00000000
00000000
00000000
,
00000000
03030000
10000000
01000000
,
00100000
00000000
00000000
01000000
00000000
00000000
10000000
00000000
00000000
00000000
00000000
00000000
00200000
00000000
00000000
00000000
00000000
02000000
00000000
00000000
00000000
00000000
00000000
00000000
,
00000000
00000000
00000000
00000000
00000000
00000000
00000000
00000000
00000000
00000000
00000000
03300000
00000000
00000000
00000000
00000000
00000000
00000000
00000000
00000000
00000000
00000000
00000000
00000000
,
00000000
00000000
01100000
00000000
10010000
00000000
00001000
00010000
,
00001000
00000000
00010000
00000100
00000010
00000000
00000001
00000000
,
00000100
00000000
00000000
00000010
00000000
00000000
00010000
00000000
00000000
00000000
00000000
00001000
00000000
00000000
00000000
00100000
00000000
00000000
00010000
00000000
00000000
00000000
00000000
10000000
,
00000000
00100000
01000000
00000000
00020000
00000000
00230000
00000000
,
20300000
32000000
03010000
10000000
,
00100000
00000000
00000000
00010000
00000000
00000000
00001000
00000000
00000000
00000000
00000000
00000000
00010000
00000000
00000000
00000000
00000000
00000000
00000100
00000000
00000000
00000000
00000000
00001100
,
00000000
00000000
00000000
00000000
00000000
00000000
00001000
00000000
00000000
00000000
00000000
00000001
00000000
00000000
00000000
00000100
00000000
00000000
00000010
00000000
00000000
00000000
00000000
00010000
,
00000000
00000000
00000000
00000100
00000000
00000000
00001000
00000000
00000000
00000000
00000000
00000001
00000000
00000000
00000000
00000000
00000000
00000000
00000010
00000000
00000000
00000000
00000000
00000000
,
00000001
00000100
00001000
00000010
00000001
00000000
00001000
00000000
,
00001000
00000000
00000001
00000000
00000001
00000000
00000100
00001000
,
00010000
00000000
00001000
00010000
01000000
00000000
00001000
00010000
,
01000000
00000000
00010000
10000000
00100000
00000000
00100000
00000000
,
00100000
10010000
00022000
00000000
,
00033000
00000000
00000000
00000010
00000000
00001000
00000000
00000000
00000000
00000000
00000000
00000000
00000001
00000000
00000000
00000010
00000000
00000000
00000100
00000000
00000000
00000000
00000000
00000000
,
00001000
00000000
00000000
00000010
00000000
00000000
00000100
00000000
00000000
00000000
00000000
00000000
00000002
00000000
00000000
00000000
00000000
00002000
00000000
00000000
00000000
00000000
00000000
00000000
,
00000000
00000000
00003003
00000000
00000100
00010000
00001000
00000000
,
01000000
00000000
00000000
00010000
00000000
00000000
10000000
00000000
00000000
00000000
00000000
00000000
02000000
00000000
00000000
00000000
00000000
00200000
00000000
00000000
00000000
00000000
00000000
00000000
,
00000000
00000000
03300000
00000000
00010000
10000000
00100000
01000000
,
00001000
00000000
00000000
00000000
00000000
00000000
00010000
00000000
00000000
00000000
00000000
00000000
00000200
00000000
00000000
00000000
00000000
00000020
00000000
00000000
00000000
00000000
00000000
00000000
,
00000000
00000330
00000001
00000100
,
00001000
00000000
00020000
00000000
00130000
00000000
10000000
01000000
,
00100000
00000000
01000000
10000000
00100000
00000000
00010000
00000000
,
00001000
00000000
00000000
00010000
00000000
00000000
00000100
00000000
00000000
00000000
00000000
00000010
00000000
00000000
00000000
00000001
00000000
00000000
00001000
00000000
00000000
00000000
00000000
00000100
,
00000000
00000010
00000001
00000000
00002000
00000000
00003020
00000000
,
00000032
00000203
00001300
00000011
,
00000101
00001100
00011000
01010000
,
11000000
00000000
10000000
00010000
01000000
00000000
00001000
00100000
,
00010000
00000000
01000000
00010000
10000000
00000000
10000000
00000000
,
00010000
00100000
10000000
01000000
00000000
00000000
20010000
00000000
,
00010000
30010000
00001000
00000001
,
00001000
00000010
00000001
00000100
00001000
00000000
00000010
00010000
,
00001000
00000000
00010000
00000100
00002000
00000000
00003200
00000000
,
00000302
00000023
00000030
00001001
,
00000001
00000000
00000100
00001000
00010000
00000000
00000100
00001000
,
00010000
00000000
00001000
00010000
00100000
00000000
00001000
00010000
,
00100000
00000000
01000000
00010000
20000000
00000000
32000000
00000000
,
03020000
00130000
10010000
00000000
;

//---------------dance-double - ----------------
#NOTES:
     dance-double:
     :
     Hard:
     12:
     0.461209,0.480804,0.286179,0.384553,0.420326,361.000000,329.000000,32.000000,43.000000,0.000000,0.000000,0.461209,0.480804,0.286179,0.384553,0.420326,361.000000,329.000000,32.000000,43.000000,0.000000,0.000000:
// measure 0
00000000
00000000
00000000
00000000
,  // measure 1
00000000
00000000
00000000
00000000
,  // measure 2
00000000
00000000
00000000
00000000
00000000
00000000
00000000
00000000
00000000
00000000
00000000
00000000
00012000
00000000
00000000
00000000
00000000
00203000
00000000
00000000
00000000
01000000
00000000
00000000
,  // measure 3
01000000
00000000
00000000
00000000
00000000
00000000
00310000
00000000
00000000
00000000
00000000
00000000
10000000
00000000
00000000
00100000
00000000
00000000
00010000
00000000
00000000
00001000
00000000
00010000
,  // measure 4
00001000
00000000
00000000
00100000
00000000
00000000
01100000
00000000
00000000
00000000
00000000
00000000
10020000
00000000
00000000
00000000
00000000
02030000
00000000
00000000
00000000
00100000
00000000
00000000
,  // measure 5
00100000
00000000
00000000
00000000
00000000
00000000
03001000
00000000
00000000
00000000
00000000
00000000
00010000
00000000
00000000
00000100
00000000
00000000
00001000
00000000
00000000
00000001
00000000
00000010
,  // measure 6
00000001
00000000
00000000
00001000
00000000
00000000
00001010
00000000
00000000
00000000
00000000
00000000
00000201
00000000
00000000
00000000
00000000
00000320
00000000
00000000
00000000
00001000
00000000
00000000
,  // measure 7
00001000
00000000
00000000
00000000
00000000
00000000
00010030
00000000
00000000
00000000
00000000
00000000
00001000
00000000
00000000
00100000
00000000
00000000
01000000
00000000
00000000
10000000
00000000
00010000
,  // measure 8
10000000
00000000
00000000
00100000
00000000
00000000
10100000
00000000
00000000
00000000
00000000
00000000
02010000
00000000
00000000
00000000
00000000
03002000
00000000
00000000
00000000
00010000
00000000
00000000
,  // measure 9
00010000
00000000
00000000
00000000
00000000
00000000
00003200
00000000
00000000
00000000
00000000
00000301
00000000
00000000
00000000
00000000
00000000
00000000
00000000
00000000
00000000
00000000
00000000
00000000
,  // measure 10
00000000
00000000
00001000
00000001
00000000
00000000
00000011
00000000
00000000
00000000
00000000
00000000
00000210
00000000
00000000
00000000
00000000
00000000
00001300
00000000
00000000
00000010
00000000
00000000
,  // measure 11
00000001
00000000
00000000
00000010
00000000
00000000
00001000
00000000
00000010
00000000
00000000
00000010
00010000
00000000
00000000
00001000
00000000
00000000
00100000
00000000
00000000
00000000
00000000
00000000
,  // measure 12
01100000
00000000
00000000
00000000
00000000
00000000
00010000
00000000
00000000
00000000
00000000
00000000
10000000
00000000
00000000
00100000
00000000
00000000
00010000
00000000
10000000
00000000
00000000
02000000
,  // measure 13
00000000
00000000
00000000
03010000
00000000
00000000
10000000
00000000
01000000
00000000
00000000
10000000
00020000
00000000
00000000
00100000
00000000
00000000
00032000
00000000
00000000
00000100
00000000
00000000
,  // measure 14
00003002
00000000
00000000
00000010
00000000
00000000
00001003
00000000
00000010
00000000
00000000
00000010
00000100
00000000
00000000
00001000
00000000
00000000
00010000
00000000
00000000
00100000
00000000
00000000
,  // measure 15
01000000
00000000
00000000
00010000
00000000
00000000
00110000
00000000
00000000
00000000
00000000
00100000
01000000
00000000
00000000
10000000
00000000
00000000
00100000
00000000
00010000
00000000
00000000
00021000
,  // measure 16
00000000
00000000
00000000
00000000
00000000
00000000
00031000
00000000
00000000
00000000
00000000
00000000
00001001
00000000
00000000
00000001
00000000
00000000
00000010
00000000
00001000
00000000
00000000
00000001
,  // measure 17
00000100
00000000
00000000
00001000
00000000
00000000
00000001
00000000
00000100
00000000
00000000
00001000
00010000
00000000
00000000
00001000
00000000
00000000
00100000
00000000
00000000
00000000
00000000
00000000
,  // measure 18
00010000
00000000
00000000
01000000
00000000
00000000
10000000
00000000
00100000
00000000
00000000
00120000
00000000
00000000
00000000
00000000
00000000
00000000
10030000
00000000
00000000
00100000
00000000
00000000
,  // measure 19
00100000
00000000
01000000
00000000
00000000
01000000
00001000
00000000
00010000
00000000
00000000
00001000
00000000
00000000
00010000
00000100
00000000
00000000
00000010
00000000
00000000
00000001
00000000
00000100
,  // measure 20
00000010
00000000
00000000
00000000
00000000
00000000
00001000
00000000
00000100
00000000
00000000
00000120
00000000
00000000
00000000
00000000
00000000
00000000
00000031
00000000
00000100
00000000
00000000
00000120
,  // measure 21
00000000
00000000
00000000
00000000
00000000
00000000
00010030
00000000
00001000
00000000
00000000
00201000
00000000
00000000
00000000
00000000
00000000
00000000
01300000
00000000
00000000
10000000
00000000
00000000
,  // measure 22
00010000
00000000
00000000
01000000
00000000
00000000
01100000
00000000
00000000
00000000
00000000
10000000
00020000
00000000
00000000
00000000
00000000
00130000
02000000
00000000
00000000
00010000
00000000
00000000
,  // measure 23
00010000
00000000
00000000
00000000
00000000
20000000
00000000
00000000
00000000
33000000
00000000
00000000
00010000
00000000
00000000
01000000
00000000
00000000
01000000
00000000
00000000
00001000
00000000
00010000
,  // measure 24
00001000
00000000
00000000
00010000
00000000
00000000
00010100
00000000
00000000
00000000
00000000
00000100
00000020
00000000
00000000
00000000
00000000
00000031
00002000
00000000
00000000
00000100
00000000
00000000
,  // measure 25
00000000
00000100
00003001
00000100
00000010
00000000
00010000
00000000
,  // measure 26
00001000
00000000
01000000
00001000
00000000
00000000
00010000
00000000
00100000
10000000
00000000
00100000
10000000
00000000
00000000
00010000
00000000
01000000
00200000
00000000
00000000
00010000
00000000
00000000
,  // measure 27
00010000
00000000
00000000
00000000
00000000
20000000
00000000
00000000
00000000
30300000
00000000
00000000
00010000
00000000
00000000
00100000
00000000
00000000
00100000
00000000
00000000
00001000
00000000
00010000
,  // measure 28
00001000
00000000
00000000
00000000
00000000
00000000
00011000
00000000
00000000
00000000
00000000
00000000
00010000
00000000
00000000
00000000
00001000
00000000
00000000
00000000
00000010
00000000
00000000
00000000
00000002
00000000
00000000
00000000
00000000
00000000
00000103
00000000
00000000
00001000
00000000
00000000
00000200
00000000
00000000
00000000
00000000
00000000
00000010
00000000
00000000
00000000
00000000
00000000
,  // measure 29
00000000
00000010
00000001
00000310
00010000
00000000
00001000
00000000
,  // measure 30
00100000
00000000
00010000
00100000
00000000
00000000
02200000
00000000
03300000
00000000
00000000
10000000
01000000
00000000
00000000
00010000
00000000
00000000
00001000
00000000
00010000
00000000
00000000
00100000
,  // measure 31
10000000
00000000
00000000
00010000
00000000
00000000
10000000
00000000
01000000
00000000
00000000
00100000
00001000
00000000
00000000
00000000
00000000
00000000
00011000
00000000
00000000
00000000
00000000
00000000
,  // measure 32
00010010
00000000
00000000
00000010
00000000
00000000
00001000
00000000
00000001
00000000
00000000
00000010
00000100
00000000
00000000
00000001
00000000
00000000
00001000
00000000
00000010
00000000
00000000
00000002
,  // measure 33
00000000
00000000
00000000
00000103
00000000
00000000
00001000
00000000
00010000
00000000
00000000
00001000
02000000
00000000
00000000
00100000
00000000
00000000
03020000
00000000
00000000
10000000
00000000
00000000
,  // measure 34
00230000
00000000
00000000
01000000
00000000
00000000
10300000
00000000
00100000
00000000
00000000
00100000
00001000
00000000
00000000
00010000
00000000
00000000
00011000
00000000
00000000
00000000
00000000
00000000
,  // measure 35
00010100
00000000
00000000
00000100
00000000
00000000
00000110
00000000
00000000
00000010
00000000
00000001
00000100
00000000
00000000
00000000
00000000
00000000
00000110
00000000
00000000
00000100
00000000
00001000
,  // measure 36
00010000
00000000
00000000
00000000
00000000
00000000
00011000
00000000
00000000
00001000
00000000
00100000
01000000
00000000
00000000
10000000
00000000
00000000
00010000
00000000
01000000
00000000
00000000
10000000
,  // measure 37
00010000
00000000
00000000
00100000
00000000
00000000
10000000
00000000
01000000
00000000
00000000
00010000
00001000
00000000
00000000
00000000
00000000
00000000
00000010
00000000
00000000
00000000
00000000
00000000
,  // measure 38
00000001
00000000
00000000
00000010
00000000
00000000
00001000
00000000
00000100
00000000
00000000
00000101
00000000
00000000
00000000
00000000
00000000
00000000
00002001
00000000
00000000
00000000
00000000
00000000
,  // measure 39
00000100
00000000
00000000
00000000
00000000
00000000
00003001
00000000
00000100
00000000
00000000
00000020
00000000
00000000
00000000
00010000
00000000
00000000
00010030
00000000
00000000
00000000
00000000
00000000
,  // measure 40
00001000
00000000
00000000
00010000
00000000
00000000
01000000
00000000
00100000
00000000
00000000
00010000
00000000
00000000
00000000
00000000
00000000
00000000
01000000
00000000
00000000
00100000
00000000
00000000
,  // measure 41
10000000
00000000
01000000
00100000
00002000
00010000
02003000
00010000
,  // measure 42
03200000
00000000
00000000
01000000
00000000
00000000
00310000
00000000
10000000
00000000
00000000
00100000
00000000
00000000
00000000
00000000
00000000
00000000
00210000
00000000
00000000
00000000
00000000
00000000
,  // measure 43
00310000
00000000
00000000
00001000
00000000
00000000
00000100
00000000
00000001
00000000
00000000
00001000
00000010
00000000
00000000
00000001
00000000
00000000
00000100
00000000
00001000
00010000
00000000
00001000
,  // measure 44
00100000
00000000
00000000
00000000
00000000
00000000
00010000
00000000
10000000
00000000
00000000
01000000
00010000
00000000
00000000
10000000
00000000
00000000
00100000
00000000
00010000
00000000
00000000
10000000
,  // measure 45
01000000
00000000
00000000
00100000
00000000
00000000
00001000
00000000
00010000
00000000
00000000
00000020
00000000
00000000
00000000
00000000
00000000
00000000
00000130
00000000
00000000
00000000
00000000
00000000
,  // measure 46
00000001
00000000
00000000
00000100
00000000
00000000
00001000
00000000
00000010
00000000
00000000
00000022
00000000
00000000
00000000
00000000
00000000
00000000
00000033
00000000
00000000
00000000
00000000
00000000
;
