#VERSION:0.83;
#TITLE:Skyrider;
#SUBTITLE:;
#ARTIST:tokiwa;
#TITLETRANSLIT:;
#SUBTITLETRANSLIT:;
#ARTISTTRANSLIT:;
#GENRE:;
#ORIGIN:;
#TAGS:;
#CREDIT:;
#BANNER:Skyrider.png;
#BACKGROUND:Skyrider-bg.png;
#PREVIEWVID:;
#JACKET:Skyrider-jacket.png;
#CDIMAGE:;
#DISCIMAGE:;
#LYRICSPATH:;
#CDTITLE:CDtitle.png;
#MUSIC:Skyrider.ogg;
#OFFSET:0.150000;
#SAMPLESTART:31.726999;
#SAMPLELENGTH:14.990000;
#SELECTABLE:YES;
#BPMS:0.000000=128.000000
;
#STOPS:;
#DELAYS:;
#WARPS:;
#TIMESIGNATURES:0.000000=4=4
;
#TICKCOUNTS:0.000000=4
;
#COMBOS:0.000000=1
;
#SPEEDS:0.000000=1.000000=0.000000=0
;
#SCROLLS:0.000000=1.000000
;
#FAKES:;
#LABELS:0.000000=Song Start
;
#BGCHANGES:;
#KEYSOUNDS:;
#ATTACKS:
;

//---------------dance-single - ----------------
#NOTEDATA:;
#CHARTNAME:;
#CHARTHASH:2147483647;
#STEPSTYPE:dance-single;
#BANNER:;
#DESCRIPTION:;
#CHARTSTYLE:;
#DIFFICULTY:Beginner;
#METER:2;
#METERF:0.000000;
#LASTSECONDHINT:106.724991;
#RADARVALUES:0.119188,0.290620,0.055621,0.055621,0.000000,90.000000,84.000000,6.000000,6.000000,0.000000,0.000000,0.000000,0.000000,0.000000,0.119188,0.290620,0.055621,0.055621,0.000000,90.000000,84.000000,6.000000,6.000000,0.000000,0.000000,0.000000,0.000000,0.000000;
#CREDIT:BlueSky;
#NOTES:
// measure 0
0000
0000
0000
0000
,  // measure 1
0000
0000
0000
0000
,  // measure 2
0000
0000
0000
0000
,  // measure 3
0000
0000
0000
0000
,  // measure 4
0000
0000
0000
0000
,  // measure 5
0000
0000
0000
0000
,  // measure 6
0000
0000
0000
0000
,  // measure 7
0000
0000
0000
0000
,  // measure 8
0000
0000
0000
0000
,  // measure 9
0001
0000
0001
0000
,  // measure 10
0001
0000
0000
0000
,  // measure 11
1000
0000
1000
0000
,  // measure 12
1000
0000
0000
0000
,  // measure 13
0010
0000
0100
0000
,  // measure 14
0010
0000
0100
0000
,  // measure 15
0010
0000
0100
0000
,  // measure 16
1001
1001
1001
1001
,  // measure 17
0010
0000
0100
0000
,  // measure 18
0001
0001
0001
0000
,  // measure 19
1000
0000
0010
0000
,  // measure 20
1000
1000
1000
0000
,  // measure 21
0100
0000
1000
0000
,  // measure 22
0010
0010
0010
0000
,  // measure 23
0100
0000
0001
0000
,  // measure 24
2000
0000
0000
3000
,  // measure 25
0001
0000
1000
0000
,  // measure 26
0100
0100
0100
0000
,  // measure 27
0010
0000
0001
0000
,  // measure 28
0010
0010
0010
0000
,  // measure 29
0001
0000
1000
0000
,  // measure 30
0010
0010
0010
0000
,  // measure 31
0100
0000
0010
0000
,  // measure 32
0200
0000
0000
0300
,  // measure 33
1001
0000
0001
0000
,  // measure 34
0000
0000
1000
0000
,  // measure 35
0010
0000
0000
0000
,  // measure 36
0100
0000
0000
0000
,  // measure 37
0010
0000
1000
0000
,  // measure 38
0000
0000
0001
0000
,  // measure 39
1000
0000
0100
0000
,  // measure 40
1001
0000
0000
0000
,  // measure 41
0001
0000
0001
0000
,  // measure 42
0001
0000
0001
0000
,  // measure 43
1000
0000
1000
0000
,  // measure 44
1000
0000
1000
0000
,  // measure 45
0010
0000
0010
0000
,  // measure 46
0010
0000
0010
0000
,  // measure 47
0100
0000
0100
0000
,  // measure 48
0100
0100
0100
0000
,  // measure 49
0002
0000
0000
0000
,  // measure 50
0000
0000
0000
0003
,  // measure 51
2000
0000
0000
0000
,  // measure 52
0000
0000
0000
3000
,  // measure 53
0020
0000
0000
0000
,  // measure 54
0000
0000
0000
0030
,  // measure 55
0200
0000
0000
0000
,  // measure 56
0000
0000
0000
0000
,  // measure 57
0300
0000
0000
0000
;

//---------------dance-single - Pandemonium X----------------
#NOTEDATA:;
#CHARTNAME:;
#CHARTHASH:2147483647;
#STEPSTYPE:dance-single;
#BANNER:;
#DESCRIPTION:Pandemonium X;
#CHARTSTYLE:;
#DIFFICULTY:Easy;
#METER:5;
#METERF:0.000000;
#LASTSECONDHINT:106.724991;
#RADARVALUES:0.248970,0.369879,0.176133,0.278105,0.000000,188.000000,169.000000,19.000000,30.000000,0.000000,0.000000,0.000000,0.000000,0.000000,0.248970,0.369879,0.176133,0.278105,0.000000,188.000000,169.000000,19.000000,30.000000,0.000000,0.000000,0.000000,0.000000,0.000000;
#CREDIT:The Clouds;
#NOTES:
0000
0000
0000
0000
,
0000
0000
0000
0000
,
0000
0000
0000
0000
,
0000
0000
0000
0000
,
0000
0000
0000
0000
,
0002
0103
0002
1003
,
2000
0000
3001
0000
2000
0000
3001
0020
,
0000
0000
0000
0000
0000
0000
0000
0200
,
0000
0000
0330
0000
,
1001
0001
0100
1000
,
0010
0001
1000
0001
,
1000
0100
0001
0010
,
1000
0001
1000
0100
,
0020
0030
0100
1000
,
0020
0030
0100
0001
,
0020
0130
0010
0001
,
1001
0110
1001
0110
,
1001
0001
1000
0010
,
1000
0001
0010
0001
,
1001
1000
0100
1000
,
0001
0100
0001
1000
,
0110
0001
0100
0010
,
0100
0001
0100
0010
,
0100
0100
0010
0010
,
2002
0000
0000
3003
,
1001
1000
0100
0010
,
0100
1000
0100
0010
,
1001
0001
0010
0100
,
0010
0001
0010
0100
,
1001
1000
0010
1000
,
0100
1000
0010
1000
,
0100
0100
0010
0010
,
2002
0000
0000
3003
,
0001
0000
1000
0000
,
0100
0000
0010
0000
,
0100
0000
1000
0000
,
0010
0000
0100
0000
,
1000
0100
0001
0000
,
0001
0010
1000
0000
,
0010
0001
0100
0010
,
2000
0000
0000
3002
,
0203
0301
0200
0310
,
0200
0301
0101
0101
,
2000
3100
2000
3010
,
2000
3100
1100
1100
,
0200
0310
0200
1300
,
0200
0310
0200
1300
,
0020
0130
0020
1030
,
0020
0130
0001
0110
,
1000
1000
1000
0000
,
0001
0001
0001
0000
,
0100
0100
0100
0000
,
0010
0010
0010
0000
,
1000
0001
0010
0000
,
0001
1000
0010
0000
,
2002
0000
0000
0000
,
0000
0000
0000
0000
,
3003
0000
0000
0000
;

//---------------dance-single - Pandemonium X----------------
#NOTEDATA:;
#CHARTNAME:;
#CHARTHASH:2147483647;
#STEPSTYPE:dance-single;
#BANNER:;
#DESCRIPTION:Pandemonium X;
#CHARTSTYLE:;
#DIFFICULTY:Medium;
#METER:9;
#METERF:0.000000;
#LASTSECONDHINT:106.724991;
#RADARVALUES:0.364185,0.422719,0.268835,0.287375,0.046351,275.000000,246.000000,29.000000,31.000000,0.000000,0.000000,0.000000,0.000000,0.000000,0.364185,0.422719,0.268835,0.287375,0.046351,275.000000,246.000000,29.000000,31.000000,0.000000,0.000000,0.000000,0.000000,0.000000;
#CREDIT:Cloud 9;
#NOTES:
0000
0000
0000
0000
,
0000
0000
0000
0000
,
0000
0000
0000
0000
,
0000
0000
0000
0000
,
0000
0000
0000
0000
,
0002
0103
0002
1003
,
2000
0000
3100
0000
2000
0000
3001
0200
,
0000
0000
0000
0000
0300
0000
0000
0020
,
1000
0100
1030
0110
,
1001
0001
0100
1000
,
0101
0000
0101
0000
1000
0001
0010
0000
,
0001
0010
1000
0010
,
0011
0000
0011
0000
0100
1000
0001
0000
,
0001
0000
1000
0000
0001
1000
0001
0020
,
0000
0000
0030
0001
1000
0001
1000
0020
,
0000
0030
1000
0100
0010
0001
1000
0001
,
0100
0100
0100
0100
,
1001
0000
0000
0000
0001
0000
0100
0000
0010
0000
0000
1000
0000
0000
0020
0000
,
0000
0130
0000
0002
0000
1003
0000
0100
,
0010
0000
0000
0000
0100
0000
1000
0000
0100
0000
0000
1000
0000
0000
0002
0000
,
0000
0103
0000
0002
0000
0013
0100
1000
,
1001
0000
0000
0000
1000
0000
0001
0000
0100
0000
0000
0001
0000
0000
0020
0000
,
0000
0031
0000
2000
0000
3010
0000
0200
,
0000
0000
1300
0000
0100
0000
0001
0000
1000
0000
0000
0001
0000
0000
0020
0000
,
0000
0000
0000
0030
,
1001
0000
0000
0000
1000
0000
0100
0000
1000
0000
0000
0100
0000
0000
0020
0000
,
0000
0130
0000
2000
0000
3010
0000
1000
,
0001
0000
0000
0000
1000
0000
0001
0000
0010
0000
0000
0010
0000
0000
0200
0000
,
0000
0310
0000
0002
0000
0013
0100
1000
,
1001
0000
0000
0000
1000
0000
0001
0000
0100
0000
0000
0100
0000
0000
0002
0000
,
0000
1003
0000
2000
0000
3001
0000
0021
,
0000
0000
0130
0000
0010
0000
0010
0000
0001
0000
0000
0010
0000
0000
0200
0000
,
0000
0000
0000
0300
,
1001
0000
0001
0000
1000
0010
1000
0000
,
0001
0000
1000
0000
0100
0010
0100
0000
,
0010
0000
0001
0000
0100
0010
0100
0000
,
0010
0000
1000
0000
0001
0010
0001
0000
,
1000
0000
1001
0000
0001
0100
1000
0000
,
1100
0000
0101
0000
0001
0010
1000
0000
,
1010
0000
0011
0000
0001
0001
0010
0000
,
0100
0000
0000
0010
0000
0000
0001
0000
0000
1000
0000
0000
0001
0000
0100
0000
,
0001
0010
0100
0000
0010
0001
0100
0000
,
0010
0100
0001
0000
0101
0000
1100
0000
,
1000
0100
1000
0000
0010
1000
0100
0000
,
0010
0100
1000
0000
1100
0000
1010
0000
,
0101
0001
0100
0000
0010
0100
0010
0000
,
1000
0010
1000
0000
0001
1000
0001
0010
,
0100
1000
0100
0000
1000
0010
1000
0000
,
0010
0100
0001
0010
0100
1000
1001
0000
,
1020
0100
1000
1030
,
0010
0100
0001
0010
,
0012
0010
0100
0103
,
0010
1000
0001
0010
,
0021
0001
0100
0130
,
0010
0001
1000
0010
,
2001
3010
0012
0103
,
0010
2002
0000
0000
,
3003
0000
0000
0000
;

//---------------dance-single - Pandemonium X----------------
#NOTEDATA:;
#CHARTNAME:;
#CHARTHASH:184754396;
#STEPSTYPE:dance-single;
#BANNER:;
#DESCRIPTION:Pandemonium X;
#CHARTSTYLE:;
#DIFFICULTY:Hard;
#METER:12;
#METERF:0.000000;
#LASTSECONDHINT:107.662491;
#RADARVALUES:0.500589,0.639641,0.213214,0.472778,0.417157,378.000000,355.000000,23.000000,51.000000,0.000000,0.000000,0.000000,0.000000,0.000000,0.500589,0.639641,0.213214,0.472778,0.417157,378.000000,355.000000,23.000000,51.000000,0.000000,0.000000,0.000000,0.000000,0.000000;
#CREDIT:Sky High;
#NOTES:
0000
0000
0000
0000
,
0000
0000
0000
0000
,
0000
0000
0000
0000
,
0000
0000
0000
0000
,
0000
0000
0000
0000
,
2000
3100
0002
0103
,
0002
0000
1003
0000
2000
0000
3001
0020
,
0100
0100
0130
0010
,
1001
0000
0000
0101
0000
0000
1100
0000
1001
0000
0000
1000
0000
0001
1000
0000
,
0101
0001
1000
0001
1000
0100
0001
0010
,
2000
0000
3001
1000
0010
0010
1000
0200
,
0000
0000
1300
0100
0001
0010
1000
0001
,
2000
0000
3200
0000
0310
0100
1000
0001
,
0100
0010
0100
0010
0100
1000
0100
0010
,
1000
0100
0010
0100
0010
0001
0100
0010
,
0100
0001
1000
0100
0010
0001
1000
0001
,
2000
3020
0032
0203
,
1300
0000
0000
0000
0100
0000
0010
0000
0001
0000
0000
0010
0000
0000
0100
0000
,
1000
0010
0100
1000
0100
0001
1000
0001
,
1002
0000
0000
0000
0013
0000
0100
0000
1000
0000
0000
0100
0000
0000
0010
0000
,
0001
0010
0100
0010
0001
0010
0100
1000
,
1002
0000
0000
0000
1003
0000
0010
0000
0100
0000
0000
0001
0000
0000
0010
0000
,
1000
0010
0001
0100
0010
0001
0010
2000
,
0000
0000
3001
0000
1000
0000
1000
0000
0010
0000
0000
0010
0000
0000
1000
0000
,
1000
0100
0000
0010
0001
0000
1000
0010
0000
0100
0001
0000
1001
0000
0000
0000
,
2010
0000
0000
0000
3001
0000
0100
0000
0010
0000
0000
1000
0000
0000
0100
0000
,
1000
0010
0100
1000
0100
0001
1000
0001
,
0201
0000
0000
0000
0301
0000
0010
0000
0100
0000
0000
0010
0000
0000
0100
0000
,
1000
0100
0010
0100
0001
0100
0010
0001
,
0201
0000
0000
0000
0301
0000
0100
0000
0010
0000
0000
1000
0000
0000
1000
0000
,
0100
1000
0010
0100
0001
0010
0100
2000
,
0000
0000
3100
0000
0010
0000
0010
0000
0001
0000
0000
0001
0000
0000
0001
0000
,
1000
0010
0000
0100
0001
0000
0010
0100
0000
0100
1000
0000
0001
0000
1000
0000
,
2001
0000
0000
0000
0100
0000
0000
0010
0000
3010
0000
0000
1001
0000
0000
0000
,
0102
0000
0000
0000
0010
0000
0000
1000
0000
1003
0001
0000
0010
0000
0100
0000
,
2001
0000
0000
0000
0010
0000
0000
0100
0000
3100
0000
0000
1001
0000
0000
0000
,
0012
0000
0000
0000
1000
0000
0000
0100
0000
0103
0001
0000
0010
0000
0100
0000
,
1001
0000
0000
0000
0011
0000
0001
0000
0100
0000
0010
2000
0000
0000
0000
0000
,
3001
0000
0000
0000
1100
0000
0100
1000
0000
0001
0000
0100
0000
0010
0000
1000
,
0000
0100
0000
0001
0000
0100
0000
1000
0000
0001
0000
2000
0000
0000
3001
0000
,
1000
0100
0000
0100
0010
0000
0010
0001
0000
0001
0010
0000
0010
0100
1000
0001
,
1000
0000
0010
0000
1000
0010
0000
0200
0000
0000
0310
0000
0100
0001
0000
0200
,
0000
0000
0310
0000
0010
1000
0000
0200
0000
0310
0100
0000
0010
0100
0001
1000
,
0001
0000
1000
0000
0001
0010
0000
0200
0000
0310
0100
0010
0000
0100
0000
0200
,
0000
0310
0001
0100
0001
1000
0001
2000
0000
3100
0020
0000
0000
0000
0030
0000
,
1001
0000
0001
0000
0100
0010
0000
2000
0000
0000
3100
0000
0010
0100
0000
2000
,
0000
0000
3001
0000
0100
0010
0000
2000
0000
3001
1000
0000
1000
0010
1000
0100
,
1000
0000
0001
1000
0000
0001
0000
0020
0000
0000
0130
0010
0000
0010
0000
0010
,
0001
0010
0000
0100
1000
0000
1000
0010
0000
0100
0001
0000
1001
0000
0000
0000
,
1020
0000
0000
0000
0230
0000
0000
0000
0301
0000
0000
0001
0000
0000
0001
0000
,
0000
0000
1000
0000
0000
0100
0000
0000
0020
0000
0000
0000
0032
0000
0000
0000
,
2003
0000
0000
0000
3020
0000
0000
0000
0130
0000
0000
0100
0000
0000
0100
0000
,
0000
0010
2000
0000
3002
0000
2003
0000
,
3200
0000
0000
0000
0320
0000
0000
0000
0130
0000
0000
0100
0000
0000
0100
0000
,
0000
0000
0010
0000
0000
0001
0000
0000
0200
0000
0000
0000
0320
0000
0000
0000
,
0130
0000
0000
0000
0100
0000
0000
0000
0010
0000
0000
0010
0000
0000
0010
0000
,
0000
2000
0000
0000
0000
0000
0000
0000
,
0000
0000
3000
0000
;
