#VERSION:0.83;
#TITLE:Shamshir;
#SUBTITLE:;
#ARTIST:Blacklolita;
#TITLETRANSLIT:;
#SUBTITLETRANSLIT:;
#ARTISTTRANSLIT:;
#GENRE:G-HOUSE;
#CREDIT:;
#MUSIC:Shamshir.ogg;
#BANNER:Shamshir.png;
#BACKGROUND:Shamshir-bg.png;
#CDTITLE:./CDTitles/DANCERUSH STARDOM.png;
#SAMPLESTART:22.205;
#SAMPLELENGTH:15.000;
#SELECTABLE:YES;
#OFFSET:0.888;
#BPMS:0.000=135.000;
#STOPS:;
#TIMESIGNATURES:0.000=4=4;
#BGCHANGES:0.000=../BGAs/17te.mp4=1.000=0=0=0=StretchNoLoop====,
99999.000=-nosongbg-=1.000=0=0=0=StretchNoLoop====
;
#FGCHANGES:;

//--------------- dance-single - forcednature ----------------
#NOTEDATA:;
#STEPSTYPE:dance-single;
#DESCRIPTION:forcednature;
#DIFFICULTY:Beginner;
#METER:3;
#RADARVALUES:0,0,0,0,0;
#CREDIT:forcednature;
#NOTES:
0000
0000
0000
0000
,
0000
0000
0000
0000
,
0000
0000
0000
0000
,
0000
0000
0000
0000
,
0000
0000
0000
0000
,
1000
0000
0000
0000
,
0000
0000
0000
0000
,
0001
0000
0000
0000
,
0010
0000
0000
0000
,
0100
0000
0000
0000
,
1000
0000
0000
0000
,
0001
0000
0000
0000
,
0010
0000
0000
0000
,
1001
0000
0000
0000
,
0000
0000
0000
0000
,
0001
0000
0000
0000
,
0001
0000
0001
0000
,
0100
0000
0000
0000
,
0000
0000
0000
0000
,
0010
0000
0000
0000
,
1000
0000
1000
0000
,
0001
0000
0000
0000
,
0000
0000
0000
0000
,
0010
0000
0000
0000
,
0100
0000
1000
0000
,
0010
0000
0000
0000
,
0000
0000
0000
0000
,
0100
0000
0100
0000
,
0001
0000
0000
0000
,
1000
0000
0000
1000
,
0100
0000
0000
0100
,
0010
0000
0000
0010
,
0001
0000
0000
0000
,
0100
0000
0000
0100
,
0010
0000
0000
0010
,
1000
0000
0000
1000
,
0001
0000
0000
0000
,
0010
0000
0000
0000
,
0010
0000
0000
0000
,
0100
0000
0000
0000
,
1000
0000
0000
0000
,
0010
0000
0000
0000
,
0010
0000
0000
0000
,
0100
0000
0000
0000
,
0001
0000
0000
0000
,
0010
0000
0000
0010
,
0001
0000
0000
0001
,
0100
0000
0000
0000
,
0010
0000
0010
0000
,
0110
0000
0000
0000
,
1000
1000
1000
0000
,
0110
0000
0000
0000
,
0001
0001
0001
0000
,
1000
0000
0000
0000
,
0100
0000
0010
0000
,
0001
0000
0000
0000
,
0100
0000
0000
0000
,
1001
0000
0000
0000
,
0001
0000
0010
0000
,
0100
0000
0000
0000
,
1000
1000
1000
0000
,
0010
0000
0100
0000
,
0100
0000
0100
0000
,
0001
0001
0001
0000
,
1000
0000
1000
0010
;

//--------------- dance-single - forcednature ----------------
#NOTEDATA:;
#STEPSTYPE:dance-single;
#DESCRIPTION:forcednature;
#DIFFICULTY:Easy;
#METER:7;
#RADARVALUES:0,0,0,0,0;
#CREDIT:forcednature;
#NOTES:
0000
0000
0000
0000
,
0000
0000
0000
0000
,
0000
0000
0000
0000
,
0000
0000
0000
0000
,
0000
0000
0000
0000
,
1000
0100
1000
0010
,
1000
0000
0001
0000
,
0100
0100
0010
0010
,
0110
0000
0000
1001
0000
0000
0000
0000
,
0001
0000
0000
0001
0000
0000
0010
0000
,
0100
0000
0000
0100
0000
0000
1000
0000
,
0010
0010
0100
0100
,
0110
0000
0000
0000
,
1001
0000
1000
0100
,
0010
0001
0100
0000
,
1001
0000
0001
0100
,
0010
0000
0010
0010
0000
0010
0000
0000
,
1001
0000
1000
0100
,
1000
0001
0100
0000
,
0110
0000
0000
0000
0001
1000
0001
0000
,
2002
0000
3003
0000
,
0110
0000
1000
0100
,
1000
0010
0100
0000
,
1001
0000
0001
0010
,
0100
0000
0100
0010
0000
0010
0000
0000
,
0110
0000
1000
0001
,
0100
0010
1000
0000
,
0100
0100
0010
0010
,
0220
0000
0330
0000
,
0001
0000
1000
0001
0000
1000
0000
0000
,
0010
0000
0100
0010
0000
0100
0000
0000
,
1000
0000
0001
1000
0000
0001
0000
0000
,
0020
0000
0030
0000
,
0001
0000
0100
0001
0000
0100
0000
0000
,
1000
0000
0010
1000
0000
0010
0000
0000
,
0001
0000
0010
0001
0000
0010
0000
0000
,
0200
0000
0300
0000
,
1000
1000
0010
0010
,
1000
0100
0001
0000
,
0100
0100
1000
1000
,
0001
0010
1000
0000
,
0010
0010
0001
0001
,
1000
0010
0001
0000
,
0010
0010
1000
1000
,
0001
0100
1000
0000
,
0110
0000
0001
0010
,
1001
0000
1000
0010
,
0100
0100
0001
0001
,
2002
0000
3003
0000
,
0110
0000
0001
0001
,
0010
0000
0010
0100
0000
0100
0000
0000
,
1000
0010
0100
0001
,
1000
0000
1000
0001
0000
0001
0000
0000
,
0110
0000
1000
0001
,
0010
0100
1000
0000
,
0010
0100
0001
0010
,
2002
0000
3003
0000
,
1000
0100
0010
0001
,
0100
0010
1000
0000
,
0001
0010
0100
1000
,
0010
0000
0010
0100
0000
0100
0000
0000
,
1001
0000
1000
1000
,
0100
0100
0010
0001
,
0100
0000
0000
0100
0000
0000
0010
0000
0000
0010
0000
0000
0100
0000
0000
0000
,
0001
0000
1000
0000
0001
1000
0020
0000
,
0030
0000
0000
0000
;

//--------------- dance-single - forcednature ----------------
#NOTEDATA:;
#STEPSTYPE:dance-single;
#DESCRIPTION:forcednature;
#DIFFICULTY:Medium;
#METER:11;
#RADARVALUES:0,0,0,0,0;
#CREDIT:forcednature;
#NOTES:
0000
0000
0000
0000
,
0000
0000
0000
0000
,
0000
0000
0000
0000
,
0000
0000
0000
0000
,
0000
0000
0000
0000
,
1000
0100
0001
0100
1000
0001
0010
0000
,
0002
0000
0103
2000
0000
3100
0001
0000
,
1000
0010
0100
0010
1000
0010
0100
0000
,
0110
0000
0000
2002
0000
0000
3003
0000
,
0001
0010
0100
1000
0100
0010
0001
0000
,
1000
0010
0100
0001
0100
0010
1000
0000
,
0001
0010
0100
0010
0100
1000
0001
0000
,
2002
0000
0000
3003
,
0110
0000
0001
1000
0010
0100
0001
0000
,
1000
0100
0001
0100
1000
0001
0010
0000
,
0110
0000
1000
0001
0100
0010
1000
0000
,
0001
0001
0100
1000
1000
0100
0000
0110
,
1000
0000
0001
0010
0100
1000
0010
0000
,
1000
0100
0001
0100
1000
0001
0010
0000
,
0110
0000
0001
0100
0010
0010
0010
0000
,
1000
0100
0001
1000
0010
0001
1000
0000
,
0110
0000
0001
1000
0010
0100
0001
0000
,
0010
0100
0001
0100
1000
0001
0010
0000
,
0110
0000
1000
0010
0100
0001
1000
0000
,
0010
0010
0001
0010
0010
1000
0000
0110
,
0001
0000
1000
0100
0010
0100
1000
0000
,
0001
0100
1000
0100
0001
1000
0010
0000
,
0100
0100
0001
0001
0010
0010
0100
0000
,
2002
0000
0000
3003
,
2000
0000
3100
0002
0000
0013
2000
0000
,
3002
0000
0103
2000
0000
3010
0002
0000
,
2003
0000
3100
0002
0000
0013
2000
0000
,
3001
0000
0001
0010
0000
0100
1000
1000
,
0002
0000
0103
2000
0000
3010
0002
0000
,
2003
0000
3100
0002
0000
0013
2000
0000
,
3002
0000
0103
2000
0000
3010
0002
0000
,
1003
0000
1000
0010
0000
0100
0001
0001
,
1000
0100
0001
0100
0010
0100
1000
0100
,
0001
0100
0010
0100
1000
0001
0010
0000
,
0001
0100
1000
0100
0010
0100
0001
0100
,
1000
0100
0010
0100
0001
1000
0010
0000
,
1000
0010
0001
0010
0100
0010
1000
0010
,
0001
0010
0100
0010
0001
0010
1000
0000
,
0001
0010
0100
0010
1000
0010
0001
0010
,
0200
0000
1300
0020
0000
0130
0001
0000
,
0021
0000
0130
2000
0000
3001
0100
0000
,
1020
0000
0130
0002
0000
1003
0100
0000
,
0012
0000
0103
0020
0000
1030
0100
0000
,
0120
0000
0001
0001
0031
0000
1000
0100
,
1000
0000
0000
0000
0001
0000
0100
0000
0010
0000
0000
0010
0000
0000
0010
0000
,
1000
0001
1000
0001
1000
0000
0001
1000
0001
1000
0001
0000
0000
0000
0110
0000
,
0001
0000
1000
0001
0010
0100
1000
0000
,
0010
0100
0010
0100
0010
0000
0100
0010
0000
0100
0010
0000
0000
0000
0110
0000
,
0001
0000
1000
0100
0001
0100
1000
0000
,
0001
0010
0100
0001
0100
0010
0001
0000
,
1001
0000
1000
0010
0001
0010
1000
0000
,
0001
0100
1000
0100
0001
1000
0010
0000
,
0110
0000
0001
0010
0100
1000
0010
0000
,
1000
0100
0010
1000
0010
0100
1000
0000
,
0110
0000
0001
0100
0010
0001
0010
0000
,
1000
1000
0100
0001
0001
0100
0000
0110
,
0001
0000
1000
1000
0010
0010
0100
0100
,
0001
0001
1000
1000
0100
0100
0010
0000
,
0110
0000
0000
1100
0000
0000
0011
0000
0000
0110
0000
0000
1000
0000
0001
0000
,
1001
0000
0000
1000
0100
0000
1001
0000
0000
0001
0100
0000
0220
0000
0000
0000
,
0330
0000
0000
0000
;

//--------------- dance-single - forcednature ----------------
#NOTEDATA:;
#STEPSTYPE:dance-single;
#DESCRIPTION:forcednature;
#DIFFICULTY:Hard;
#METER:16;
#RADARVALUES:0,0,0,0,0;
#CREDIT:forcednature;
#NOTES:
0000
0000
0000
0000
,
0000
0000
0000
0000
,
0000
0000
0000
0000
,
0000
0000
0000
0000
,
0000
0000
0000
0000
,
1000
0000
0000
0000
0000
0000
0000
0000
0100
0000
0000
0000
0000
0000
0000
0000
0010
0000
0000
0000
0000
0000
0000
0000
0001
0000
0000
0000
0000
0000
0000
0000
0100
0000
0000
0000
0000
0000
0000
0000
0010
0000
0000
0000
0000
0000
0000
0000
1000
0000
0000
0000
0000
0001
0000
0000
1000
0000
0000
0000
0000
0000
0000
0000
,
0010
0100
0001
0010
0100
1000
0001
0000
,
1000
0000
0000
0000
0000
0000
0000
0000
0100
0000
0000
0000
0000
0000
0000
0000
1000
0000
0000
0000
0000
0000
0000
0000
0010
0000
0000
0000
0000
0000
0000
0000
1000
0000
0000
0000
0000
0000
0000
0000
0100
0000
0000
0000
0000
0000
0000
0000
1000
0000
0000
0000
0000
0001
0000
0000
1000
0000
0000
0000
0000
0000
0000
0000
,
1100
0000
0000
0000
0001
0000
0011
0000
0000
0000
1000
0001
0100
0000
0000
0000
,
0010
1000
0000
0001
0100
0000
0010
1000
0000
0001
0100
0000
0010
0000
0010
0000
,
1000
0100
0000
0010
0001
0000
1000
0100
0000
0010
0001
0000
1000
0001
1000
0000
,
0010
0100
0000
0001
1000
0000
0010
0100
0000
0001
1000
0000
0010
0100
0001
0100
,
0020
0000
0000
1000
0000
0000
1030
0000
0000
0100
0001
0000
0100
0010
0000
1000
,
0001
0000
0000
0001
0010
0000
1000
0000
0010
0001
0000
1000
0100
0000
1000
0000
,
0001
0100
0010
1000
0001
0000
0100
0010
1000
0001
0100
0000
0010
0000
0020
0000
,
1030
0000
0000
1000
0100
0000
0001
0000
0100
1000
0000
0001
0010
0000
0001
0000
,
1000
0010
0100
0010
1000
0000
0001
0010
0000
0100
0010
0000
0100
0000
1001
0000
,
0001
0000
0000
0001
0100
0000
1000
0000
0100
0001
0000
1000
0010
0000
1000
0000
,
0001
0010
0100
1000
0001
0000
0010
0100
1000
0001
0010
0000
0100
0000
0100
0000
,
1000
0000
0000
1000
0010
0000
0001
0000
0010
1000
0010
1000
0001
0000
0100
0000
,
0001
0010
0100
0010
0001
0000
1000
0010
0100
0010
1000
0000
0001
1000
0001
1000
,
0010
0000
0000
0100
1000
0000
0100
0000
0001
1000
0000
0010
1000
0000
0001
0000
,
0010
0001
0100
0001
1000
0000
0010
1000
0100
1000
0001
0000
0010
0000
0010
0000
,
0100
0000
0000
0010
1000
0000
0010
0000
0001
1000
0000
0001
0010
0000
0100
0000
,
1000
0010
1000
0100
1000
0000
0001
0010
0001
0100
0001
0000
0010
0100
0000
0100
,
0010
0000
0000
0100
0001
0000
0100
0000
1000
0001
0000
0010
0001
0000
1000
0000
,
0010
0100
0001
1000
0010
0000
0100
0001
1000
0010
0100
0000
0001
0000
0001
1000
,
0001
0000
0000
0000
0000
0000
0000
0010
0000
0000
0000
0000
0001
0000
0000
0000
0000
0000
0000
0010
0000
0000
0000
0000
0100
0000
0000
0000
0000
0000
0000
0010
0000
0000
0000
0000
0100
0000
0000
0000
0000
0000
0000
0010
0000
0000
0000
0000
0100
0000
0000
0000
0000
0000
0000
1000
0000
0000
0000
0000
0001
0000
0000
0000
0000
0000
0000
0100
0000
0000
0000
0000
0001
0000
0000
0000
0000
0000
0000
1000
0000
0000
0000
0000
0010
0000
0000
0000
0000
0000
0000
1000
0000
0000
0000
0000
,
0002
0000
0000
0010
0000
0000
1000
0000
0000
0100
0003
0000
1000
0001
1000
0000
,
0001
0100
0010
1000
0001
0000
0001
0100
0010
1000
0001
0000
0002
0000
0100
0000
,
1003
0100
0010
0001
1000
0000
1000
0100
0010
0001
1000
0000
2000
0000
0010
0000
,
3001
0100
0010
1000
0001
0000
0001
0100
0010
1000
0001
0000
0002
0000
0010
0000
,
2003
0000
0000
0100
0000
0000
0001
0000
0000
0010
3000
0000
1000
0001
1000
0001
,
1000
0010
0100
0001
1000
0000
1000
0010
0100
0001
1000
0000
2000
0000
0100
0000
,
3001
0010
0100
1000
0001
0000
0001
0010
0100
1000
0001
0000
0002
0000
0010
0000
,
1003
0010
0100
0001
1000
0000
1000
0010
0100
0001
1000
0000
2000
0000
0010
0000
,
3002
0000
0000
0010
0000
0000
1000
0000
0000
0100
0003
0000
0001
1000
0001
1000
,
0001
0000
0100
0000
1000
0000
0100
0000
0001
0100
0000
1000
0100
0000
0001
0000
,
1000
0100
0000
0001
0100
0000
1000
0000
0001
0100
0000
1000
0100
0000
0000
0000
,
0001
0000
0010
0000
1000
0000
0010
0000
0001
0010
0000
1000
0010
0000
0001
0000
,
1000
0010
0000
0001
0010
0000
1000
0010
0000
0001
0010
0000
0100
0000
0001
0000
,
1000
0000
0100
0000
0001
0000
0100
0000
1000
0100
0000
0001
0100
0000
1000
0000
,
0001
0100
0000
1000
0100
0000
0001
0000
1000
0100
0000
0001
0200
0000
0300
0000
,
1000
0000
0010
0000
0001
0000
0010
0000
1000
0010
0000
0001
0010
0000
1000
0000
,
0001
0010
0000
0100
0010
0000
0100
1000
0000
0001
0010
0000
0110
0000
0000
0000
,
0001
0100
0000
0001
0010
0000
0001
0100
0000
0001
0010
0000
0100
0000
0100
0000
,
1000
0010
0000
1000
0100
0000
1000
0010
0000
1000
0100
0000
0010
0001
0010
0000
,
0100
1000
0100
1000
0001
0100
0001
0100
0010
1000
0001
1000
0010
0100
0001
0000
,
1000
0100
1000
0000
0100
0001
0000
0100
1000
0001
1000
0001
0100
0010
0100
0010
,
1000
0000
0000
1000
0100
1000
0100
1000
0001
0000
0010
0001
0000
0010
0001
0000
,
1000
0100
0001
0100
1000
0000
0001
0100
1000
0100
0001
0000
0000
0000
0110
0000
,
1000
0000
0000
1000
0100
0000
0010
0000
0001
1000
0000
0001
1000
0000
0010
0000
,
0100
1000
0100
0001
0100
0000
0010
1000
0000
0010
0001
0000
0010
0000
0110
0000
,
1001
0000
0000
0001
0010
0000
0100
0000
0001
0100
0000
1000
0100
0000
0010
0000
,
0001
1000
0010
0100
0001
0000
1000
0010
0100
0001
1000
0000
0100
0000
1100
0000
,
0001
0010
0000
0100
0010
0000
0001
0000
1000
0010
1000
0010
0100
0000
0001
0000
,
1000
0000
0100
0010
0001
0010
0100
0001
0000
0100
1000
0001
0010
0001
0010
0001
,
1000
0000
0000
1000
0010
0000
0100
0000
1000
0100
0000
0001
1000
0000
0010
0000
,
1000
0100
1000
0001
0010
0000
0001
0100
0001
1000
0010
0000
0110
0000
1001
0000
,
0001
0010
0000
0100
0001
0000
0100
0000
1000
0001
0010
0001
1000
0000
0010
0000
,
0100
0001
0010
0001
0100
0000
0010
1000
0100
1000
0010
0000
0100
0001
0010
0000
,
0110
0000
0000
0000
0000
0000
0000
0000
0000
0000
0000
0000
0000
0000
0000
0000
0000
0000
0000
0000
0000
0000
0000
0000
1000
0000
0000
0000
0000
0000
0000
0100
0000
0000
0000
0000
1000
0000
0000
0000
0000
0000
0000
0100
0000
0000
0000
0000
0010
0000
0000
0000
0000
0000
0000
0001
0000
0000
0000
0000
0010
0000
0000
0000
0000
0000
0000
0001
0000
0000
0000
0000
0100
0000
0000
0000
0000
0000
0000
0010
0000
0000
0000
0000
0100
0000
0000
0000
0000
0000
0000
0010
0000
0000
0000
0000
,
1000
0000
0000
0000
0000
0000
0000
0001
0000
0000
0000
0000
1000
0000
0000
0000
0000
0000
0000
0001
0000
0000
0000
0000
0010
0000
0000
0000
0000
0000
0000
0100
0000
0000
0000
0000
0010
0000
0000
0000
0000
0000
0000
0100
0000
0000
0000
0000
1000
0000
0000
0000
0000
0000
0000
0001
0000
0000
0000
0000
0100
0000
0000
0000
0000
0000
0000
0010
0000
0000
0000
0000
1000
0000
0000
0000
0000
0000
0000
0000
0000
0000
0000
0000
0001
0000
0000
0000
0000
0000
0010
0000
0000
0000
0000
0000
,
0001
0000
0000
0101
0000
0000
0110
0000
0000
1010
0000
0000
1100
0000
1100
0000
,
0001
0010
0100
0010
0001
0000
1000
0010
0100
0010
1000
0000
2002
0000
0000
0000
,
3003
0000
0000
0000
;

//--------------- dance-double - forcednature ----------------
#NOTEDATA:;
#STEPSTYPE:dance-double;
#DESCRIPTION:forcednature;
#DIFFICULTY:Easy;
#METER:9;
#RADARVALUES:0,0,0,0,0;
#CREDIT:forcednature;
#NOTES:
00000000
00000000
00000000
00000000
,
00000000
00000000
00000000
00000000
,
00000000
00000000
00000000
00000000
,
00000000
00000000
00000000
00000000
,
00000000
00000000
00000000
00000000
,
00020000
00000000
00031000
00001000
,
00010000
00000010
00001000
00000000
,
00000001
00000001
00000100
00000100
,
00001001
00000000
00000000
00000220
00000000
00000000
00000330
00000000
,
00000001
00000100
00001000
00000000
,
00010000
01000000
10000000
00000000
,
01000000
00010000
00001000
00000010
,
00000220
00000000
00000000
00000330
,
00001001
00001000
00000010
00010000
,
00001000
00100000
00010000
00000000
,
10010000
00010000
00100000
00001000
,
00010000
00000000
00010000
00000010
00000000
00000010
00000000
00000000
,
00000110
00001000
00000100
00010000
,
00001000
00100000
00010000
00000000
,
01100000
00010000
01000000
00001000
,
00010000
00000000
00010000
00000100
00000000
00000100
00001000
00000000
,
00000110
00000001
00000100
00001000
,
00010000
00100000
10000000
00000000
,
01100000
10000000
01000000
00010000
,
00001000
00000000
00001000
00000010
00000000
00000010
00000000
00000000
,
00001001
00001000
00000100
00000010
,
00001000
00010000
01000000
00000000
,
00100000
01000000
00100000
00000000
01000000
00100000
01000000
00000000
,
20020000
00000000
00000000
30030000
,
00010000
00000000
01000000
00001000
00000000
00010000
00000020
00000000
,
00001030
00000000
00000100
00010000
00000000
00001000
00200000
00000000
,
00310000
00000000
01000000
00001000
00000000
00010000
00000020
00000000
,
00000200
00000000
00000000
00000330
,
00000001
00000000
00000100
00001000
00000000
00010000
00200000
00000000
,
10300000
00000000
01000000
00010000
00000000
00001000
00000020
00000000
,
00000031
00000000
00000100
00001000
00000000
00010000
00200000
00000000
,
02000000
00000000
00000000
03300000
,
10000000
01000000
00010000
00001000
,
00000010
00000001
00002000
00003000
,
00000001
00000100
00001000
00010000
,
00100000
10000000
00020000
00030000
,
00100000
01000000
00010000
00001000
,
00000010
00000001
00002000
00003000
,
00000010
00000100
00001000
00010000
,
00200000
00000000
01000000
01000000
02000000
00000000
03300000
00000000
,
10000000
00000000
01000000
00000000
00010000
00000000
00001000
00010000
,
00001000
00000000
00000010
00000000
00000001
00000000
00001000
00000001
,
00002000
00003002
00000203
00002300
,
00023000
00000000
00001000
00000000
00001000
00001000
00031000
00000000
,
00011000
00000000
00010000
00001000
,
00100000
00001000
00001000
00010000
00000100
00000100
00000000
00000000
,
00001001
00001000
00000001
00000100
,
00000010
00010000
00010000
00001000
01000000
01000000
00000000
00010000
,
10000000
00010000
00100000
01000000
,
00100000
00010000
00100000
00000000
00001000
00000000
00011000
00000000
,
00000010
00000000
00001000
00000000
00000001
00000010
00000001
00000000
,
00000200
00000000
00000010
00000010
00000020
00000000
00000330
00000000
,
00001000
00000001
00001000
00000100
,
00010000
00001000
00010000
00000000
00100000
00000000
01000000
00000000
,
00010000
10000000
00010000
00100000
,
00001000
00010000
00010000
00000100
00001000
00001000
00000000
00000000
,
00001001
00000002
00000203
00002300
,
00023000
02030000
23000000
30000000
,
00010000
00000000
00000000
00100000
00000000
00000000
00001000
00000000
00000000
00010000
00000000
00000000
00000100
00000000
00000000
00000000
,
00001000
00000000
00001000
00000010
00000000
00000100
00000002
00000000
,
00000003
00000000
00000000
00000000
;

//--------------- dance-double - forcednature ----------------
#NOTEDATA:;
#STEPSTYPE:dance-double;
#DESCRIPTION:forcednature;
#DIFFICULTY:Medium;
#METER:12;
#RADARVALUES:0,0,0,0,0;
#CREDIT:forcednature;
#NOTES:
00000000
00000000
00000000
00000000
,
00000000
00000000
00000000
00000000
,
00000000
00000000
00000000
00000000
,
00000000
00000000
00000000
00000000
,
00000000
00000000
00000000
00000000
,
00001000
00010000
00000100
00001000
00000010
00000100
00000001
00000000
,
00000010
00000000
00001000
00010000
00000000
00000100
00001000
00000000
,
00000010
00010000
00001000
01000000
00010000
00100000
01000000
00000000
,
01100000
00000000
00010000
00001000
00000000
00000010
00000110
00000000
,
00000001
00000100
00000010
00001000
00000010
00000100
00001000
00000000
,
00010000
00100000
01000000
00010000
10000000
00100000
10000000
00000000
,
01000000
00010000
00001000
00100000
00001000
00010000
00000100
00000000
,
00000120
00000000
00000001
00000001
00000001
00000000
00000130
00000000
,
00001001
00000000
00000001
00000100
00001000
00010000
00100000
00000000
,
01000000
00010000
00100000
01000000
00010000
00001000
00000010
00000000
,
00000110
00000000
00000100
00010000
00001000
00000010
00000001
00000000
,
00000100
00001000
00010000
01000000
00010000
00001000
00100000
00000000
,
01100000
00000000
01000000
10000000
00100000
10000000
01000000
00000000
,
00100000
00001000
00010000
00000100
00001000
00000010
00010000
00000000
,
00011000
00000000
00001000
00000010
00000001
00000001
00000001
00000000
,
00000200
00000000
00001300
00002000
00000000
00013000
00010000
00000000
,
01100000
00000000
00010000
10000000
01000000
00100000
00001000
00000000
,
00010000
01000000
00100000
00001000
00010000
00000100
00000010
00000000
,
00000110
00000000
00000100
00010000
00000010
00001000
00000001
00000000
,
00000010
00000000
00001000
00000000
00010000
00000000
00100000
00000000
00010000
00000000
00001000
00000000
00000000
00001000
00000000
00000000
,
01010000
00000000
10000000
00100000
10000000
01000000
00010000
00000000
,
00001000
00000010
00000100
00010000
00001000
00000010
00000001
00000000
,
00000100
00000100
00001000
00001000
00010000
00010000
00100000
00100000
,
02000000
00000000
00000000
03100000
,
10000000
01000000
00010000
00001000
00000100
00000001
00000020
00000000
,
00000031
00000100
00001000
00010000
01000000
10000000
00200000
00000000
,
10300000
01000000
00010000
00001000
00000100
00000001
00000020
00000000
,
00000230
00000000
00010300
00020000
00000000
00030010
00000020
00000000
,
00000130
00000001
00000010
00001000
00010000
00100000
20000000
00000000
,
31000000
10000000
00100000
00010000
00001000
00000010
00000002
00000000
,
00000103
00000001
00000010
00001000
00010000
00100000
20000000
00000000
,
32000000
00000000
03010000
00020000
00000000
00031000
00002000
00000000
,
00003020
00000001
00000100
00000031
,
00000010
00001000
00010000
00000000
00100000
01000000
01100000
00000000
,
00200000
00010000
01000000
00310000
,
00100000
00010000
00001000
00000000
00000010
00000110
00000000
00000000
,
00002000
00000100
00000001
00003100
,
00001000
00000010
00000100
00000000
00001000
00010000
00100000
00000000
,
20000000
30020000
00032000
00003002
,
00000203
00000000
00000310
00000020
00000000
00010030
00001000
00000000
,
00100000
01000000
00010000
00001000
00000000
00010000
00000020
00002030
,
00003010
00000100
00001000
00010000
00000000
00001000
00200000
00320000
,
00130000
01000000
00010000
00001000
00000010
00000100
00001000
00000000
,
00000012
00000000
00001000
00000000
00000100
00000100
00000103
00000000
,
00001010
00000000
00000000
00000000
00000001
00000000
00000100
00000000
00001000
00000000
00000000
00001000
00000000
00000000
00001000
00000000
,
00010000
00000100
00010000
00000100
00010000
00000000
00001000
00100000
00001000
00100000
00001000
00000000
00000000
00000000
00000000
00000000
,
00011000
00000000
01000000
00010000
00100000
01000000
00010000
00000000
,
00001000
01000000
00001000
01000000
00001000
00000000
00010000
00000010
00000000
00010000
00000010
00000000
00001000
00000000
00000000
00000000
,
00000110
00000000
00000001
00001000
00000010
00000100
00001000
00000000
,
00010000
00100000
01000000
00010000
00100000
00001000
00010000
00000000
,
00001100
00000000
00010000
00000010
00001000
00001000
00001000
00000000
,
00000001
00000100
00001000
00010000
01000000
10000000
00100000
00000000
,
01010000
00000000
10000000
00100000
00010000
00001000
01000000
00000000
,
00010000
00100000
01000000
00010000
00001000
00100000
00010000
00000000
,
01001000
00000000
00000010
00010000
00001000
00000010
00000100
00000000
,
00010000
00000000
00001000
00000000
00000010
00000000
00001000
00000000
00010000
00000000
00100000
00000000
00000000
00100000
00000000
00000000
,
01100000
00000000
10000000
10000000
01000000
01000000
00010000
00010000
,
00001000
00001000
00000010
00000010
00000001
00000001
00000200
00000000
,
00000310
00000000
00000000
00001000
00000000
00000000
00010000
00000000
00000000
01000000
00000000
00000000
00100000
00000000
00100000
00000000
,
10000000
01000000
00010000
00001000
00000100
00000001
00000020
00000000
,
00000030
00000000
00000000
00000000
;

//--------------- dance-double - forcednature ----------------
#NOTEDATA:;
#STEPSTYPE:dance-double;
#DESCRIPTION:forcednature;
#DIFFICULTY:Hard;
#METER:16;
#RADARVALUES:0,0,0,0,0;
#CREDIT:forcednature;
#NOTES:
00000000
00000000
00000000
00000000
,
00000000
00000000
00000000
00000000
,
00000000
00000000
00000000
00000000
,
00000000
00000000
00000000
00000000
,
00000000
00000000
00000000
00000000
,
00001000
00010000
01000000
10000000
01000000
00010000
00001000
00000000
,
00100000
00010000
01000000
00100000
00010000
00001000
00010000
00000000
,
00001000
00000100
00000001
00000100
00001000
00000100
00000001
00000000
,
00000101
00000000
00000000
00000000
00001000
00000000
00001010
00000000
00000000
00000000
00010000
00001000
00010000
00000000
00000000
00000000
,
00100000
01000000
00000000
00010000
01000000
00000000
00100000
10000000
00000000
00100000
10000000
00000000
01000000
00000000
00010000
00000000
,
00001000
00000010
00000000
00000001
00000010
00000000
00000100
00001000
00000000
00000001
00000010
00000000
00000001
00001000
00000001
00000000
,
00000100
00000010
00000000
00000100
00001000
00000000
00010000
00001000
00000000
00010000
00100000
00000000
10000000
00010000
10000000
00010000
,
20000000
00000000
00000000
01000000
00000000
00000000
01000000
30000000
00000000
10000000
00100000
10000000
00010000
01000000
00000000
00010000
,
00100000
00000000
00000000
01000000
00010000
00000000
00001000
00000000
00000010
00000001
00000000
00000100
00000001
00000000
00000010
00000000
,
00000100
00000000
00001000
00000010
00010000
00000000
00000100
00000000
00010000
00000010
00001000
00000000
00010000
00000000
01000000
00000000
,
00100000
00000000
00000000
10000000
01000000
00000000
00010000
00000000
00001000
00000000
00100000
00000000
00010000
00000000
00001000
00000000
,
00000100
00000010
00000100
00000010
00000100
00000000
00001000
00000001
00000000
00000100
00000001
00000000
00001000
00000000
00001010
00000000
,
00010000
00000000
00000000
00001000
00100000
00000000
00010000
00000000
01000000
00100000
00000000
10000000
00100000
00000000
01000000
00000000
,
00010000
00000000
00100000
00001000
00010000
00000000
01000000
00000000
00010000
00001000
00100000
00000000
00020000
00000000
00032000
00000000
,
00003100
00000000
00000000
00000010
00000001
00000000
00000100
00000000
00001000
00000000
00001000
00000000
00001000
00000000
00000000
00000000
,
00011000
00000000
00000000
00100000
00010000
00000000
01000000
00010000
00000000
00100000
01000000
00000000
00010000
00000000
00001000
00000000
,
00000010
00000000
00000000
00000100
00010000
00000000
00001000
00000000
00000010
00000001
00000000
00000100
00000001
00000000
00000010
00000000
,
00001000
00000000
00100000
00010000
01000000
00000000
00100000
00000000
01000000
00010000
00100000
00000000
00001000
00000000
00010000
00000000
,
00000010
00000000
00000000
00001000
00000100
00000000
00000001
00000000
00000100
00000000
00010000
00000000
00001000
00000000
00100000
00000000
,
00010000
01000000
00001000
00010000
00000010
00000000
00001000
00000100
00010000
00001000
00100000
00000000
00010000
01000000
00100000
00000000
,
10000000
00000000
00000000
00010000
00100000
00000000
01000000
00000000
00010000
00001000
00000000
00100000
00010000
00000000
01000000
00000000
,
00001000
00000000
00010000
00000010
00001000
00000000
00000100
00000000
00001000
00000010
00010000
00000000
00002000
00000000
00003020
00000000
,
00000031
00000000
00000000
00000000
00000000
00000000
00000000
00000000
00000000
00000000
00000000
00000000
00000100
00000000
00000000
00000000
00000000
00000000
00000000
00000001
00000000
00000000
00000000
00000000
00000100
00000000
00000000
00000000
00000000
00000000
00000000
00000000
00000000
00000000
00000000
00000000
00001000
00000000
00000000
00000000
00000000
00000000
00000000
00000100
00000000
00000000
00000000
00000000
00001000
00000000
00000000
00000000
00000000
00000000
00000000
00000000
00000000
00000000
00000000
00000000
00010000
00000000
00000000
00000000
00000000
00000000
00000000
00001000
00000000
00000000
00000000
00000000
00010000
00000000
00000000
00000000
00000000
00000000
00000000
00000000
00000000
00000000
00000000
00000000
00100000
00000000
00000000
00000000
00000000
00000000
00000000
00000000
00000000
00000000
00000000
00000000
,
02100000
00000000
00000000
00010000
00000000
00000000
00001000
00000000
00000000
00010000
00000000
00000000
03100000
00000000
00000000
00000000
,
10000000
01000000
00000000
01000000
00010000
00000000
00001000
00000010
00000000
00000010
00000001
00000000
00002000
00000000
00000000
00000000
,
00003001
00000100
00000000
00000100
00001000
00000000
00010000
00100000
00000000
00100000
10000000
00000000
00020000
00000000
00000000
00000000
,
10030000
01000000
00000000
01000000
00010000
00000000
00001000
00000010
00000000
00000010
00000001
00000000
00002000
00000000
00000000
00000000
,
00003001
00000000
00000000
00000100
00000000
00000000
00001000
00000000
00000000
00010000
00000000
00000000
00001000
00000000
00000010
00000000
,
00000001
00000100
00000000
00000100
00001000
00000000
00010000
01000000
00000000
01000000
10000000
00000000
00200000
00000000
00000000
00000000
,
10300000
01000000
00000000
01000000
00010000
00000000
00001000
00000100
00000000
00000100
00000001
00000000
00000020
00000000
00000000
00000000
,
00000031
00000100
00000000
00000100
00001000
00000000
00010000
01000000
00000000
01000000
10000000
00000000
00200000
00000000
00000000
00000000
,
10300000
00000000
00000000
01000000
00000000
00000000
00010000
00000000
00000000
00001000
00000000
00000000
00100000
00000000
00000000
00000000
,
00020000
10000000
00001000
10030000
,
00010000
00100000
00001000
00000010
00000100
00010000
00000010
00000000
,
00002000
00000001
00010000
00003001
,
00001000
00000010
00010000
00100000
01000000
00010000
10000000
10000000
,
02000000
00001000
10000000
03001000
,
01000000
00100000
00001000
00000010
00000100
00010000
00001000
00000000
,
00000200
00020300
02030000
03002000
,
00103000
00010000
00001000
00000100
00010000
00001000
00011000
00000000
,
00000010
00000100
00000000
00000010
00001000
00000000
00010000
01000000
00000000
00100000
01000000
00000000
00010000
00000000
00010000
00000000
,
00100000
01000000
00000000
00100000
00010000
00000000
00001000
00000100
00000000
00000010
00000100
00000000
00001000
00000001
00001000
00000000
,
00000010
00000100
00000000
00000010
00001000
00000000
00010000
01000000
00000000
00100000
01000000
00000000
00010000
10000000
00010000
10000000
,
00020000
00000000
00100000
00000000
00000000
00100000
00030000
00000000
00010000
01000000
00000000
00001000
00010000
00001000
00010000
00001000
,
00010000
00000000
00000000
00010000
00000100
00001000
00000100
00000000
00000110
00000000
00000000
00000110
00000000
00000100
00010000
00000000
,
00001000
00000010
00000001
00000010
00001000
00000000
00010000
00100000
10000000
00100000
00010000
00000000
00000000
00000000
00011000
00000000
,
01000000
00000000
00000000
01000000
00010000
00000000
00100000
00000000
00001000
00010000
00000000
00001000
01000000
00000000
00010000
00000000
,
10000000
01000000
00100000
01000000
00010000
00000000
00001000
00000010
00000000
00000100
00000010
00000000
00000001
00000000
00000101
00000000
,
00001000
00000000
00000000
00000010
00010000
00000000
00001000
00000000
00100000
00010000
00000000
01000000
00010000
00000000
00100000
00000000
,
01000000
00000000
00010000
00001000
00100000
00000000
00010000
00000000
00100000
00001000
00010000
00000000
01000000
00000000
10000000
00000000
,
00100000
00000000
00000000
10000000
01000000
00000000
00010000
00000000
00001000
00000000
00001000
00000000
00001000
00000000
00000000
00000000
,
00000110
00000000
00000000
00001000
00000001
00000000
00000010
00000100
00000000
00001000
00000100
00000000
00010000
00001000
00010000
00000000
,
00100000
00000000
00000000
01000000
00001000
00000000
00010000
00000000
00100000
10000000
00000000
00010000
10000000
00000000
01000000
00000000
,
00010000
00000000
00001000
00000010
00000100
00000000
00010000
00000000
00000100
00000010
00001000
00000000
00010000
00000000
00000010
00000000
,
00001000
00000000
00000000
00000001
00000100
00000000
00001000
00000000
00010000
00000000
00100000
00000000
10000000
00000000
00010000
00000000
,
00100000
00010000
01000000
00001000
00010000
00000000
00000010
00001000
00000100
00010000
00001000
00000000
00100000
00000000
00110000
00000000
,
20000000
00000000
00000000
00000000
00000000
00000000
00000000
00000000
00000000
00000000
00000000
00000000
00000000
00000000
00000000
00000000
00000000
00000000
00000000
00000000
00000000
00000000
00000000
00000000
31000000
00000000
00000000
00000000
00000000
00000000
00000000
00000000
00000000
00000000
00000000
00000000
00010000
00000000
00000000
00000000
00000000
00000000
00000000
01000000
00000000
00000000
00000000
00000000
00010000
00000000
00000000
00000000
00000000
00000000
00000000
00000000
00000000
00000000
00000000
00000000
00001000
00000000
00000000
00000000
00000000
00000000
00000000
00010000
00000000
00000000
00000000
00000000
00001000
00000000
00000000
00000000
00000000
00000000
00000000
00000000
00000000
00000000
00000000
00000000
00000010
00000000
00000000
00000000
00000000
00000000
00000000
00001000
00000000
00000000
00000000
00000000
,
00000010
00000000
00000000
00000000
00000000
00000000
00000000
00000000
00000000
00000000
00000000
00000000
00000001
00000000
00000000
00000000
00000000
00000000
00000000
00000010
00000000
00000000
00000000
00000000
00000001
00000000
00000000
00000000
00000000
00000000
00000000
00000000
00000000
00000000
00000000
00000000
00000100
00000000
00000000
00000000
00000000
00000000
00000000
00000001
00000000
00000000
00000000
00000000
00000100
00000000
00000000
00000000
00000000
00000000
00000000
00000000
00000000
00000000
00000000
00000000
00001000
00000000
00000000
00000000
00000000
00000000
00000000
00000100
00000000
00000000
00000000
00000000
00001000
00000000
00000000
00000000
00000000
00000000
00000000
00000000
00000000
00000000
00000000
00000000
00010000
00000000
00000000
00000000
00000000
00000000
00000000
00000000
00000000
00000000
00000000
00000000
,
00101000
00000000
00000000
01010000
00000000
00000000
00101000
00000000
00000000
00010010
00000000
00000000
00001100
00000000
00000110
00000000
,
00000010
00000000
00000001
00001000
00000010
00000000
00010000
00000000
00001000
00100000
00010000
00000000
22000000
00000000
00000000
00000000
,
33000000
00000000
00000000
00000000
;
