#VERSION:0.83;
#TITLE:Revolution;
#SUBTITLE:;
#ARTIST:BilliumMoto;
#TITLETRANSLIT:;
#SUBTITLETRANSLIT:;
#ARTISTTRANSLIT:;
#GENRE:;
#CREDIT:;
#MUSIC:Revolution.ogg;
#BANNER:Revolution.png;
#BACKGROUND:Revolution-bg.png;
#CDTITLE:;
#SAMPLESTART:39.331;
#SAMPLELENGTH:19.234;
#SELECTABLE:YES;
#OFFSET:-0.001;
#BPMS:0.000=209.000;
#STOPS:;
#BGCHANGES:3.750=Revolution.avi=1.000=1=0=0=StretchNoLoop==CrossFade==,
99999.000=-nosongbg-=0.000=0=0=0=StretchNoLoop====
;
#FGCHANGES:;

//--------------- dance-single - chronon ----------------
#NOTEDATA:;
#STEPSTYPE:dance-single;
#DESCRIPTION:chronon;
#DIFFICULTY:Beginner;
#METER:5;
#RADARVALUES:0,0,0,0,0;
#NOTES:
0000
0000
0000
0000
,
0000
0000
0000
0000
,
0000
0000
0000
0000
,
0000
0000
0000
0000
,
0000
0000
0000
0000
,
0000
0000
0000
0000
,
0000
0000
0000
0000
,
1000
0000
0001
0000
,
1000
0000
0100
0000
,
0010
0000
0001
0000
,
1000
0000
0001
0000
,
1001
0000
0000
0000
,
0001
0000
0100
0000
,
0010
0000
0000
0000
,
1000
0000
0100
0000
,
0010
0000
0000
0000
,
0001
0000
0000
0000
,
1000
0000
0000
0000
,
0000
0000
0000
0000
,
0002
0000
0003
0000
,
0200
0000
0300
0000
,
0020
0000
0030
0000
,
0001
0000
0010
0000
,
0100
0000
0000
0000
,
1000
0000
0100
0000
,
0010
0000
0000
0000
,
1000
0000
0000
0000
,
0002
0000
0003
0000
,
0020
0000
0030
0000
,
0200
0000
0300
0000
,
0001
0000
0100
0000
,
0010
0000
0000
0000
,
1000
0000
0010
0000
,
0200
0000
0000
0000
,
0300
0000
0000
0000
,
1000
0000
0001
0000
,
1000
0000
0010
0000
,
1000
0000
0001
0000
,
1000
0000
0100
0000
,
1000
0000
0001
0000
,
1000
0000
0010
0000
,
1000
0000
0001
0000
,
0010
0000
0100
0000
,
0010
0010
0010
0000
,
0001
0000
1000
0000
,
0010
0010
0010
0000
,
1000
0000
0001
0000
,
0010
0010
0010
0000
,
0001
0000
1000
0000
,
0010
0010
0010
0000
,
1000
0000
0001
0000
,
2000
0000
0000
0000
,
0000
0000
0000
0000
,
0000
0000
3000
0000
,
0000
0000
0000
0000
,
1001
0000
0000
0000
,
0000
0000
0000
0000
,
0000
0000
0000
0000
,
0000
0000
0000
0000
,
0000
0000
0000
0000
,
0000
0000
0000
0000
,
0000
0000
0000
0000
,
0000
0000
0000
0000
,
1000
0000
0000
0000
,
0100
0000
0000
0000
,
0010
0000
0000
0000
,
0001
0000
0000
0000
,
1000
0000
0010
0000
,
0100
0000
0001
0000
,
2000
0000
0000
0000
,
0000
0000
0000
3000
,
0001
0000
0000
0000
,
0000
0000
0000
0000
,
0000
0000
0000
0000
,
0000
0000
0000
0000
,
1000
0000
0000
0000
,
0000
0000
0000
0000
,
0002
0000
0000
0000
,
0003
0000
0000
0000
,
0001
0001
0001
0001
,
0000
0000
0000
0000
,
1000
1000
1000
1000
,
0000
0000
0000
0000
,
0100
0100
0100
0100
,
0000
0000
0000
0000
,
0020
0000
0000
0000
,
0030
0000
0000
0000
,
0001
0000
1000
0000
,
0001
0000
0100
0000
,
0001
0000
1000
0000
,
0001
0000
0010
0000
,
0001
0000
1000
0000
,
0001
0000
0100
0000
,
0001
0000
1000
0000
,
0100
0000
0010
0000
,
0100
0100
0100
0000
,
1000
0000
0001
0000
,
0100
0100
0100
0000
,
0001
0000
1000
0000
,
0100
0100
0200
0300
,
1000
0001
1000
0001
,
1000
1000
1000
0000
,
0001
0001
0001
0000
,
0100
0100
0100
0000
,
0010
0010
0020
0000
,
0000
0000
0000
0000
,
0000
0000
0030
0000
;

//--------------- dance-single - chronon ----------------
#NOTEDATA:;
#STEPSTYPE:dance-single;
#DESCRIPTION:chronon;
#DIFFICULTY:Easy;
#METER:9;
#RADARVALUES:0,0,0,0,0;
#NOTES:
0000
0000
0000
0000
,
0000
0000
0000
0000
,
0000
0000
0000
0000
,
0000
0000
0000
0000
,
0000
0000
0000
0000
,
0000
0000
0000
0000
,
0000
0000
0000
0000
,
1000
0001
1000
0100
,
0002
0103
0010
0000
,
2000
3010
0100
0000
,
1000
0001
1000
0010
,
1000
0010
0100
0000
,
0002
0000
0023
0000
,
0230
0000
0001
0000
,
2300
0000
3020
0000
,
0130
0010
1000
0000
,
0001
0010
0100
0000
,
1000
0010
0200
0000
,
0000
0000
0300
0000
,
0001
0100
0000
0000
,
0010
0100
0000
0000
,
1000
0000
0100
0000
0010
0000
0000
0002
,
0000
0013
0000
0100
0020
0000
2030
0000
,
3002
0000
0013
0000
0100
0000
0000
0002
,
0000
0103
0000
0010
0200
0000
2300
0000
,
3002
0000
0100
0000
2003
0000
0000
3020
,
0000
0130
0010
1000
,
0001
0010
0100
0000
,
0100
0010
1000
0000
,
1000
0000
0010
0000
0100
0000
0000
0002
,
0000
0103
0000
0010
0200
0000
2300
0000
,
3001
1000
0001
0100
,
0001
0100
0010
1000
,
0001
0100
0010
0110
,
2002
0000
3003
0000
,
2000
0001
3010
1000
,
0100
0000
0010
0000
0001
1000
0001
0000
,
0002
1000
0103
0001
,
0010
0000
0100
0000
1000
0001
1000
0000
,
2000
0001
3010
1000
,
0100
0000
0010
0000
0001
1000
0001
0000
,
0002
1000
0103
0010
,
1000
0001
1000
0100
,
0010
1002
0103
0120
,
0031
0010
0100
0001
,
0100
1002
0013
0120
,
1030
0010
0100
1000
,
0100
2001
3010
0210
,
1300
0100
0010
1000
,
0010
2001
3100
0120
,
1030
0000
0020
0000
,
0032
0000
0000
0000
,
0000
0000
2003
0000
,
3020
0000
0030
0000
,
2000
3020
0230
0302
,
0023
0000
0000
0000
,
0230
0000
0000
2300
,
0000
0000
0000
3002
,
0203
0320
0000
0032
,
0000
0023
2030
3002
,
0023
0000
0000
2030
,
0000
3020
0032
2003
,
3020
0000
0000
0000
,
1030
0000
1000
0000
,
0001
0000
0001
0000
,
0010
0000
0010
0000
,
0100
0000
0100
0000
,
1000
0001
1000
0000
,
0010
0100
0010
0000
,
2000
0000
3200
0000
,
0320
0000
0032
0000
,
2003
0000
0000
0000
,
0000
0000
0000
0000
,
3002
0000
0000
0000
,
0000
0000
0000
0000
,
2003
0000
0000
0000
,
0000
0000
0000
0000
,
3002
0000
0000
0000
,
0003
0000
0000
0000
,
0001
0102
1003
1100
,
0000
0000
0000
0000
,
1000
2100
3001
0101
,
0000
0000
0000
1001
,
0001
0012
1003
1010
,
0010
0110
0000
0000
,
0000
0100
0010
0110
,
2002
0000
3003
0000
,
0002
1000
0103
0001
,
0010
0000
0100
0000
1000
0001
1000
0000
,
2000
0001
3010
1000
,
0100
0000
0010
0000
0001
1000
0001
0000
,
0002
1000
0103
0001
,
0010
0000
0100
0000
1000
0001
1000
0000
,
2000
0001
3010
0100
,
0001
1000
0001
0010
,
0100
2001
3010
0210
,
1300
0100
0010
1000
,
0010
2001
3100
0210
,
0301
0100
0010
0001
,
0010
1002
0203
0310
,
1000
0010
0100
0001
,
1000
0100
0001
0010
,
1000
0100
0001
0010
,
1000
0100
0001
0010
,
1000
0100
0001
0020
,
0000
0000
0000
0000
,
0000
0000
0030
0000
;

//--------------- dance-single - chronon ----------------
#NOTEDATA:;
#STEPSTYPE:dance-single;
#DESCRIPTION:chronon;
#DIFFICULTY:Medium;
#METER:12;
#RADARVALUES:0,0,0,0,0;
#NOTES:
0000
0000
0000
0000
,
0000
0000
0000
0000
,
0000
0000
0000
0000
,
0000
0000
0000
0000
,
0000
0000
0000
0000
,
0000
0000
0000
0000
,
0000
0000
0000
0000
,
0001
1000
0001
1000
0001
0000
0010
0000
,
2000
0000
3010
0100
1000
0000
0010
0000
,
0002
0000
0013
0100
0001
0000
1000
0000
,
0001
1000
0001
0100
0001
0000
0100
0000
,
0020
0000
0130
0010
1000
0000
0000
0100
,
0020
0000
0031
1000
0000
0001
0100
0000
,
0010
0100
0001
0000
0020
0230
0000
0310
,
0200
0000
1300
0001
0000
1000
0010
0000
,
0100
0000
0010
0100
0001
0000
0000
0100
,
0001
1000
0100
0000
0010
0000
0100
1000
,
0001
0100
0010
0000
2002
0000
0000
0000
,
0000
0000
3003
0000
,
1000
0100
1000
0100
0000
0000
0000
0000
,
0010
0100
0010
0100
0000
0000
0000
0000
,
1000
0000
0001
0000
0100
0000
0000
2000
,
0000
3100
0000
0010
0200
0000
0302
0000
,
2003
0000
3100
0000
0010
0000
0000
2000
,
0000
3010
0000
0100
0020
0000
0032
0000
,
2003
0000
0010
0000
3002
0000
0000
0203
,
0000
0310
0100
0100
,
0001
0100
0001
0100
0010
0000
0000
0000
,
0010
0100
0010
0100
0001
0000
1000
0000
,
1000
0000
0100
0000
0010
0100
0000
0002
,
0000
0103
0000
0010
0200
0000
2300
0000
,
3002
1003
0002
0103
,
0002
0000
0013
0000
0100
1000
0001
1000
,
0010
1010
0110
0101
,
2002
0000
3003
0000
,
0001
0020
1000
0130
,
0010
0000
0001
0000
1000
0001
1000
0000
,
0001
0200
1000
0310
,
0100
0000
0001
0000
1000
0001
1000
0000
,
0001
0020
1000
0130
,
0010
0000
0001
0000
1000
0001
1000
0000
,
0001
0000
0200
0000
1000
0000
0310
0100
,
0001
1000
0001
0000
0010
0100
1000
0000
,
1100
0101
1100
0101
,
0001
0100
0010
1000
,
1010
0011
1010
0011
,
0001
0010
0100
1000
,
1100
0101
1100
0101
,
0001
0100
0010
1000
,
1010
1001
1100
1001
,
1020
0000
0230
0000
,
0302
0000
0000
0000
,
0000
0000
0203
0000
,
0320
0000
0000
0000
1030
0001
1000
0000
,
0200
0320
0032
2003
,
3002
0000
0000
0000
,
0203
0000
0000
0320
,
0000
0000
0000
2030
,
3002
0023
0000
2030
,
0000
3020
0032
2003
,
3020
0000
0000
0032
,
0000
0023
2030
3002
,
0023
0230
2300
3002
,
1003
1000
0010
0000
,
0010
0010
0100
0000
,
0100
0100
0001
0000
,
0001
0001
1000
0000
,
1000
0001
0100
0001
,
1000
0001
0010
0001
,
2000
0000
0001
0000
,
0100
0000
0020
3030
,
0010
1000
0100
0000
,
1000
0001
1000
0010
,
0100
0001
0010
0000
,
0001
1000
0001
0100
,
0010
1000
0100
0000
,
1000
0001
1000
0010
,
0100
0001
0020
0000
,
0031
0000
0000
0000
,
0011
1010
1100
0101
,
0000
0000
0000
0000
,
0101
1100
1010
0011
,
0000
0000
0000
1001
,
1010
0011
0101
1100
,
0110
1001
0000
0000
,
0000
0101
0110
1010
,
2002
0000
3003
0000
,
1000
0200
0001
0310
,
0100
0000
1000
0000
0001
1000
0001
0000
,
1000
0020
0001
0130
,
0010
0000
1000
0000
0001
1000
0001
0000
,
1000
0200
0001
0310
,
0100
0000
1000
0000
0001
1000
0001
0000
,
1000
0000
0020
0000
0001
0000
0130
0010
,
1000
0001
1000
0000
0100
0010
0001
0000
,
0011
1010
0011
1010
,
1000
0010
0100
0001
,
0101
1100
0101
1100
,
1000
0100
0010
0001
,
0011
1010
0011
1001
,
1000
0010
0100
0001
1000
0001
1000
0000
,
1100
0101
0011
1100
,
0110
1001
0110
1001
,
0101
1100
1010
0011
,
0110
1001
0220
0000
,
0000
0000
0000
0000
,
0000
0000
0330
0000
;

//--------------- dance-single - chronon ----------------
#NOTEDATA:;
#STEPSTYPE:dance-single;
#DESCRIPTION:chronon;
#DIFFICULTY:Hard;
#METER:15;
#RADARVALUES:0,0,0,0,0;
#NOTES:
0000
0000
0000
0000
,
0000
0000
0000
0000
,
0000
0000
0000
0000
,
0000
0000
0000
0000
,
0000
0000
0000
0000
,
0000
0000
0000
0000
,
0000
0000
0000
0000
,
1000
0001
1000
0001
1000
0000
0200
0000
,
0302
0000
0103
0010
0001
0000
0100
0000
,
2000
0000
3100
0010
1000
0000
0001
0000
,
1000
0001
1000
0010
1000
0000
0100
0000
,
1100
1000
0100
0010
0001
0000
0010
0001
,
0200
0000
0310
0100
0000
0100
0001
0000
,
1000
0100
0010
0000
0020
0230
0000
1300
,
0020
0000
0130
0010
0000
0010
1000
0000
,
0001
0010
0100
0010
0001
0000
1000
0001
,
0100
0010
0200
0000
0010
0000
0301
1000
,
0100
0010
0100
0000
2002
0000
0000
0000
,
0000
0000
3003
0000
,
0001
0100
0001
0100
0000
0000
0000
0000
,
0010
0100
0010
0100
0000
0000
0000
0000
,
0001
0000
1000
0000
0010
0100
0000
2000
,
0000
3100
0000
0001
0020
0000
0230
0000
,
2300
0000
3100
0000
0010
0100
0000
0002
,
0000
0103
0000
1000
0020
0000
0230
0000
,
0302
0000
0010
0000
1003
0020
0000
0230
,
0000
0000
0302
0000
1003
0100
0010
0100
,
1000
0100
1000
0100
0020
0000
0100
0000
,
0031
0100
0001
0100
0020
0000
0100
0000
,
1030
0000
0001
0000
0100
0010
0000
0002
,
0000
0013
0000
1000
0200
0000
0320
0000
,
0032
1003
0002
0103
,
0001
0100
0010
1000
0001
0010
0100
1000
,
0010
1010
0110
0101
,
2002
0000
3003
0000
,
0012
1000
0103
0010
,
1000
0001
1000
0100
0001
0100
1000
0100
,
2100
0001
3010
0100
,
0001
1000
0001
0010
1000
0010
0001
0010
,
0012
1000
0103
0010
,
1000
0001
1000
0100
0001
0100
0010
0100
,
0120
0000
0100
0000
0031
0000
1000
0001
,
1000
0010
0100
0001
1000
0100
0010
0001
,
0011
1010
0011
1010
,
1000
0010
0100
0010
0001
0010
1000
0010
,
1010
0011
1010
0011
,
0001
0010
0100
0010
1000
0010
0001
0010
,
0011
1010
0011
1010
,
1100
0000
0101
0000
1100
1000
0010
0000
,
1010
0011
1010
0011
,
0201
0000
0000
0000
0310
0100
0001
1000
,
0002
0000
0000
0000
,
0000
0000
0023
0000
,
0230
0000
0000
0000
1300
0001
1000
0000
,
0020
0230
0302
2003
,
3002
0000
0000
0000
,
0023
0000
0000
0230
,
0000
0000
0000
2300
,
3002
0203
0000
2300
,
0000
3200
0302
2003
,
3200
0000
0000
0302
,
0000
0203
2300
3002
,
0203
0320
2030
3002
,
2003
0010
0010
0001
,
3002
0010
0010
1000
,
2003
0100
0100
0001
,
3002
0100
0100
1000
,
1003
0100
0010
0001
,
1000
0010
0100
0001
,
2000
0000
0001
0000
,
0010
0000
0200
3300
,
0100
1000
0010
0000
,
1000
0001
1000
0100
,
0010
0001
0100
0000
,
0001
1000
0001
0010
,
0100
1000
0010
0000
,
1000
0001
1000
0100
,
0010
0001
0200
0000
,
0301
0000
0100
0010
1000
0001
1000
0100
,
1100
0101
0011
1010
,
1000
0010
0100
0001
0010
0100
0010
0001
,
0011
1010
1100
0101
,
0001
0100
0010
1000
0100
1000
1100
0000
,
0101
0011
1010
1100
,
0101
0011
1000
0001
,
0100
0101
0110
1010
,
2002
0000
3003
0000
,
0102
1000
0013
0100
,
1000
0001
1000
0010
0001
0010
1000
0010
,
2010
0001
3100
0010
,
0001
1000
0001
0100
1000
0100
0001
0100
,
0102
1000
0013
0100
,
1000
0001
1000
0010
0001
0010
0100
0010
,
0210
0000
0010
0000
0301
0000
1000
0001
,
1000
0100
0010
0001
1000
0010
0100
0001
,
0101
1100
0101
1100
,
1000
0100
0010
0100
0001
0100
1000
0100
,
1100
0101
1100
0101
,
0001
0100
0010
0100
1000
0100
0001
0100
,
0101
0000
1100
0000
1001
0001
1000
0000
,
0100
0100
0010
0010
0001
0001
1000
0010
,
1010
0011
0101
1100
,
0101
0011
1010
1100
,
1010
0011
0101
1100
,
0101
0011
2020
0000
,
0000
0000
0000
0000
,
0000
0000
3030
0000
;
