#VERSION:0.83;
#TITLE:RINИE;
#SUBTITLE:;
#ARTIST:GeMiNioИ;
#TITLETRANSLIT:RINNE;
#SUBTITLETRANSLIT:;
#ARTISTTRANSLIT:GeMiNioN;
#GENRE:SYMPHONIC SAVIOR;
#CREDIT:;
#MUSIC:RINNE.ogg;
#BANNER:RINNE.png;
#BACKGROUND:RINNE-bg.png;
#CDTITLE:./CDTitles/pnm Lapistoria.png;
#SAMPLESTART:58.931;
#SAMPLELENGTH:15.000;
#SELECTABLE:YES;
#OFFSET:-0.029;
#BPMS:0.000=198.000;
#STOPS:328.500=0.606;
#TIMESIGNATURES:0.000=4=4,
328.000=2=4,
330.000=4=4
;
#BGCHANGES:0.000=../BGAs/19cy.mp4=1.000=0=0=0=StretchNoLoop====,
99999.000=-nosongbg-=1.000=0=0=0=StretchNoLoop====
;
#FGCHANGES:;

//--------------- dance-single - forcednature ----------------
#NOTEDATA:;
#STEPSTYPE:dance-single;
#DESCRIPTION:forcednature;
#DIFFICULTY:Beginner;
#METER:5;
#RADARVALUES:0,0,0,0,0;
#CREDIT:forcednature;
#NOTES:
0000
0000
0000
0000
,
0000
0000
0000
0000
,
0000
0000
0000
0000
,
0000
0000
0000
0000
,
1000
0000
0000
0100
,
0000
0000
0010
0000
,
0000
0001
0000
0000
,
1001
0000
0000
0000
,
0000
0000
0000
0000
,
0220
0000
0000
0000
,
0000
0000
0000
0000
,
0000
0000
0000
0000
,
0000
0000
0330
0000
,
0001
0000
0001
0000
,
0001
0000
0000
0000
,
1000
0000
1000
0000
,
1000
0000
0000
0000
,
2002
0000
0000
0000
,
0000
0000
0000
0000
,
0000
0000
0000
0000
,
0000
0000
3003
0000
,
0010
0000
0010
0000
,
0100
0000
0000
0000
,
0100
0000
0100
0000
,
0010
0000
0000
0000
,
1000
0000
1000
0000
,
0100
0000
1000
0000
,
0010
0000
0010
0000
,
1000
0000
0000
0000
,
0001
0000
0001
0000
,
0100
0000
0001
0000
,
0010
0000
0100
0000
,
1000
0000
2002
0000
,
0000
0000
3003
0000
,
0001
0000
0001
0100
,
0001
0000
0000
0000
,
1000
0000
1000
0010
,
1000
0000
0000
0000
,
0001
0000
0001
0000
,
1000
0000
1000
0000
,
0010
0000
0100
0000
,
2002
0000
3003
0000
,
0001
0000
0100
0000
,
0010
0000
0010
0000
,
1000
0000
0100
0000
,
0010
0000
0010
0000
,
0001
0000
0100
0000
,
0000
0110
0000
0000
,
2002
0000
3003
0000
,
1001
0000
0000
0000
,
1000
0000
0010
0000
,
0100
0000
0001
0000
,
1000
0000
0000
0000
,
0001
0000
0000
0010
,
0000
0000
0100
0000
,
1000
0000
0001
0000
,
0010
0010
0010
0000
,
1001
0000
0000
0000
,
0001
0000
0100
0000
,
0010
0000
1000
0000
,
0001
0000
0000
0000
,
1000
0000
0000
0010
,
0000
0000
0100
0000
,
0001
0000
1000
0001
,
1000
0000
0010
0000
,
0110
0000
0000
0000
,
0001
0000
0000
0000
,
1000
0000
0000
0000
,
0010
0000
0000
0000
,
1000
0000
0000
0000
,
0100
0000
0000
0000
,
0010
0000
0000
0000
,
0001
0000
0000
0000
,
0100
0000
0100
0000
,
0001
0000
0000
0000
,
1000
0000
1000
0000
,
0010
0000
0000
0000
,
1000
1000
0000
0000
,
0001
0001
0000
0000
,
0100
0000
0010
0000
,
0000
0110
0000
0000
,
2002
0000
0000
0000
,
0000
3003
0000
0000
1000
0000
0000
0000
,
0100
0000
1000
0000
,
0001
0000
0010
0000
,
0000
0001
0000
0000
,
0100
0000
0001
0000
,
1000
0000
0010
0010
,
0010
0000
1001
0000
,
1000
0100
1000
0000
,
0100
0010
0100
0000
,
0010
0001
0010
0000
,
0001
0000
0100
0000
,
0000
0010
0000
0000
,
1000
0000
0001
0000
,
0010
0000
0100
0100
,
0100
0000
1001
0000
,
0000
0000
0001
0000
,
0100
0000
0001
0000
,
1000
0000
0100
0000
,
1000
0010
0000
0000
;

//--------------- dance-single - forcednature ----------------
#NOTEDATA:;
#STEPSTYPE:dance-single;
#DESCRIPTION:forcednature;
#DIFFICULTY:Easy;
#METER:9;
#RADARVALUES:0,0,0,0,0;
#CREDIT:forcednature;
#NOTES:
0000
0000
0000
0000
,
0000
0000
0000
0000
,
0000
0000
0000
0000
,
0000
0000
0000
0000
,
1000
0100
0010
0100
,
0010
0000
0001
0000
1000
0000
0000
0010
,
0000
0000
0100
0000
0000
0001
0000
0000
,
2002
0000
0000
0000
,
0000
0000
3003
0000
,
0220
0000
0000
0000
,
0000
0000
0000
0000
,
0000
0000
0000
0000
,
0000
0000
0000
0000
0330
0000
0000
1001
,
0000
0001
0010
0001
,
0100
0001
0010
0001
,
0000
1000
0010
1000
,
0001
0000
1000
0000
0001
0001
0000
0000
,
2002
0000
0000
0000
,
0000
0000
0000
0000
,
0000
0000
0000
0000
,
0000
0000
0000
0000
3003
0000
0000
0110
,
0000
1000
0010
1000
,
0100
1000
0010
1000
,
0000
0001
0010
0001
,
0100
0000
0010
0000
0100
0010
0000
1001
,
0000
1000
0100
0010
,
0100
1000
0100
0010
,
0001
0100
0010
0100
,
0001
1000
0010
0000
,
1000
0001
0010
0100
,
0010
0001
1000
0010
,
0100
0000
0000
0001
0000
0000
1000
0000
,
0000
0010
0000
0000
2002
0000
0000
0000
,
0000
0000
0000
0000
0000
3003
0000
0110
,
0000
0001
0100
1000
,
0100
0000
0001
0000
1000
0000
0000
0110
,
0000
1000
0100
0001
,
0100
0000
1000
0000
0001
0000
0000
0110
,
0000
0000
0001
0000
0010
0001
0000
1001
,
0000
0000
1000
0000
0010
1000
0000
0001
,
0000
0000
0010
0000
0000
0100
0000
0000
,
2002
0000
0000
3003
,
1000
0010
0100
0010
,
1000
0000
0001
0100
0000
0001
2000
0000
,
3000
0001
0010
0100
,
0010
0000
0001
1000
0000
0100
2000
0000
,
3000
0020
0000
0030
0200
0000
0300
0002
,
0000
0003
0010
0100
0000
0100
0000
1000
,
0002
0000
0003
0000
,
0110
1000
0001
0010
,
1001
0100
1001
0010
,
1000
0001
0100
0010
,
1000
0000
0100
0000
1000
0001
1000
0000
,
0010
0000
0000
0100
0000
0000
0001
0000
,
0000
1000
0000
0000
0010
0000
0100
0010
,
0100
0000
0001
0000
0010
0000
0100
1000
,
0000
1000
0000
0010
0000
0000
0000
0000
,
0110
1000
0001
0010
,
1001
0100
1001
0010
,
0001
1000
0010
0100
,
0001
0000
0010
0000
0001
1000
0001
0000
,
0100
0000
0000
0010
0000
0000
1000
0000
,
0000
0001
0000
0000
0100
0010
0100
0000
,
0110
0000
0010
0000
1000
0000
0001
0010
,
0000
0100
0000
1000
0000
0010
0000
0220
,
0000
0000
0000
0000
0030
0000
0000
0002
,
0000
0000
0000
0000
0300
0000
0000
2000
,
0000
0000
0000
0000
0003
0000
0000
0020
,
0000
0000
3030
0000
1000
0000
0000
0200
,
0000
0000
0010
0000
0010
0000
0000
2300
,
0000
0000
0001
0000
0001
0000
0000
3020
,
0000
0000
0100
0000
0130
0000
0000
2002
,
0000
0000
3003
0000
1000
0000
1000
0010
,
0000
0000
0100
0000
0001
0000
0001
0010
,
0000
0000
0100
0000
1000
0000
1000
0001
,
0000
0000
0100
0000
0010
0000
0010
1000
,
0000
0000
0001
0000
0010
0000
0000
0011
,
0000
0000
1100
0000
0000
0000
0000
1010
,
0000
0000
0101
0000
0000
0000
0000
0110
,
0000
0000
1001
0000
0000
1001
0000
0000
,
0110
0000
0000
2002
0000
3003
0000
0000
,
0220
0000
0000
0330
,
1000
0000
0002
0003
0000
0000
0000
0000
0010
0000
0000
0000
0100
0000
0000
0000
,
1000
0100
1000
0000
0001
0000
0010
0000
,
0001
0000
1000
0000
0010
0000
0000
0100
,
0000
0000
0001
0000
0000
1000
0000
0000
,
0010
0000
0100
0010
0100
0000
0001
0000
,
1000
0000
0100
0010
0000
0001
0000
1000
,
0000
0010
0110
0100
,
0001
0100
0001
0000
1000
0000
0010
0000
,
1000
0010
1000
0000
0001
0000
0010
0000
,
0001
0010
0001
0000
1000
0000
0100
0000
,
1000
0100
1000
0000
0010
0000
0100
0010
,
0000
0100
0010
0000
1000
0001
0000
1000
,
0001
0010
0110
0100
,
1000
0000
0001
0010
0000
0001
0000
1000
,
0000
0010
0000
0110
0000
0000
0001
0000
,
0100
0001
0100
0000
0001
0000
1000
0000
,
0001
1000
0001
0000
0010
0000
0001
0000
,
0010
0001
0010
0000
0001
0000
1000
0000
,
0001
1000
0010
0100
0000
0000
0000
0000
;

//--------------- dance-single - forcednature ----------------
#NOTEDATA:;
#STEPSTYPE:dance-single;
#DESCRIPTION:forcednature;
#DIFFICULTY:Medium;
#METER:13;
#RADARVALUES:0,0,0,0,0;
#CREDIT:forcednature;
#NOTES:
0000
0000
0000
0000
,
0000
0000
0000
0000
,
0000
0000
0000
0000
,
0000
0000
0000
0000
,
0001
0100
0001
1000
,
0100
0000
1000
0000
1010
0000
0000
0011
,
0000
0000
1001
0000
0000
0110
0000
0000
,
2002
0000
0000
0000
,
0000
0000
3003
0000
,
0002
0000
0010
0000
,
1000
1000
1000
0000
,
0100
0000
1000
0000
,
0010
0000
0010
0000
0010
0013
0000
0001
,
0000
0010
0100
0000
0010
0000
0001
0100
,
0010
0000
1000
0000
0001
0000
1000
0010
,
0000
1000
0100
0000
0010
0000
0100
1000
,
0001
0000
0100
0000
0010
0010
0000
0000
,
2001
0000
0010
0000
,
0001
0001
0001
0000
,
0100
0000
0001
0000
,
0010
0000
0010
0000
0010
3010
0000
1000
,
0000
0010
0100
0000
0010
0000
1000
0100
,
0010
0000
0001
0000
1000
0000
0001
0010
,
0000
0001
0100
0000
0010
0000
0100
0001
,
1000
0000
0100
0000
0010
0010
0000
0110
,
0000
0100
1000
0000
0001
0010
0001
0000
,
1000
0000
0110
0000
0001
0100
0001
0000
,
1000
0000
0110
0000
1000
0100
1000
0000
,
0001
0000
0110
0000
0001
1000
0001
0000
,
0100
0000
1001
0000
1000
0010
0100
0000
,
0001
0000
1001
0000
0001
0010
0001
0000
,
0100
0000
0100
0010
0000
0010
1000
0000
,
1000
0001
0000
0001
0020
0000
0000
0100
,
0000
0000
0100
0000
0000
0031
0000
1001
,
0000
1000
0100
1000
0100
0000
0010
0100
,
0010
0000
0001
0010
0001
0010
0000
1001
,
0000
0001
0100
0001
0100
0000
0010
0100
,
0010
0000
1000
0010
1000
0010
0000
1001
,
0000
1000
0100
0000
0010
0100
0000
1001
,
0000
0001
0100
0000
0010
0100
0010
2000
,
0000
3100
0200
0000
0310
0020
0000
0031
,
0002
0100
1000
0013
,
0011
0101
1000
0101
,
2000
0000
3010
0002
0000
0013
2000
0000
,
3000
1100
0001
1100
,
0002
0000
0013
2000
0000
3010
0002
0000
,
0103
0200
0000
0310
0020
0000
1030
2000
,
0000
3001
0001
0010
0000
0110
0000
0100
,
2000
0000
0000
0000
3000
0010
0100
0001
,
0100
0000
0010
1000
0001
1000
0010
0100
,
0001
0011
1000
1010
,
0001
0010
0100
1000
0000
0100
0010
0001
,
1000
0010
0100
0001
0000
0100
0010
1000
,
0001
0000
0001
0010
0000
0010
1000
0000
,
0010
0001
0000
0001
0100
0010
1000
0200
,
0000
0310
0001
0200
0000
0310
1000
0001
,
0000
0011
0000
1100
0000
0100
1000
0001
,
0100
0000
0010
1000
0001
0010
0100
1000
,
0010
0110
0100
1001
,
1000
0100
0010
0100
0000
1000
0001
0010
,
0000
0001
1000
0010
1000
0000
1000
1000
,
0100
0000
0001
0100
0000
1000
0001
0000
,
0010
1000
0000
0010
0001
1000
1000
0010
,
0100
0000
0001
0010
0000
0100
0000
1100
,
0000
1010
0000
0110
0000
0101
0000
0021
,
0000
0000
0100
0000
,
0000
0000
0000
0000
0100
0030
0000
0001
,
0000
0001
0100
0000
0010
1000
0000
0001
,
0000
0001
0010
0000
0100
1000
0100
0020
,
0000
0000
0001
0000
0001
0000
0000
0230
,
0000
0000
1000
0000
1000
0000
0000
0320
,
0000
0000
0001
0000
0130
0000
0000
2001
,
0000
0000
0010
3000
0001
0100
0001
2000
,
0000
0000
3010
0000
1000
0100
1000
0002
,
0000
0000
0013
0000
0001
0100
0010
2000
,
0000
0000
3100
0000
1000
0010
0100
0002
,
0000
0000
0013
0000
0110
0000
0100
1000
,
0000
1000
0010
0000
0110
0000
0100
0001
,
0000
0001
0010
0000
0110
0000
0100
1000
,
0000
0010
0100
0000
0001
0001
0000
1000
,
1000
0000
0010
0220
0000
0330
0000
0000
,
2002
0000
0000
3003
,
0100
0000
0020
0030
0000
0000
0000
0000
1000
0000
0100
0000
0010
0000
0100
0000
,
0000
1000
0001
0010
0001
1000
0010
1000
,
0001
0000
0001
0100
1000
0000
0100
0001
,
0000
1000
0010
0000
0001
0010
0000
1000
,
0001
0100
0001
0020
0000
0130
1000
0020
,
0000
0130
0001
1000
0000
1100
0000
0011
,
0000
0001
1000
0010
1000
0001
0100
0001
,
0010
0001
0100
0000
0001
1000
0100
1000
,
0010
1000
0100
0000
0010
0001
0100
0001
,
0010
0001
0100
0000
0010
1000
0100
0010
,
0001
0100
0020
0000
1030
0000
0100
0001
,
0000
0100
1000
0000
0001
0010
0000
1000
,
0020
0000
0031
0001
0001
0000
1000
0010
,
0000
0100
0001
1000
0000
1100
0000
0011
,
0000
0110
0000
1001
0000
1000
0001
0001
,
0100
0001
1000
0000
0001
1000
1000
0100
,
1000
0001
0000
0010
0001
0001
0100
0001
,
1000
0000
0010
1000
1000
0001
1000
0100
,
0000
0010
0001
1001
0000
0000
0000
0000
;

//--------------- dance-single - forcednature ----------------
#NOTEDATA:;
#STEPSTYPE:dance-single;
#DESCRIPTION:forcednature;
#DIFFICULTY:Hard;
#METER:16;
#RADARVALUES:0,0,0,0,0;
#CREDIT:forcednature;
#NOTES:
0000
0000
0000
0000
,
0000
0000
0000
0000
,
0000
0000
0000
0000
,
0000
0000
0000
0000
,
1000
0000
1000
0100
0010
0000
0001
0000
,
0001
0100
0010
0000
1010
0000
1000
1100
,
0000
0000
0001
0000
0010
0001
0010
0001
0010
0000
0001
0100
0001
0100
0001
0000
,
0220
0000
0000
0300
,
0000
0000
1030
0000
,
1002
0000
0000
0010
,
0010
0000
1000
1000
0000
0100
0000
0200
,
0000
0000
0000
0003
0000
0000
0010
0000
,
0010
0000
0301
0000
0101
0101
0000
1010
,
0000
1000
0100
0010
0001
0100
0010
1000
,
0100
0010
0001
0100
0010
1000
0100
0001
,
0000
0100
1100
0000
0001
0010
0011
0000
,
0001
0000
0100
0001
0100
0000
0010
1000
0010
0000
1010
0000
0000
0000
0000
0000
,
2001
0000
0000
0010
,
0010
0000
0001
0001
0000
0100
0000
0200
,
0000
0000
0000
3000
0000
0000
0010
0000
,
0010
0000
1300
0000
1100
1100
0000
0011
,
0000
0001
0100
0001
1000
0100
0010
0001
,
0100
0001
1000
0100
0010
0001
0100
1000
,
0000
0100
0101
0000
1000
0010
1010
0000
,
1000
0000
0100
1000
0100
0000
0010
0001
0010
0000
0011
0000
0000
0000
1002
0000
,
0000
0000
0103
0000
1000
0000
0000
0000
0100
0000
0001
0000
1000
0000
0010
1000
,
0010
0100
0001
1000
0100
0000
0110
0000
,
1000
0000
0100
0000
0001
0000
0000
0000
0100
0000
1000
0000
0001
0000
0010
0001
,
0010
0100
1000
0001
0100
0010
0010
0010
,
1000
0000
0000
0000
0101
0000
0000
0000
0100
0000
0001
0000
1000
0000
0100
0010
,
0100
0000
0010
0000
0011
0000
0000
0000
0001
0000
0100
0001
0100
0001
0100
0000
,
0020
0000
1000
2030
0000
0100
3200
0000
,
0310
0110
0000
0100
2002
0000
0000
0000
,
0000
0000
0000
0000
3003
0000
0000
1100
,
0000
0100
0010
0001
0010
1000
0010
0001
,
0010
0000
0100
0000
0010
0000
0001
1000
0001
0000
0100
0000
0010
0000
0110
0000
,
0000
0100
0010
1000
0010
0001
0010
1000
,
0010
0000
0100
0000
0010
0000
1000
0001
1000
0000
0100
0000
0010
0000
0011
0000
,
0000
0001
0100
1000
0100
0001
0000
1010
,
0000
0000
1000
0000
0100
0000
0001
0000
0100
1000
0100
1000
0100
0000
2000
0000
,
0000
3010
0020
0000
0130
0200
0000
0301
,
2001
0000
0010
0010
0010
0000
3100
0000
,
1001
0000
0001
0010
0100
0000
0011
0000
,
0001
0100
1000
0001
0010
1000
0002
0000
,
0000
0003
1000
0010
0100
0000
1010
0000
,
1000
0100
0001
1000
0010
0001
2000
0000
,
3000
0000
0001
0100
0001
0000
0100
0000
0010
1000
0010
0000
1000
0000
0001
0010
,
0001
0010
0100
1100
0000
1010
0000
0110
,
0220
0000
0000
0000
0330
0001
1000
0001
,
1001
0000
1000
0100
0001
0100
0010
0001
,
0100
0001
0100
0001
0100
0000
0001
0000
1000
0010
1000
0010
1000
0000
0000
0000
,
0001
0010
0001
0100
1000
0100
0001
1000
,
0010
0000
0100
0000
0001
0000
1000
0000
0001
0000
0001
0000
0010
0000
0100
1000
,
0200
0000
0000
0000
0310
0000
0011
0000
0000
0000
0100
0001
0200
0000
0000
0000
,
0310
0000
1010
0000
0000
0000
0001
0010
0001
0000
0001
0000
1000
0000
0100
1000
,
0001
0100
0010
2000
0000
3100
0010
0011
,
0000
0000
0101
0000
0000
0000
0110
0000
0000
0000
1000
0001
1000
0000
0001
0000
,
0010
0000
0010
0000
0001
0000
1000
0000
0010
1000
0010
0000
0100
0000
0001
0000
,
1000
0100
1000
0100
1000
0000
0100
0000
0010
0001
0010
0001
0010
0000
0000
0000
,
0001
0000
0100
0000
1000
0000
0100
0000
0001
0100
0001
0000
1000
0000
0010
0000
,
1000
0100
1000
0000
0001
0000
0010
0000
0001
0000
0100
0000
0001
0000
0001
1000
,
0010
0000
1000
0010
1000
0000
0001
0000
0010
0001
0010
0000
0100
0000
1000
0100
,
1000
0000
0001
0000
0100
0001
0100
0000
0010
0000
1000
0001
1000
0001
1000
0000
,
0100
0000
0010
0002
0000
0103
0000
0110
,
0000
1010
0000
1100
0000
1001
0000
0012
,
0000
1000
1000
0000
0100
0000
0000
0100
,
0000
1000
1000
0000
0010
0000
0000
1003
,
0000
0001
0100
0000
0010
0100
0000
0001
,
0000
1000
0010
0000
1000
0100
0001
0200
,
0000
0001
0001
0000
0010
0000
1000
2300
,
0000
0000
0010
0000
3001
0010
0001
0200
,
0000
1000
1000
0000
0010
0310
0000
0102
,
0000
0000
1003
0000
1000
0000
0010
1000
0010
0000
0100
0000
0001
0000
0021
0000
,
0000
0130
1000
0001
0100
0001
1000
0020
,
0000
0130
0001
1000
0100
1000
0001
0200
,
0000
0301
0010
0001
1000
0010
1000
0200
,
0000
0010
0310
0000
0001
1000
0000
0012
,
0000
0000
0100
0000
0103
0000
0000
0000
1000
0010
1000
0000
0010
0000
2000
0000
,
0000
0000
0100
0000
3100
0000
0000
0000
0001
0010
0001
0000
0010
0000
0200
0000
,
0000
1300
1100
0000
0101
0101
0000
0011
,
0011
0000
0110
1001
0000
0100
0010
0100
,
0220
0000
0000
0330
,
1001
0000
2002
3003
0000
0000
0000
0000
1000
0000
0100
0000
0010
0000
0100
0010
,
0001
0000
1000
0000
0010
0000
0100
0000
0001
0000
0010
0000
0100
0000
1000
0001
,
0100
0010
1000
1000
0002
0000
0013
0011
,
0000
0000
1000
0100
2000
0000
0000
0000
3010
0000
1010
0000
0000
0000
0001
0100
,
0001
1000
0100
0110
0000
0001
0100
0110
,
0000
1000
0001
1001
0000
1100
0000
0101
,
0000
0000
0001
1000
0001
1000
0001
0000
0010
0000
0100
0010
0100
0000
1000
0000
,
0010
0000
0100
0001
0100
0000
0010
0000
1000
0000
0001
0010
0100
0000
1000
0000
,
0001
0000
0100
0010
1000
0000
0000
0000
0001
0000
0010
0001
1000
0000
0010
0000
,
0100
0000
0001
1000
0100
0000
0010
0000
0001
0000
0100
0001
0100
0000
0010
0100
,
0010
0000
1000
0000
0001
0000
0001
0000
1000
0000
0001
0010
0001
0000
0010
0000
,
0100
1000
0100
0000
1000
0000
0010
0100
0010
0000
0100
0000
0001
1000
0001
0000
,
1000
0000
0100
0010
0001
0000
0001
0000
1000
0000
0010
0000
0100
0000
0001
0000
,
0000
0010
0100
1100
0000
1010
0000
0110
,
0000
0101
0000
0021
0000
0130
1000
0100
,
0001
0100
1000
0001
0100
1000
0100
0001
,
1000
0010
0001
0010
1000
0001
0010
1000
,
0010
0001
1000
0001
0100
1000
0100
0001
,
1000
0001
0011
0110
0000
0000
0000
0000
;

//--------------- dance-double - forcednature ----------------
#NOTEDATA:;
#STEPSTYPE:dance-double;
#DESCRIPTION:forcednature;
#DIFFICULTY:Easy;
#METER:9;
#RADARVALUES:0,0,0,0,0;
#CREDIT:forcednature;
#NOTES:
00000000
00000000
00000000
00000000
,
00000000
00000000
00000000
00000000
,
00000000
00000000
00000000
00000000
,
00000000
00000000
00000000
00000000
,
00001000
00010000
00000100
00010000
,
00001000
00000000
00100000
00000000
00001000
00000000
00000000
00010000
,
00000000
00000000
00100000
00000000
00000000
10000000
00000000
00000000
,
20020000
00000000
00000000
00000000
,
00000000
00000000
30030000
00000000
,
02200000
00000000
00000000
00000000
,
00000000
00000000
00000000
00000000
,
00000000
00000000
00000000
00000000
,
00000000
00000000
00000000
00000000
03300000
00000000
00000000
00011000
,
00000000
00001000
00010000
00000100
,
00010000
00001000
00000010
00000001
,
00000000
00001000
00000010
00001000
,
00000001
00000000
00000100
00000000
00000010
00000010
00000000
00000000
,
00002002
00000000
00000000
00000000
,
00000000
00000000
00000000
00000000
,
00000000
00000000
00000000
00000000
,
00000000
00000000
00000000
00000000
00003003
00000000
00000000
00000110
,
00000000
00001000
00000100
00010000
,
00001000
00100000
00001000
00010000
,
00000000
00100000
10000000
00010000
,
01000000
00000000
00010000
00000000
00100000
00100000
00000000
10010000
,
00000000
10000000
01000000
00010000
,
00001000
00000100
00000001
00000010
,
00000100
00000000
00000010
00000001
,
00000100
00000001
00001000
00000000
,
00000001
00000100
00001000
00010000
,
01000000
10000000
00100000
00000000
,
10000000
00000000
00000000
01000000
00000000
00000000
00010000
00000000
,
00000000
00001000
00000000
00000000
00022000
00000000
00000000
00000000
,
00000000
00000000
00000000
00000000
00000000
00033000
00000000
00011000
,
00000000
00000100
00001000
00000010
,
00001000
00000000
00000100
00000000
00000010
00000000
00000000
00011000
,
00000000
01000000
00010000
00100000
,
00010000
00000000
01000000
00000000
00100000
00000000
00000000
00011000
,
00000000
00000000
00000100
00000000
00000010
00000000
00000000
00011000
,
00000000
00000000
01000000
00000000
00100000
00000000
00000000
10000000
,
00000000
00000000
01000000
00000000
00000000
00010000
00000000
00000000
,
00022000
00000000
00000000
00033000
,
00001000
00000010
00000001
00000010
,
00001000
00000000
00001000
00010000
00000000
00010000
00002000
00000000
,
00003000
00010000
00100000
10000000
,
00010000
00000000
00010000
10000000
00000000
10000000
00020000
00000000
,
00030000
00200000
00000000
00300000
00002000
00000000
00003000
00020000
,
00000000
00030000
00000100
00001000
00000000
00001000
00000000
00000001
,
00000020
00000000
00000030
00000000
,
00000110
00000001
00000100
00000010
,
00000110
00000000
00001001
00000000
,
00001000
00000100
00010000
00001000
,
01000000
00000000
00010000
00000000
00100000
00000000
00010000
10000000
,
00010000
00000000
00000000
00100000
00000000
00000000
00001000
00000000
,
00000000
00010000
00000000
00000000
00000010
00000000
00001000
00000010
,
00001000
00000000
00000001
00000000
00000010
00000000
00000100
00001000
,
00000000
00001000
00000000
00000010
00000000
00000000
00000000
00000000
,
00000110
00001000
00000100
00010000
,
00011000
00000000
01100000
00000000
,
00010000
10000000
00100000
01000000
,
00010000
00000000
00100000
00000000
00001000
00010000
00001000
00000000
,
00000010
00000000
00000000
00000001
00000000
00000000
00000100
00000000
,
00000000
00001000
00000000
00000000
00010000
00000000
00001000
00000000
,
00011000
00000000
00000000
00000000
00100000
00000000
00010000
01000000
,
00000000
01000000
00000000
00100000
00000000
10000000
00000000
02200000
,
00000000
00000000
00000000
00000000
00300000
00000000
00000000
00020000
,
00000000
00000000
00000000
00000000
03000000
00000000
00000000
00200000
,
00000000
00000000
00000000
00000000
00030000
00000000
00000000
00002000
,
00000000
00000000
00303000
00000000
00001000
00000000
00000000
00020000
,
00000000
00000000
00000100
00000000
00000100
00000000
00000000
00030200
,
00000000
00000000
00001000
00000000
00001000
00000000
00000000
00000320
,
00000000
00000000
00000001
00000000
00000031
00000000
00000000
00002002
,
00000000
00000000
00003003
00000000
00001000
00000000
00001000
00000010
,
00000000
00000000
00010000
00000000
00001000
00000000
00001000
00100000
,
00000000
00000000
00010000
00000000
01000000
00000000
01000000
00100000
,
00000000
00000000
10000000
00000000
01000000
00000000
01000000
00010000
,
00000000
00000000
00001000
00000000
00100000
00000000
00000000
00011000
,
00000000
00000000
00010100
00000000
00000000
00000000
00000000
00011000
,
00000000
00000000
01001000
00000000
00000000
00000000
00000000
00110000
,
00000000
00000000
00011000
00000000
00000000
00001100
00000000
00000000
,
00011000
00000000
00000000
02020000
00000000
03030000
00000000
00000000
,
02200000
00000000
00000000
03300000
,
00010000
00000000
20000000
30000000
00000000
00000000
00000000
00000000
01000000
00000000
00000000
00000000
00010000
00000000
00000000
00000000
,
00001000
00010000
00001000
00000000
00010000
00000000
00001000
00000000
,
00000010
00000000
00000001
00000000
00001000
00000000
00000000
00000010
,
00000000
00000000
00000100
00000000
00000000
00001000
00000000
00000000
,
00010000
00000000
00001000
00010000
00001000
00000000
01000000
00000000
,
00010000
00000000
00100000
01000000
00000000
01000000
00000000
10000000
,
00000000
00100000
01100000
01000000
,
00010000
00100000
00010000
00000000
00100000
00000000
00001000
00000000
,
00010000
00001000
00010000
00000000
00000100
00000000
00001000
00000000
,
00000010
00001000
00000010
00000000
00000100
00000000
00000001
00000000
,
00000010
00000001
00000010
00000000
00001000
00000000
00001000
00010000
,
00000000
00010000
00001000
00000000
01000000
00010000
00000000
00010000
,
01000000
00100000
10010000
10000000
,
01000000
00000000
00010000
00001000
00000000
00001000
00000000
00100000
,
00000000
00010000
00000000
00110000
00000000
00000000
00001000
00000000
,
00010000
00001000
00000010
00000100
,
00000010
00001000
00010000
00100000
,
01000000
00100000
00010000
00001000
,
00000010
00000000
00000100
00000100
00000000
00000000
00000000
00000000
;

//--------------- dance-double - forcednature ----------------
#NOTEDATA:;
#STEPSTYPE:dance-double;
#DESCRIPTION:forcednature;
#DIFFICULTY:Medium;
#METER:13;
#RADARVALUES:0,0,0,0,0;
#CREDIT:forcednature;
#NOTES:
00000000
00000000
00000000
00000000
,
00000000
00000000
00000000
00000000
,
00000000
00000000
00000000
00000000
,
00000000
00000000
00000000
00000000
,
00001000
00010000
00100000
00010000
,
00001000
00000000
00000010
00000000
00000110
00000000
00000000
00001001
,
00000000
00000000
00000110
00000000
00000000
00011000
00000000
00000000
,
02200000
00000000
00000000
00000000
,
00000000
00000000
03300000
00000000
,
20000000
00000000
01000000
00000000
,
00010000
00010000
00010000
00000000
,
00100000
00000000
00010000
00000000
,
01000000
00000000
01000000
00000000
01000000
31000000
00000000
10000000
,
00000000
00010000
00100000
00000000
00001000
00000000
00010000
00000100
,
00001000
00000000
00000010
00000000
00000100
00000000
00000001
00000010
,
00000000
00000100
00000010
00000000
00000100
00000000
00010000
00001000
,
00010000
00000000
00000010
00000000
00001000
00001000
00000000
00000000
,
00000002
00000000
00000100
00000000
,
00001000
00001000
00001000
00000000
,
00000100
00000000
00000010
00000000
,
00001000
00000000
00001000
00000000
00001000
00001003
00000000
00000001
,
00000000
00000010
00000100
00000000
00001000
00000000
00000100
00010000
,
00001000
00000000
00100000
00000000
00010000
00000000
01000000
00100000
,
00000000
10000000
01000000
00000000
00100000
00000000
00001000
00010000
,
00000100
00000000
00001000
00000000
00000010
00000010
00000000
00000110
,
00000000
00000100
00000001
00000000
00000010
00000100
00010000
00000000
,
00001000
00000000
00110000
00000000
00001000
00010000
00001000
00000000
,
01000000
00000000
00110000
00000000
10000000
00100000
10000000
00000000
,
00010000
00000000
00101000
00000000
00001000
00010000
00001000
00000000
,
00000010
00000000
00001001
00000000
00001000
00000100
00000010
00000000
,
00000001
00000000
00000110
00000000
00001000
00000001
00000100
00000000
,
00001000
00000000
00001000
00010000
00000000
00010000
00100000
00000000
,
00100000
10000000
00000000
10000000
02000000
00000000
00000000
00100000
,
00000000
00000000
00100000
00000000
00000000
13000000
00000000
10010000
,
00000000
10000000
01000000
10000000
01000000
00000000
00010000
01000000
,
00010000
00000000
00001000
00010000
00001000
00010000
00000000
00011000
,
00000000
00001000
00000010
00001000
00000010
00000000
00000001
00000010
,
00000001
00000000
00000100
00000001
00000100
00000001
00000000
00000110
,
00000000
00001000
00000010
00000000
00001000
00000100
00000000
00011000
,
00000000
01000000
00010000
00000000
00100000
01000000
10000000
02000000
,
00000000
03010000
00020000
00000000
00031000
00002000
00000000
00003010
,
00000020
00000001
00000100
00001030
,
00000110
00001001
00010000
00001100
,
00020000
00000000
00031000
00200000
00000000
00310000
02000000
00000000
,
03000000
10010000
00100000
10010000
,
20000000
00000000
31000000
00020000
00000000
00031000
00000020
00000000
,
00000130
00000200
00000000
00010300
00020000
00000000
00031000
00002000
,
00000000
00003010
00000010
00000100
00000000
00000110
00000000
00001000
,
00000002
00000000
00000000
00000000
00000003
00000100
00001000
00010000
,
00001000
00000000
00010000
00100000
10000000
00100000
01000000
00010000
,
00100000
00011000
01000000
00011000
,
00000100
00001000
00000010
00000100
00000000
00000001
00000010
00000100
,
00010000
00001000
00100000
00001000
00000000
00010000
00100000
10000000
,
00010000
00000000
00010000
00100000
00000000
00100000
01000000
00000000
,
00010000
00001000
00000000
00001000
00000010
00000100
00001000
00000002
,
00000000
00000103
00001000
00020000
00000000
00031000
00000100
00000001
,
00000000
00000011
00000000
00001100
00000000
00010000
00001000
00100000
,
00010000
00000000
01000000
00100000
10000000
01000000
00010000
00001000
,
00100000
00011000
01000000
00011000
,
00000010
00001000
00000100
00000001
00000000
00000100
00001000
00000001
,
00000000
00000100
00001000
00010000
00001000
00000000
00010000
00010000
,
00100000
00000000
10000000
01000000
00000000
00010000
00001000
00000000
,
00000100
00000001
00000000
00000010
00000100
00010000
00010000
00000010
,
00001000
00000000
00000001
00000100
00000000
00001000
00000000
00011000
,
00000000
00101000
00000000
01010000
00000000
01100000
00000000
20010000
,
00000000
00000000
01000000
00000000
,
00000000
00000000
00000000
00000000
01000000
30000000
00000000
00010000
,
00000000
00010000
00100000
00000000
00001000
00010000
00000000
00000010
,
00000000
00000010
00001000
00000000
00000001
00000100
00001000
00000200
,
00000000
00000000
00000010
00000000
00000010
00000000
00000000
00000302
,
00000000
00000000
00001000
00000000
00001000
00000000
00000000
00000023
,
00000000
00000000
00000100
00000000
00001030
00000000
00000000
00022000
,
00000000
00000000
00033000
00000000
00010000
00001000
00010000
00200000
,
00000000
00000000
10300000
00000000
00100000
01000000
00010000
00200000
,
00000000
00000000
01300000
00000000
00100000
00001000
00010000
00000200
,
00000000
00000000
00000310
00000000
00000100
00001000
00000001
00000200
,
00000000
00000000
00001300
00000000
00000101
00000000
00001000
00000010
,
00000000
00000010
00010000
00000000
00011000
00000000
00001000
00100000
,
00000000
00100000
00010000
00000000
01100000
00000000
01000000
10000000
,
00000000
00100000
01000000
00000000
00010000
00010000
00000000
00001000
,
00001000
00000000
00000010
00000220
00000000
00000330
00000000
00000000
,
00002002
00000000
00000000
00003003
,
00010000
00000000
00002000
00003000
00000000
00000000
00000000
00000000
00100000
00000000
00010000
00000000
00100000
00000000
01000000
00000000
,
00000000
00010000
00001000
00000010
00000100
00000010
00000001
00001000
,
00000010
00000000
00000010
00000100
00001000
00000000
00010000
00100000
,
00000000
10000000
01000000
00000000
00010000
00001000
00000000
00000010
,
00000100
00001000
00000001
00000200
00000000
00001300
00010000
00200000
,
00000000
00310000
00001000
00000010
00000000
00000110
00000000
00011000
,
00000000
01000000
00010000
00100000
01000000
00010000
00001000
00010000
,
01000000
00010000
00001000
00000000
00000100
00001000
00010000
00001000
,
00000100
00001000
00010000
00000000
00100000
00010000
00001000
00010000
,
00100000
00010000
00001000
00000000
00000010
00001000
00010000
00001000
,
00000010
00001000
00020000
00000000
01030000
00000000
10000000
00100000
,
00000000
00010000
00001000
00000000
00000010
00000001
00000000
00000100
,
00002000
00000000
00013000
00010000
00010000
00000000
00001000
00000010
,
00000000
00000001
00000100
00001000
00000000
00011000
00000000
00001010
,
00000000
00001100
00000000
00000110
00000000
00000001
00000100
00001000
,
00010000
00100000
10000000
00000000
01000000
00010000
00001000
00000010
,
00000001
00001000
00000000
00000001
00000100
00001000
00010000
00100000
,
10000000
00000000
01000000
00010000
00001000
00000010
00000001
00001000
,
00000001
00000100
00000010
00000110
00000000
00000000
00000000
00000000
;

//--------------- dance-double - forcednature ----------------
#NOTEDATA:;
#STEPSTYPE:dance-double;
#DESCRIPTION:forcednature;
#DIFFICULTY:Hard;
#METER:17;
#RADARVALUES:0,0,0,0,0;
#CREDIT:forcednature;
#NOTES:
00000000
00000000
00000000
00000000
,
00000000
00000000
00000000
00000000
,
00000000
00000000
00000000
00000000
,
00000000
00000000
00000000
00000000
,
00001000
00000000
00001000
00010000
00100000
00000000
00010000
00000000
,
00010000
00001000
00000010
00000000
00000110
00000000
00000001
00000101
,
00000000
00000000
00001000
00000000
00000010
00001000
00000010
00001000
00000010
00000000
00010000
00001000
00010000
00001000
00010000
00000000
,
00200000
00000000
00000000
00000000
,
00000000
00000000
10300000
00000000
,
10020000
00000000
00000000
01000000
,
01000000
00000000
10000000
10000000
00000000
00100000
00000000
00200000
,
00000000
00000000
00000000
00030000
00000000
00000000
00001000
00000000
,
00000000
00000000
00310000
00000000
01010000
01010000
00000000
10100000
,
00000000
10000000
01000000
00010000
00001000
00000100
00000001
00000010
,
00000100
00010000
00001000
00000010
00000001
00001000
00000010
00000100
,
00000000
00001000
00011000
00000000
00100000
00010000
00110000
00000000
,
10000000
00000000
00100000
10000000
00100000
00000000
01000000
00010000
01000000
00000000
01010000
00000000
00000000
00000000
00000000
00000000
,
00012000
00000000
00000000
00100000
,
00100000
00000000
00010000
00010000
00000000
00000010
00000000
00000020
,
00000000
00000000
00000000
00003000
00000000
00000000
00000100
00000000
,
00000100
00000000
00000031
00000000
00000101
00000101
00000000
00001010
,
00000000
00010000
00001000
00000010
00000100
00010000
00001000
00100000
,
00001000
00010000
00100000
01000000
00001000
00010000
00100000
10000000
,
00000000
00010000
01010000
00000000
00100000
00001000
00011000
00000000
,
00000100
00000000
00001000
00000100
00001000
00000000
00000100
00000010
00000001
00000000
00000011
00000000
00000000
00000000
00002001
00000000
,
00000000
00000000
00003010
00000000
00000100
00000000
00000000
00000000
00001000
00000000
00010000
00000000
00100000
00000000
01000000
00010000
,
01000000
00010000
10000000
01000000
00010000
00000000
00011000
00000000
,
00100000
00000000
00001000
00000000
00010000
00000000
00000000
00000000
00001000
00000000
00000010
00000000
00000001
00000000
00000010
00000100
,
00000010
00000100
00010000
00001000
01000000
00010000
00010000
00010000
,
10000000
00000000
00000000
00000000
01010000
00000000
00000000
00000000
00010000
00000000
00100000
00000000
00001000
00000000
00010000
00001000
,
00010000
00000000
00001000
00000000
00000010
00000000
00000000
00000000
00000001
00000000
00000010
00000100
00000010
00000100
00000010
00000000
,
00000100
00010000
00001000
01000000
00001000
00010000
00100000
00010000
,
00001000
00000010
00000000
00000100
00002002
00000000
00000000
00000000
,
00000000
00000000
00000000
00000000
00003003
00000000
00000000
00000101
,
00000000
00000001
00000010
00001000
00010000
00001000
00000010
00001000
,
00010000
00000000
01000000
00000000
10000000
00000000
01000000
00100000
00010000
00000000
01000000
00000000
00000000
00000000
10010000
00000000
,
00000000
10000000
00100000
00010000
00001000
00010000
00100000
00010000
,
00001000
00000000
00000100
00000000
00000001
00000000
00000100
00000010
00001000
00000000
00000100
00000000
00000000
00000000
00000110
00000000
,
00000000
00000001
00000100
00001000
00010000
01000000
00000000
01100000
,
00000000
00000000
10000000
00000000
01000000
00000000
00010000
00000000
00001000
00010000
00001000
00010000
00001000
00000000
00000020
00000000
,
00000000
00000031
00000002
00000000
00000103
00000200
00000000
00001300
,
00021000
00000000
00000010
00000010
00000010
00000000
00030100
00000000
,
00011000
00000000
00010000
00100000
10000000
00000000
01010000
00000000
,
10000000
01000000
00010000
00001000
00000100
00000001
00000020
00000000
,
00000000
00000000
00000130
00010000
00001000
00000000
00000011
00000000
,
00000001
00000100
00001000
00010000
01000000
10000000
00200000
00000000
,
10300000
00000000
01000000
10000000
01000000
00000000
00010000
00000000
00001000
00010000
00001000
00000000
00000010
00000000
00000001
00000010
,
00000001
00000100
00000010
00000110
00000000
00011000
00000000
01100000
,
02200000
00000000
00000000
00000000
03300000
00010000
10000000
00010000
,
10010000
00000000
10000000
01000000
00010000
00001000
00000010
00000001
,
00001000
00000100
00001000
00000100
00010000
00000000
00001000
00000000
00100000
00010000
00100000
00010000
00100000
00000000
00000000
00000000
,
01000000
00010000
00001000
00000010
00000100
00010000
00001000
00000100
,
00000001
00000000
00001000
00000000
00000010
00000000
00001000
00000000
00010000
00000000
00010000
00000000
01000000
00000000
00100000
10000000
,
00200000
00000000
00000000
00000000
10300000
00000000
11000000
00000000
00000000
00000000
01000000
00010000
00002000
00000000
00000000
00000000
,
00103000
00000000
00110000
00000000
00000000
00000000
00000100
00001000
00000100
00000000
00000100
00000000
00000010
00000000
00000001
00001000
,
00000010
00000100
00001000
00020000
00000000
00130000
00010000
00011000
,
00000000
00000000
01100000
00000000
00000000
00000000
01010000
00000000
00000000
00000000
10000000
00010000
10000000
00000000
00010000
00000000
,
00100000
00000000
01000000
00000000
00010000
00000000
01000000
00000000
00100000
00001000
00010000
00000000
00000100
00000000
00001000
00000000
,
00000010
00010000
00000010
00010000
00001000
00000000
00000010
00000000
00000100
00001000
00000100
00001000
00000001
00000000
00000000
00000000
,
00000100
00000000
00001000
00000000
00010000
00000000
00100000
00000000
01000000
00100000
01000000
00000000
00010000
00000000
10000000
00000000
,
01000000
10000000
00010000
00000000
00100000
00000000
01000000
00000000
00010000
00000000
00001000
00000000
00000010
00000000
00000100
00000010
,
00000001
00000000
00000100
00000001
00000100
00000000
00001000
00000000
00010000
00001000
00010000
00000000
00100000
00000000
10000000
00100000
,
10000000
00000000
00010000
00000000
00100000
01000000
10000000
00000000
01000000
00000000
00010000
00001000
00010000
00001000
00010000
00000000
,
00001000
00000000
00000010
00000011
00000000
00000101
00000000
00000110
,
00000000
00011000
00000000
01100000
00000000
10010000
00000000
00120000
,
00000000
01000000
10000000
00000000
00100000
00000000
00000000
00032000
,
00000000
00000100
00000001
00000000
00000010
00000000
00000000
00013000
,
00000000
01000000
00010000
00000000
00100000
01000000
00000000
10000000
,
00000000
01000000
00010000
00000000
00001000
00000010
00000001
00000200
,
00000000
00001000
00001000
00000000
00000010
00000000
00000001
00000302
,
00000000
00000000
00000010
00000000
00001000
00000103
00010000
02000000
,
00000000
10000000
10000000
00000000
00100000
03100000
00000000
20020000
,
00000000
00000000
30030000
00000000
10000000
00000000
01000000
10000000
00010000
00000000
00100000
00000000
01000000
00000000
00020000
00000000
,
00000000
00030100
00001000
00000010
00000100
00001000
00000100
00000002
,
00000000
00001003
00000010
00000100
00001000
00010000
00100000
02000000
,
00000000
03010000
10000000
00100000
10000000
01000000
00010000
00002000
,
00000000
00000010
00003010
00000000
00001000
00010000
00000000
00102000
,
00000000
00000000
01003000
00000000
00010000
00000000
00000000
00000000
00100000
00001000
00010000
00000000
00000100
00000000
00002000
00000000
,
00000000
00000000
00003010
00000000
00000100
00000000
00000000
00000000
00000001
00000010
00000100
00000000
00001000
00000000
00000020
00000000
,
00000000
00000130
00001001
00000000
00000110
00000110
00000000
00011000
,
00011000
00000000
01100000
01100000
00000000
10000000
00010000
00100000
,
02200000
00000000
00000000
03300000
,
00011000
00000000
00022000
00033000
00000000
00000000
00000000
00000000
01000000
00000000
00010000
00000000
00100000
00000000
01000000
00010000
,
00001000
00000000
00100000
00000000
00001000
00000000
00010000
00000000
00000100
00000000
00001000
00000000
00000010
00000000
00000100
00000001
,
00001000
00000010
00000100
00000100
00002000
00000000
00013000
00101000
,
00000000
00000000
01000000
00010000
20000000
00000000
00000000
00000000
30100000
00000000
01010000
00000000
00000000
00000000
00010000
01000000
,
00010000
00100000
00001000
00011000
00000000
00000010
00010000
00011000
,
00000000
00100000
01000000
01100000
00000000
00011000
00000000
00000110
,
00000000
00000000
00000001
00001000
00000001
00001000
00000001
00000000
00000100
00000000
00000001
00000100
00001000
00000000
00010000
00000000
,
00001000
00000000
00010000
00100000
01000000
00000000
00010000
00000000
10000000
00000000
01000000
00010000
00001000
00000000
00100000
00000000
,
00001000
00000000
00010000
00000100
00001000
00000000
00000010
00000000
00000100
00000000
00000001
00000010
00000100
00000000
00000001
00000000
,
00000100
00000000
00001000
00000100
00010000
00000000
00001000
00000000
00100000
00000000
00010000
01000000
10000000
00000000
01000000
00010000
,
01000000
00000000
00001000
00000000
00100000
00000000
01000000
00000000
00010000
00000000
00001000
00010000
00001000
00010000
00000100
00000000
,
00001000
00000010
00001000
00000010
00000100
00000000
00000001
00000010
00000001
00000010
00000100
00000000
00010000
00001000
00010000
00001000
,
01000000
00000000
00010000
00100000
01000000
00000000
00100000
01000000
10000000
00000000
01000000
00000000
00010000
00000000
00001000
00000000
,
00000000
00100000
00010000
01010000
00000000
01100000
00000000
00011000
,
00000000
00000110
00000000
00002001
00000000
00003010
00000100
00001000
,
00010000
01000000
00100000
01000000
00010000
00001000
00000100
00000010
,
00000100
00001000
00010000
00100000
01000000
00100000
00010000
00001000
,
00000010
00000100
00000010
00001000
00010000
01000000
00100000
01000000
,
00010000
00001000
00011000
00010100
00000000
00000000
00000000
00000000
;
