#VERSION:0.83;
#TITLE:Power of the Triforce;
#SUBTITLE:;
#ARTIST:Dragonforce;
#TITLETRANSLIT:;
#SUBTITLETRANSLIT:;
#ARTISTTRANSLIT:;
#GENRE:;
#ORIGIN:;
#CREDIT:;
#BANNER:Power of the Triforce.png;
#BACKGROUND:Power of the Triforce-bg.png;
#PREVIEWVID:;
#JACKET:Power of the Triforce-jacket.png;
#CDIMAGE:;
#DISCIMAGE:;
#LYRICSPATH:Power of the Triforce.lrc;
#CDTITLE:;
#MUSIC:Power of the Triforce.ogg;
#OFFSET:0.398000;
#SAMPLESTART:45.058121;
#SAMPLELENGTH:16.600002;
#SELECTABLE:YES;
#BPMS:0.000=195.000,
120.000=97.500,
123.000=195.000,
125.000=97.500,
128.000=195.000,
130.000=97.500,
133.000=195.000,
189.000=97.500,
193.000=195.000,
259.000=97.500,
262.000=195.000,
264.000=97.500,
267.000=195.000,
269.000=97.500,
272.000=195.000,
328.000=97.500,
332.000=195.000;
#STOPS:;
#DELAYS:;
#WARPS:;
#TIMESIGNATURES:0.000=4=4;
#TICKCOUNTS:0.000=4;
#COMBOS:0.000=1;
#SPEEDS:0.000=1.000=0.000=0;
#SCROLLS:0.000=1.000;
#FAKES:;
#LABELS:0.000=Song Start;
#BGCHANGES:1.500=Power of the Triforce.mp4=1.000=0=0=1=====,
395.000=Black.png=1.000=0=0=1=====,
99999=-nosongbg-=1.000=0=0=0 // don't automatically add -songbackground-
;
#KEYSOUNDS:;
#ATTACKS:
;

//---------------dance-single - ----------------
#NOTEDATA:;
#CHARTNAME:;
#STEPSTYPE:dance-single;
#DESCRIPTION:;
#CHARTSTYLE:;
#DIFFICULTY:Hard;
#METER:14;
#RADARVALUES:0.700263,0.754450,0.350131,0.641907,0.070860,588.000000,546.000000,42.000000,77.000000,0.000000,0.000000,0.000000,0.000000,0.000000,0.700263,0.754450,0.350131,0.641907,0.070860,588.000000,546.000000,42.000000,77.000000,0.000000,0.000000,0.000000,0.000000,0.000000;
#CREDIT:Ben Speirs;
#NOTES:
0000
0000
0000
0000
,
0000
0000
0000
0000
,
0000
0000
0000
0000
,
0000
0000
0000
0000
,
0000
0000
0000
0000
,
0000
0000
0000
0000
2001
0000
3010
0001
,
0010
1000
0100
0010
0001
0100
0001
0100
,
1000
0100
0001
0010
0200
0000
1300
0010
,
0100
0000
0102
0000
1003
0100
0010
0001
,
1000
0010
0100
0001
1000
0100
0001
0100
,
1000
0010
0001
0010
1000
0100
0001
1000
,
0010
0001
0100
0010
1000
0100
0001
0100
,
1000
0100
0001
0100
2000
0000
0000
0000
,
3300
0000
0102
2003
,
3100
0010
0001
0000
1000
0010
1000
0000
,
0001
0100
0010
0000
2010
0000
3002
0000
,
1003
0100
0010
0000
0001
1000
0001
0010
,
0200
1330
2100
3002
,
0103
0010
1000
0001
2000
0000
3200
0000
,
0320
0000
0031
0000
2001
0000
3001
0100
,
0010
0100
1000
0100
0001
0000
0101
0000
,
0110
1010
1001
1001
,
0001
0100
0001
0100
0010
1000
0100
0010
,
0001
1000
0010
0000
1010
0000
1010
0000
,
0001
0000
0010
0000
0001
0000
0010
0000
0100
1000
0100
1000
0100
0000
1000
0000
,
0010
0100
0001
0000
0101
0000
0101
0000
,
1000
0100
1000
0100
0010
0001
0100
0010
,
1000
0001
1000
0000
0001
0100
0001
1000
,
0100
1000
0001
0010
0100
1000
0010
0100
,
0001
0010
0100
1000
0001
0100
0001
0100
,
0020
0000
0030
0000
0000
0000
1000
0100
,
1000
0100
0020
0000
0030
0000
0000
0000
,
0001
0000
1000
0000
0001
0000
1000
0000
0020
0000
0000
0000
0130
0010
1000
0001
,
0010
0100
1000
0000
2200
0000
0000
0000
3300
0000
0000
0000
0001
0000
0000
0000
,
0100
0000
0202
0000
0303
0000
1000
0001
,
1000
0000
1010
0000
0201
0000
1300
0100
,
0001
0010
0200
0000
2300
0000
3001
0100
,
0010
0000
2001
0000
3100
0001
0100
1000
,
0010
0000
0100
0000
0001
1000
0001
1000
0001
0000
0010
0000
0100
0000
1000
0000
,
0010
0100
0110
0000
1020
0000
0031
0010
,
1000
0100
0020
0000
0032
0000
1003
0010
,
0100
0000
0201
0000
3313
0001
0010
1000
,
0100
0000
0010
0000
0001
0000
0100
0000
0010
0000
0100
0000
0001
0000
1000
0001
,
1000
0000
0001
0100
1002
0000
1003
0100
,
2001
0000
3001
0100
1000
0001
0020
0000
,
2030
0000
3001
0010
1002
0000
1003
0010
,
2001
0000
3001
0010
1000
0001
0200
0000
,
2300
3001
0000
0000
,
0000
0010
1002
0000
0100
0000
0013
0100
,
1003
0000
0001
0100
0010
0000
1000
0100
,
0010
0012
0203
2300
,
3100
0000
0001
0000
1000
0100
1000
0100
1000
0000
0001
0000
0100
0000
0010
0000
,
0110
0000
2001
0000
3100
0010
0002
0000
,
0203
0000
0301
1000
0010
0000
1000
0001
,
0010
0000
0001
0010
1000
0010
0001
0100
,
1000
0100
0001
0010
0100
1000
0010
0100
,
0010
0100
0001
0010
0100
1000
0020
0000
,
0000
0000
0031
0010
1000
0010
0001
0010
,
1000
0100
0010
0010
0002
0000
0203
0000
,
1300
0100
0010
1000
0100
0010
0001
1000
,
0001
0000
1000
0000
0020
0000
0000
0000
0000
0000
0130
0001
0200
0000
0000
0000
,
0000
0000
0301
1000
0001
0000
0010
0000
0100
0000
1000
0000
0010
0000
0100
0000
,
0001
0000
1000
0100
1000
0000
0001
0000
1000
0000
0010
0000
1000
0000
0001
0000
,
1000
0000
0010
0100
0010
0000
1000
0000
0100
0000
0010
0000
0001
0000
0100
0000
,
0010
1000
0001
0010
1000
0010
0002
0000
,
0100
0100
0200
0303
1000
0100
0001
0100
,
2000
0000
0010
0010
0020
3030
0001
0100
,
1000
0001
0020
0000
1000
0001
1000
0001
,
1030
0100
0010
0001
0100
0010
1000
0001
,
0010
0100
0010
0100
1000
0001
1000
0000
,
0101
0000
2010
0000
3001
0010
1000
0010
,
0200
0000
0302
0000
0203
0000
1300
0010
,
3200
0000
0301
1000
0100
0010
0001
1000
,
0010
0100
0010
0100
0010
0000
1000
0000
0100
0000
0001
0000
0100
0000
1000
0000
,
1010
0000
0102
0000
1003
0100
0001
0100
,
0020
0000
2030
0000
3020
0000
0031
0100
,
0023
0000
1030
0001
0010
0100
1000
0001
,
0100
0000
0010
0000
0001
0000
0010
0000
1000
0000
0001
1000
0001
0000
0000
0000
,
1000
0100
0021
0000
0031
0100
1020
0000
,
1030
0100
0001
1000
0020
0000
0032
0000
,
1003
0010
0201
0000
0301
0010
1200
0000
,
1300
0010
0001
1000
0200
0000
0301
1000
,
0001
0000
0000
0000
,
1002
0000
0103
1000
0100
0001
0010
0100
,
1000
0010
1000
0010
0001
0010
1000
0100
,
0020
0000
0031
0100
0010
0000
2010
0000
,
3001
0010
0100
1000
0001
0100
0010
1000
,
0001
0010
1000
0010
0001
0100
1000
0100
,
0001
0010
1000
0001
0100
1000
0010
0100
,
0001
0010
1000
0010
0001
0010
1000
0010
,
0022
0000
3033
0000
;

//---------------dance-single - ----------------
#NOTEDATA:;
#CHARTNAME:;
#STEPSTYPE:dance-single;
#DESCRIPTION:;
#CHARTSTYLE:;
#DIFFICULTY:Medium;
#METER:11;
#RADARVALUES:0.514479,0.641282,0.500188,0.758618,0.000000,432.000000,372.000000,60.000000,91.000000,0.000000,0.000000,0.000000,0.000000,0.000000,0.514479,0.641282,0.500188,0.758618,0.000000,432.000000,372.000000,60.000000,91.000000,0.000000,0.000000,0.000000,0.000000,0.000000;
#CREDIT:Ben Speirs;
#NOTES:
0000
0000
0000
0000
,
0000
0000
0000
0000
,
0000
0000
0000
0000
,
0000
0000
0000
0000
,
0000
0000
0000
0000
,
0000
0000
0000
0000
1002
0000
1003
0010
,
2000
0000
3001
0010
0200
0000
2300
0000
,
3020
0000
0230
0000
0302
0000
1003
3100
,
2000
0000
3001
0000
1000
0010
1000
0000
,
0001
0010
0001
0000
1000
0100
0010
0000
,
0001
0100
0010
0000
1010
0000
0110
0000
,
0101
0000
1001
0000
1000
0001
1000
0001
,
1000
0001
1000
0001
0020
0000
0000
0000
,
0030
0000
0002
2003
,
3010
0000
0000
0000
1000
0010
0100
0000
,
0001
0101
2000
3200
,
0310
0000
0000
0000
0001
0100
0010
0000
,
1000
1010
0002
2003
,
3100
0000
0000
0000
1000
0100
0010
0000
,
0001
0100
0010
0000
2000
0000
0010
0000
,
0001
3010
1010
0110
,
0102
1003
1001
1001
,
0001
0000
0010
0000
0100
1000
0100
0000
,
1000
0000
1010
1010
,
0010
0000
0100
0000
0001
0100
0001
0000
,
1000
0000
0101
0101
,
1000
0000
0100
0000
1000
0001
1000
0000
,
0001
0000
2000
3020
,
0230
0000
0302
0000
0023
0000
0130
1000
,
0001
0000
0000
0000
1000
0010
1000
0010
,
2000
0000
3000
0000
0000
0000
0001
0100
,
0001
0100
0002
0000
0003
0000
0000
0000
,
1000
0001
1000
0001
2000
0000
3000
0000
,
0000
0202
0303
1000
,
0010
2020
3030
0001
,
1000
1001
1001
1000
,
0100
0010
0010
0010
,
0001
0000
1000
0000
0001
0100
0010
0100
,
0001
0000
2000
0000
0000
3100
0010
0000
,
0110
1001
1001
0001
,
0010
0100
0100
0100
,
1000
0000
0001
0000
1000
0010
0100
0010
,
1000
0000
0002
0000
0000
0013
0100
0000
,
0110
1000
2200
3300
,
0102
0000
1003
0000
0001
0010
0100
0000
,
2002
3003
0022
0033
,
2010
0000
3001
0000
1000
0100
0010
0000
,
1002
3103
0000
0000
,
0000
0010
2002
0000
0000
0000
3003
0000
,
1000
0000
0100
0000
0010
0000
0001
0100
,
0001
2000
3020
0230
,
0302
0000
1003
0100
1000
0000
0001
0100
,
0010
2002
3003
0001
,
0010
0000
0100
0000
1000
0000
0010
0100
,
0010
0000
1000
0100
0010
0000
0001
0100
,
0010
0000
1010
0000
1001
0000
0001
0010
,
0100
2100
0100
3020
,
0000
0000
0130
0001
0100
0000
0001
1000
,
0001
0000
1000
0100
0020
0000
0032
0000
,
2003
0000
3001
0100
0010
1000
0001
1000
,
0001
1000
0200
0000
0000
0000
0320
0000
,
0000
0000
0031
1000
0010
0000
1000
0001
,
0010
0000
0001
0100
0010
0100
0020
0000
,
2030
0000
3001
0010
0100
1000
0001
0200
,
0000
0000
0301
1000
0001
1000
0001
0000
,
0000
0000
0000
0000
1000
0100
1000
0100
,
1000
0000
0000
0000
0000
0000
0001
0010
,
0001
0010
0001
0000
0000
0000
0000
0000
,
2020
3030
0110
0110
,
0202
0000
0303
0000
2000
0000
3001
0003
,
0101
0000
1010
0000
0001
0010
0100
0000
,
0010
0110
0110
0002
,
2003
0000
3010
0100
0010
0100
0001
0000
,
0102
0000
0000
1003
0200
0000
0310
0000
,
1001
0000
0101
0000
1000
0100
0010
0000
,
0100
0110
0110
2000
,
3002
0000
0103
0010
0100
0010
1000
0000
,
2010
0000
0000
3001
0020
0000
0130
0000
,
1000
2020
3030
0102
,
2303
0000
3001
0010
0100
0000
2002
0000
,
3003
0202
0303
2010
,
3032
0000
1003
0100
0010
0000
2001
0000
,
3103
0000
0000
0000
,
2001
0000
3001
0100
0002
0000
1003
0100
,
0020
0032
0203
0320
,
2030
0000
3001
0013
0002
0000
1003
0000
,
0001
0100
0001
0000
1000
0100
1000
0000
,
0001
0010
0100
0000
1000
0010
0100
0000
,
0101
0110
1010
1001
,
0001
1000
0001
1000
0001
1000
0001
1000
,
0200
0000
0300
0000
;

//---------------dance-single - ----------------
#NOTEDATA:;
#CHARTNAME:;
#STEPSTYPE:dance-single;
#DESCRIPTION:;
#CHARTSTYLE:;
#DIFFICULTY:Easy;
#METER:7;
#RADARVALUES:0.312022,0.339502,0.083365,0.266767,0.000000,262.000000,252.000000,10.000000,32.000000,0.000000,0.000000,0.000000,0.000000,0.000000,0.312022,0.339502,0.083365,0.266767,0.000000,262.000000,252.000000,10.000000,32.000000,0.000000,0.000000,0.000000,0.000000,0.000000;
#CREDIT:Ben Speirs;
#NOTES:
0000
0000
0000
0000
,
0000
0000
0000
0000
,
0000
0000
0000
0000
,
0000
0000
0000
0000
,
0000
0000
0000
0000
,
0000
0000
2002
3003
,
1000
0010
0100
0100
,
0001
0000
1000
0000
,
0001
0010
0100
0100
,
1000
1000
0010
0010
,
0100
0100
0001
0010
,
0100
1000
0001
1000
,
0001
1000
0020
0000
,
0030
0000
1000
2000
,
3000
0000
0001
0100
,
0010
1000
0001
0002
,
0003
0000
1000
0100
,
0010
0001
1000
2000
,
3000
0000
0001
0100
,
0010
1000
0100
0100
,
0010
0010
0001
1000
,
0001
0000
2000
3020
,
0030
1000
0010
0100
,
0001
0000
0002
0023
,
0030
0001
0010
0100
,
1000
0000
0002
0203
,
0300
0001
0100
0010
,
1000
0000
0001
0001
,
1000
1000
0100
0010
,
0001
0000
1000
0100
,
2000
3000
0000
0001
,
0100
0002
0003
0000
,
1000
0010
2000
3000
,
0000
0002
0003
0010
,
0100
2000
3000
0010
,
0100
0001
0001
1000
,
0001
0010
0010
0010
,
0000
0001
0010
0100
,
0000
2000
0000
3001
,
0000
1000
1000
0001
,
1000
0100
0100
0100
,
0000
1000
0100
0010
,
0000
0002
0000
1003
,
0000
0000
0110
0000
,
1001
0000
1000
0100
,
0010
0000
0110
0000
,
1001
0000
0001
0100
,
0010
1000
0000
0000
,
0000
0002
0000
0003
,
0000
0001
0010
0100
,
0000
1000
0010
0100
,
0000
0010
0010
1000
,
0000
2000
0000
0000
,
3000
1000
0100
0010
,
0000
0100
0100
0010
,
0000
0001
1000
0010
,
0000
2000
0000
3200
,
0000
0310
0001
1000
,
0000
0001
0001
0100
,
0100
0010
1000
0001
,
1000
0200
0300
0020
,
0030
0001
0100
0010
,
0000
1000
1000
0010
,
0100
0001
0001
0010
,
0100
1000
0001
1000
,
0000
0000
0001
0100
,
0001
0000
0000
1000
,
0010
1000
0000
0000
,
0002
0003
0010
0100
,
2000
3000
0001
1000
,
0010
0010
1000
0001
,
0100
0100
0100
0001
,
0010
0100
1000
0001
,
2000
0000
3001
0000
,
0001
0100
0001
1000
,
0010
0010
0010
1000
,
0100
0010
0001
1000
,
0002
0000
1003
0000
,
0000
0110
0000
1001
,
0000
0001
0010
0100
,
0000
0110
0000
1001
,
0000
1000
0010
0100
,
0001
0000
0000
0000
,
2002
3003
0001
0100
,
0010
0010
1000
0000
,
0001
0000
1000
0100
,
0010
0010
0001
0001
,
0100
0100
0010
0010
,
1000
0100
0010
0001
,
1000
0001
1000
0001
,
0200
0000
0300
0000
;

//---------------dance-single - ----------------
#NOTEDATA:;
#CHARTNAME:;
#STEPSTYPE:dance-single;
#DESCRIPTION:;
#CHARTSTYLE:;
#DIFFICULTY:Beginner;
#METER:4;
#RADARVALUES:0.165538,0.225084,0.100038,0.000000,0.000000,139.000000,127.000000,12.000000,0.000000,0.000000,0.000000,0.000000,0.000000,0.000000,0.165538,0.225084,0.100038,0.000000,0.000000,139.000000,127.000000,12.000000,0.000000,0.000000,0.000000,0.000000,0.000000,0.000000;
#CREDIT:Ben Speirs;
#NOTES:
0000
0000
0000
0000
,
0000
0000
0000
0000
,
0000
0000
0000
0000
,
0000
0000
0000
0000
,
0000
0000
0000
0000
,
0000
0000
1000
0000
,
0000
0000
0001
0000
,
0000
0000
0100
0000
,
0100
0000
0100
0000
,
0000
0000
0010
0000
,
0000
0000
1000
0000
,
0000
0000
0001
0000
,
0001
0000
0001
0000
,
0000
0000
1000
1000
,
0000
0000
1000
0000
,
0000
0000
0100
0100
,
0000
0000
0100
0000
,
0000
0000
0010
0010
,
0000
0000
0010
0000
,
0000
0000
0001
0000
,
0001
0000
0001
0000
,
0000
0000
0001
0001
,
0000
0000
0001
0000
,
0000
0000
0100
0100
,
0000
0000
0100
0000
,
0000
0000
0010
0010
,
0000
0000
0010
0000
,
0000
0000
1000
0000
,
1000
0000
1000
0000
,
0000
0000
0001
0001
,
0001
0000
0000
1000
,
1000
1000
0000
0000
,
0010
0010
0010
0000
,
0000
0100
0000
0100
,
0000
0100
0000
0000
,
0000
0001
0001
0001
,
0000
0001
0000
0000
,
0000
0010
0000
0010
,
0000
0010
0000
0000
,
0000
0100
0100
0100
,
0000
0100
0000
0000
,
0000
1000
0000
1000
,
0000
1000
0000
0000
,
0000
0000
1001
0000
,
1001
0000
0000
0000
,
0000
0000
0110
0000
,
0110
0000
0000
0000
,
0000
1001
0000
0000
,
0000
0001
0000
0000
,
0000
0001
0000
0000
,
0000
0010
0000
0010
,
0000
0010
0000
0000
,
0000
0100
0000
0000
,
0000
0100
0000
0000
,
0000
1000
0000
1000
,
0000
1000
0000
0000
,
0000
1001
0000
0000
,
0000
1000
0000
0000
,
0000
0010
0000
0010
,
0000
0010
0000
0000
,
0000
0100
0000
0100
,
0000
0100
0000
0000
,
0000
0001
0000
0001
,
0000
0001
0000
0000
,
0000
1000
1000
1000
,
0000
0000
0100
0100
,
0100
0000
0000
0010
,
0010
0010
0000
0000
,
0001
0000
0001
0000
,
1000
0000
0000
0000
,
0001
0001
0001
0000
,
0001
0000
0000
0000
,
1000
0000
1000
0000
,
1000
0000
0000
0000
,
0010
0010
0010
0000
,
0010
0000
0000
0000
,
0100
0000
0100
0000
,
0100
0000
0000
0000
,
0000
1001
0000
1001
,
0000
0000
0000
0000
,
0000
0110
0000
0110
,
0000
0000
0000
0000
,
1001
0000
0000
0000
,
0001
0000
0000
0000
,
1000
0000
0000
0000
,
0010
0000
0010
0000
,
0010
0000
0000
0000
,
0100
0000
0000
0000
,
0001
0000
0000
0000
,
1000
0000
1000
0000
,
1001
0000
0000
0000
;

//---------------dance-double - ----------------
#NOTEDATA:;
#CHARTNAME:;
#STEPSTYPE:dance-double;
#DESCRIPTION:;
#CHARTSTYLE:;
#DIFFICULTY:Hard;
#METER:14;
#RADARVALUES:0.675253,0.679005,0.391814,0.683590,0.016673,567.000000,520.000000,47.000000,82.000000,0.000000,0.000000,0.000000,0.000000,0.000000,0.675253,0.679005,0.391814,0.683590,0.016673,567.000000,520.000000,47.000000,82.000000,0.000000,0.000000,0.000000,0.000000,0.000000;
#CREDIT:Ben Speirs;
#NOTES:
00000000
00000000
00000000
00000000
,
00000000
00000000
00000000
00000000
,
00000000
00000000
00000000
00000000
,
00000000
00000000
00000000
00000000
,
00000000
00000000
00000000
00000000
,
00000000
00000000
00000000
00000000
00021000
00000000
00031000
00000100
,
00000020
00000300
00001030
00000001
00000013
00001000
00000010
00000100
,
00010000
00001000
01000000
00100000
20000000
00000000
31000000
00100000
,
00020000
00000000
01030000
00100000
10000000
01000000
00010000
01000000
,
10000000
00100000
00010000
00001000
00000100
00000010
00000100
00000010
,
00001000
00000100
00000001
00000100
00000010
00001000
00010000
01000000
,
00100000
00001000
00010000
00000100
00001000
00000010
00000001
00000010
,
00001000
00000010
00000001
00000010
00020000
00000000
00000000
00000000
,
00030000
00000000
00012000
02003000
,
03100000
10000000
01000000
00000000
10000000
00010000
10000000
00000000
,
00010000
01000000
00001000
00000000
01002000
00000000
00023000
00000000
,
00030100
00000010
00000001
00000000
00001000
00000010
00000100
00000001
,
00000020
00000130
00001200
00020300
,
00031000
01000000
00100000
10000000
02000000
00000000
03020000
00000000
,
00032000
00000000
00103000
00000000
00001000
00010000
00000010
00000100
,
00000001
00000010
00000100
00010000
00001000
00000000
00101000
00000000
,
00010100
00011000
01001000
02001000
,
03100000
10000000
00010000
10000000
00100000
01000000
00010000
00100000
,
10000000
00100000
00001000
00000000
00010010
00000000
00010020
00000000
,
00000130
00000001
00001000
00000001
00000100
00000010
00001000
00000100
,
00000001
00000100
00010000
00000000
00011000
00000000
00012000
00000000
,
01003000
00100000
10000000
01000000
00010000
00001000
00000020
00000000
,
00000032
00000000
00001003
00000000
00000001
00000100
00000010
00001000
,
00000100
00000001
00000100
00010000
00001000
01000000
00100000
10000000
,
00010000
00100000
10000000
00100000
00010000
01000000
00010000
01000000
,
00002000
00000000
00003000
00000000
00000000
00000000
00010000
00000100
,
00010000
00000100
00002000
00000000
00003000
00000000
00000000
00000000
,
00000001
00000000
00000100
00000000
00000001
00000000
00000100
00000000
00000020
00000000
00000000
00000000
00001030
00000001
00000010
00000100
,
00020000
00031000
00202000
00000000
00003000
00000000
00301000
00000000
,
00010000
00000000
00020020
00300000
00030000
00000030
00010000
00000000
,
00001000
00000000
00011000
00000000
00012000
00000000
00013000
01000000
,
10000000
00100000
02000000
00000000
03020000
00000000
10030000
01000000
,
00100000
00000000
00102000
00000000
00013000
00000010
00000100
00000010
,
00000001
00000010
00001000
00000001
00001000
00000001
00000010
00000100
,
00010000
00000000
00101000
00000000
00021000
00000000
00031000
00000010
,
00000001
00000100
00000020
00000000
00002030
00000000
00003001
00000010
,
00000100
00000000
00020100
00000000
00031000
01000000
00100000
01000000
,
10000000
01000000
00010000
00100000
01000000
10000000
00100000
01000000
,
00001000
00000000
00010000
00001000
00201000
00000000
00301000
00010000
,
00010020
00000000
00000130
00000001
00000010
00000100
00001200
00000000
,
00020300
00000000
00031000
00010000
00010200
00000000
00010300
00001000
,
02001000
00000000
03100000
10000000
01000000
00100000
00210000
00000000
,
00301000
00010000
00001000
00000000
00000000
00000000
00000000
00000000
,
00000000
00000110
00001002
00000000
00000100
00000000
00001003
00000100
,
00000010
00000000
00000001
00000100
00000010
00000000
00001000
00000100
,
00010000
00012000
02003000
03200000
,
10300000
00010000
00100000
00100000
01000000
10000000
00100000
01000000
,
01010000
00000000
01002000
00000000
00013000
00000100
00000020
00000000
,
00000032
00000000
00000103
00000010
00001000
00000100
00010000
00001000
,
01000000
00000000
10200000
00000000
01300000
00010000
20000000
00000000
,
31000000
00000000
10010000
00000000
01100000
00000000
10000000
01000000
,
00010000
01000000
10000000
00100000
01000000
00001000
00200000
00000000
,
00000000
00000000
01300000
00100000
00001000
00100000
01000000
00100000
,
00001000
00100000
00010000
01000000
00002000
00000000
00023000
00000000
,
00030010
00000100
00001000
00000100
00000010
00001000
00000001
00000010
,
00000001
00000000
00000010
00000000
00000200
00000000
00000000
00000000
00000000
00000000
00010300
00001000
00020000
00000000
00000000
00000000
,
00000000
00000000
00130000
01000000
00100000
00000000
10000000
00000000
01000000
00000000
00010000
00000000
01000000
00000000
10000000
00000000
,
00100000
01000000
00001000
00010000
01000000
00100000
00001000
00010000
,
00000010
00000100
00001000
00010000
00000100
00000010
00000001
00002000
,
00000000
00000000
00003001
00000100
00001000
00010000
00200000
00000000
,
10000000
10000000
10300000
00000000
10000000
01000000
00010000
00001000
,
00000020
00000000
00000001
00000001
00000031
00000000
00000001
00000010
,
00001000
00010000
02000000
00000000
10000000
00010000
10000000
00010000
,
13000000
00100000
01000000
00010000
00100000
10000000
00100000
00001000
,
00020000
00000000
00000100
00031000
,
00011000
00000000
10020000
00000000
00130000
10000000
00100000
00010000
,
02000000
00000000
23000000
00000000
31000000
00010000
00100000
00000000
,
00102000
00000000
00003010
00000100
00000010
00000100
00001000
00000010
,
00000100
00010000
00000100
00000001
00000010
00000100
00010000
00000000
,
00011000
00000000
00002001
00000000
00003010
00000001
00000010
00001000
,
00000200
00000000
00000332
00000000
00000103
00001000
00000010
00000000
,
00020010
00000000
00130000
01000000
00100000
01000000
00010000
00100000
,
01000000
00010000
01000000
10000000
00100000
01000000
00001000
00000000
,
00010000
00000010
00021000
00000000
00031000
00100000
00012000
00000000
,
00013000
00000010
00000100
00001000
00020000
00000000
00031000
00000000
,
00001000
01000000
00012000
00000000
00013000
00000100
00021000
00000000
,
00031000
01000000
00100000
00010000
00002000
00000000
00013000
00001000
,
00010000
00000000
00000000
00000000
,
00012000
00000000
00013000
00100000
02000000
00300000
03010000
10000000
,
31000000
00010000
01000000
00100000
00001000
00010000
00000010
00000100
,
00000002
00000000
00000013
00000100
00002000
00000000
00003010
00000100
,
00000001
00000010
00001000
00000010
00000001
00000100
00001000
00010000
,
00100000
01000000
00100000
01000000
00010000
00100000
10000000
00100000
,
01000000
00010000
00001000
00000010
00000100
00010000
00001000
00100000
,
00010000
01000000
10000000
01000000
00010000
01000000
10000000
01000000
,
02002000
00000000
03003000
00000000
;

//---------------dance-double - ----------------
#NOTEDATA:;
#CHARTNAME:;
#STEPSTYPE:dance-double;
#DESCRIPTION:;
#CHARTSTYLE:;
#DIFFICULTY:Medium;
#METER:11;
#RADARVALUES:0.543061,0.641282,0.533533,0.725272,0.000000,456.000000,392.000000,64.000000,87.000000,0.000000,0.000000,0.000000,0.000000,0.000000,0.543061,0.641282,0.533533,0.725272,0.000000,456.000000,392.000000,64.000000,87.000000,0.000000,0.000000,0.000000,0.000000,0.000000;
#CREDIT:Ben Speirs;
#NOTES:
00000000
00000000
00000000
00000000
,
00000000
00000000
00000000
00000000
,
00000000
00000000
00000000
00000000
,
00000000
00000000
00000000
00000000
,
00000000
00000000
00000000
00000000
,
00000000
00000000
00000000
00000000
00021000
00000000
00031000
01000000
,
00200000
00000000
10300000
00010000
20000000
00000000
31000000
00000000
,
00100000
00010000
00100000
00001000
00020000
00000000
00030010
00000100
,
00000020
00000000
00002030
00000000
00003001
00000010
00000100
00000000
,
00001000
00000010
00000100
00000000
00000101
00000000
00000110
00000000
,
00001010
00010100
00011000
00101000
,
01100000
00000000
10010000
00000000
10000000
30010000
10000000
00010000
,
10000000
00010000
10000000
00010000
02000000
00000000
00000000
00000000
,
03000000
00000000
00000000
00000000
00011000
00033000
00022000
00000000
,
00033000
00000000
00010000
00000000
00000100
00001000
00000100
00000000
,
00001000
00000001
00000101
00000202
,
00000303
00000000
00000100
00000000
00000010
00001000
00000010
00000000
,
00001000
00000100
00010100
00020200
,
00030300
00000000
00010000
00000000
00001000
00100000
00001000
00000000
,
01000000
00100000
20100000
00010000
,
00010000
30100000
10100000
01100000
,
01010000
01001000
00011000
00011000
,
00010000
00000100
00000010
00000000
00000001
00000100
00000001
00000000
,
00001000
00000000
00001010
00001010
,
00001000
00000100
00010000
00000000
00001000
00010000
00001000
00000000
,
00100000
00000000
00110000
00110000
,
10000000
00100000
01000000
00000000
00010000
01000000
00010000
00000000
,
00100000
00000000
00001000
00000000
00020000
00000000
00030020
00000300
,
00000230
00000000
00000302
00000000
00002003
00000000
00003100
00000010
,
00000002
00000000
00002003
00000000
00003001
00000100
00000001
00000100
,
00000001
00000000
00000000
00000000
00000000
00000000
00010000
00001000
,
00010000
00001000
00010000
00000000
00000000
00000000
00000000
00000000
,
10000000
01000000
10000000
01000000
10000000
00000000
00000000
00000000
,
00000000
20010000
00000000
30100000
,
00010000
00002000
00000000
00010000
,
00013000
00011000
00011000
00010000
,
00000100
00000010
00000010
00000010
,
00000001
00000000
00001000
00000000
00000001
00000100
00000010
00000100
,
00000001
00000000
00002000
00000000
00000000
00003100
00020000
00000000
,
00031000
00011000
00011000
00001000
,
00100000
01000000
01000000
01000000
,
10000000
00000000
00010000
00000000
10000000
00100000
01000000
00100000
,
10000000
00000000
00020000
00000000
00000000
00130000
00002000
00000000
,
00013000
00000000
00020200
00333300
,
00020100
00000000
00030200
00003000
00000310
00001000
00010000
00000000
,
00022000
00033000
02002000
03333300
,
01002000
00000000
02003000
00030000
03100000
00010000
00001000
00000000
,
00010000
00001000
00013000
00000000
00000000
00000000
00000000
00000000
,
00000000
00000100
00002002
00000000
00003003
00000000
00000001
00000100
,
00000010
00000000
00001000
00000100
00001000
00000000
00000100
00000000
,
00010000
00001000
00001000
00100000
,
00100000
00000000
00010000
01000000
00100000
00000000
10000000
01000000
,
00100000
20020000
30030000
10000000
,
00100000
00000000
01000000
00010000
01000000
00000000
00010000
00100000
,
00001000
00010000
00011000
00001000
,
00011000
00000000
00010000
00000100
00000010
00000000
00000001
00001000
,
00000010
00000000
00001000
00000001
00001000
00000001
00000200
00000000
,
00000000
00000000
00000310
00010000
00002000
00000000
00103000
01000000
,
20000000
00000000
30010000
01000000
00200000
00000000
00320000
00000000
,
00032000
00000000
00013000
00000100
00000010
00000001
00001000
00000001
,
00001000
00000001
00000200
00000000
00000000
00001300
00020000
00000000
,
00000000
00130000
20000000
00000000
30020000
00000000
00130000
01000000
,
10000000
00000000
00010000
01000000
00010000
01000000
00001000
00010000
,
00001000
00010000
00000100
00000010
00000100
00000010
00000001
00000200
,
00003000
00000000
00000310
00001000
00000010
00001000
00000200
00000000
,
00000300
00000000
00000000
00000000
00010000
00001000
00010000
00001000
,
00200000
00000000
00300000
00000000
00000000
00000000
00010000
01000000
,
00010000
01000000
00200000
00000000
10300000
00010000
10000000
00010000
,
10020000
00130000
00001000
00010000
,
00021000
00030010
00000100
00000110
,
00001002
00000000
00000023
00000000
00000130
00010000
00000100
00000000
,
00010000
00011000
00011000
00002000
,
02003000
00000000
03200000
00000000
10300000
00010000
00100000
00000000
,
00202000
00000000
00303000
00001000
02000000
00000000
03100000
00000000
,
20010000
00000000
32000000
00000000
03100000
00001000
00100000
00000000
,
00001000
00011000
00011000
00020000
,
00030020
00000000
00000130
00000001
00001300
00000001
00000100
00000000
,
00000202
00003030
00000303
00001000
00000200
00000000
00010300
00000000
,
00001000
00201000
00301000
00201000
,
00320000
00000000
01030000
00100000
00020000
00000000
00031000
00000000
,
00010000
00010020
00010030
00010020
,
00002030
00000000
00003010
00000100
00002000
00000000
00013000
00001000
,
00010000
00000000
00000000
00000000
,
00012000
00000000
00013000
00000010
00000200
00000000
00000301
00001000
,
00000002
00000000
00000013
00000000
00000100
00001000
00000100
00010000
,
00002000
00000000
01003000
00100000
02000000
00000000
03020000
00000000
,
10030000
01000000
00100000
00000000
00010000
01000000
00100000
00000000
,
10100000
01100000
01010000
00101000
,
00011000
00010100
00000110
00001001
,
00000001
00001003
00000001
00001000
00000001
00001000
00000001
00001000
,
00000020
00000000
00000030
00000000
;

//---------------dance-double - ----------------
#NOTEDATA:;
#CHARTNAME:;
#STEPSTYPE:dance-double;
#DESCRIPTION:;
#CHARTSTYLE:;
#DIFFICULTY:Easy;
#METER:7;
#RADARVALUES:0.316785,0.377225,0.116710,0.350131,0.000000,266.000000,252.000000,14.000000,42.000000,0.000000,0.000000,0.000000,0.000000,0.000000,0.316785,0.377225,0.116710,0.350131,0.000000,266.000000,252.000000,14.000000,42.000000,0.000000,0.000000,0.000000,0.000000,0.000000;
#CREDIT:Ben Speirs;
#NOTES:
// measure 0
00000000
00000000
00000000
00000000
,  // measure 1
00000000
00000000
00000000
00000000
,  // measure 2
00000000
00000000
00000000
00000000
,  // measure 3
00000000
00000000
00000000
00000000
,  // measure 4
00000000
00000000
00000000
00000000
,  // measure 5
00000000
00000000
00022000
00033300
,  // measure 6
00001000
00100000
02000000
03000000
,  // measure 7
10000000
00100000
01000000
00010000
,  // measure 8
01000000
00000000
00001000
00010000
,  // measure 9
00001000
00000000
00010000
00000100
,  // measure 10
00000010
00000000
00000001
00000001
,  // measure 11
00000100
00000100
00000010
00010000
,  // measure 12
00000010
00010000
00002000
00000000
,  // measure 13
00003000
00000000
00100000
00200000
,  // measure 14
00300000
00000000
00010000
10000000
,  // measure 15
00100000
00000000
01000000
02000000
,  // measure 16
03000000
00000000
00010000
01000000
,  // measure 17
00001000
00000000
00010000
00020000
,  // measure 18
00030000
00000000
00001000
00010000
,  // measure 19
00000100
00000000
00001000
00000100
,  // measure 20
00000010
00000001
00000100
00000010
,  // measure 21
00001000
00000000
00000001
00000002
,  // measure 22
00000003
00000000
00000001
00000010
,  // measure 23
00000100
00001000
00000010
00000020
,  // measure 24
00000030
00000000
00001000
00000100
,  // measure 25
00010000
00001000
00100000
00200000
,  // measure 26
00300000
00000000
00010000
01000000
,  // measure 27
00100000
10000000
01000000
01000000
,  // measure 28
00100000
00100000
00010000
01000000
,  // measure 29
00001000
00000000
00010000
00001000
,  // measure 30
00200000
00300000
00000000
00001000
,  // measure 31
00010000
00000020
00000030
00000000
,  // measure 32
00010000
00001000
02000000
03000000
,  // measure 33
00000000
00022000
00033000
00010000
,  // measure 34
00000100
00000020
00000030
00000001
,  // measure 35
00001000
00000010
00000010
00000100
,  // measure 36
00000001
00001000
00001000
00001000
,  // measure 37
00000100
00010000
00001000
00100000
,  // measure 38
01000000
20000000
00000000
00020000
,  // measure 39
30030000
00010000
01000000
00100000
,  // measure 40
10000000
00010000
00010000
00010000
,  // measure 41
00100000
00001000
00010000
00000100
,  // measure 42
00000010
00000002
00000000
00002000
,  // measure 43
00003003
00000000
00000110
00000000
,  // measure 44
00001001
00000000
00001000
00000100
,  // measure 45
00010000
00000000
00011000
00000000
,  // measure 46
00011000
00000000
00001000
01000000
,  // measure 47
00100000
10000000
00000000
00000000
,  // measure 48
00000000
20020000
00000000
30030000
,  // measure 49
00000000
00010000
00100000
00001000
,  // measure 50
00000000
00010000
00010000
00000010
,  // measure 51
00000000
00010000
00000010
00000100
,  // measure 52
00000001
00002000
00000000
00003000
,  // measure 53
00000000
00000001
00000010
00000100
,  // measure 54
00000000
00010000
00010000
00001000
,  // measure 55
00001000
01000000
00100000
10000000
,  // measure 56
00000000
00010000
10000000
02000000
,  // measure 57
00000000
03100000
00100000
00001000
,  // measure 58
00001000
00010000
00000010
00000100
,  // measure 59
00000001
00001000
00000100
00000010
,  // measure 60
00000000
00000002
00000000
00000023
,  // measure 61
00000000
00000130
00010000
00001000
,  // measure 62
01000000
00100000
00100000
10000000
,  // measure 63
10000000
00010000
00100000
00002000
,  // measure 64
00000000
00013000
00001000
02000000
,  // measure 65
03000000
00000000
00001000
00010000
,  // measure 66
00000200
00000300
00000000
00010000
,  // measure 67
00001000
00200000
00300000
00000000
,  // measure 68
00022000
00033000
00001000
01000000
,  // measure 69
00200000
00300000
10000000
00010000
,  // measure 70
00100000
00100000
01000000
10000000
,  // measure 71
00010000
00010000
00010000
01000000
,  // measure 72
00001000
00010000
00000100
00000010
,  // measure 73
00000002
00000000
00002000
00003003
,  // measure 74
00001000
00000100
00000010
00000001
,  // measure 75
00001000
00001000
00001000
00000010
,  // measure 76
00010000
00001000
00100000
01000000
,  // measure 77
20000000
00000000
00020000
30030000
,  // measure 78
00000000
01100000
00000000
10010000
,  // measure 79
00000000
00010000
00100000
00001000
,  // measure 80
00000000
00011000
00000000
00011000
,  // measure 81
00000000
00010000
00000010
00010000
,  // measure 82
00001000
00000000
00000000
00000000
,  // measure 83
00022000
00333000
00010000
00000100
,  // measure 84
00000020
00000030
00000001
00000100
,  // measure 85
00000010
00001000
00000010
00000000
,  // measure 86
00010000
00001000
00010000
00000000
,  // measure 87
00001000
00100000
01000000
00000000
,  // measure 88
10000000
10000000
00100000
00100000
,  // measure 89
01000000
00001000
01000000
00001000
,  // measure 90
00022000
00000000
00033000
00000000
;
