#VERSION:0.83;
#TITLE:おおきなこえで;
#SUBTITLE:;
#ARTIST:猫叉Master feat.Sana;
#TITLETRANSLIT:Ookina koe de;
#SUBTITLETRANSLIT:;
#ARTISTTRANSLIT:Neko Master feat.Sana;
#GENRE:;
#ORIGIN:;
#CREDIT:;
#BANNER:Ookina koe de.png;
#BACKGROUND:Ookina koe de-bg.png;
#PREVIEWVID:;
#JACKET:Ookina koe de-jacket.png;
#CDIMAGE:;
#DISCIMAGE:;
#LYRICSPATH:Ookina koe de.lrc;
#CDTITLE:;
#MUSIC:Ookina koe de.ogg;
#OFFSET:-0.005000;
#SAMPLESTART:62.390099;
#SAMPLELENGTH:16.000000;
#SELECTABLE:YES;
#BPMS:0.000=100.000;
#STOPS:;
#DELAYS:;
#WARPS:;
#TIMESIGNATURES:0.000=4=4;
#TICKCOUNTS:0.000=4;
#COMBOS:0.000=1;
#SPEEDS:0.000=1.000=0.000=0;
#SCROLLS:0.000=1.000;
#FAKES:;
#LABELS:0.000=Song Start;
#BGCHANGES:0.000=Ookina koe de.mp4=1.000=0=0=0=StretchNoLoop====,
99999=-nosongbg-=1.000=0=0=0 // don't automatically add -songbackground-
;
#KEYSOUNDS:;
#ATTACKS:
;

//---------------dance-single - ----------------
#NOTEDATA:;
#CHARTNAME:;
#STEPSTYPE:dance-single;
#DESCRIPTION:;
#CHARTSTYLE:;
#DIFFICULTY:Hard;
#METER:12;
#RADARVALUES:0.490613,0.533237,0.251728,0.494466,0.463000,382.000000,354.000000,28.000000,55.000000,0.000000,0.000000,0.000000,0.000000,0.000000,0.490613,0.533237,0.251728,0.494466,0.463000,382.000000,354.000000,28.000000,55.000000,0.000000,0.000000,0.000000,0.000000,0.000000;
#CREDIT:Ben Speirs;
#NOTES:
0000
0000
0000
0000
,
0000
0000
0000
0000
,
0000
0000
0000
0000
,
0000
0010
0000
0010
0000
0100
0000
0100
0000
0000
0000
0000
1001
0000
0000
0000
,
0101
0000
0000
0100
0010
0000
1000
0000
0100
0000
0000
0100
0010
0000
0001
0000
,
1000
0000
0000
1000
0010
0000
1000
0001
1000
0000
0001
0000
1000
0100
0010
0000
,
0001
0000
0000
0001
0100
0000
1000
0000
0100
0000
0000
0100
0010
0000
1000
0000
,
0200
0000
0302
0000
0203
0000
2300
0000
3010
0000
0100
0010
0000
0010
0000
0000
,
1001
0000
0010
0000
1000
0000
0001
0000
1000
0000
0100
0010
0000
0010
0001
0000
,
0000
0000
0001
0000
0010
0000
0001
0000
1000
0000
0001
0100
0000
0100
0010
0000
,
0000
0000
1000
0100
0010
0000
0001
0000
1000
0000
0010
0100
0000
0100
0010
0000
,
2000
0000
3100
0000
0002
0000
0133
0000
1000
0000
0010
0100
0000
0000
1001
0000
,
0001
0000
0100
0000
0001
0000
1000
0000
0001
0000
0010
0100
0000
0010
0100
0000
,
0000
0000
1000
0000
0100
0000
1000
0000
0001
0000
1000
0010
0000
0100
0010
0000
,
0000
0000
1000
0000
0100
0000
0010
0000
0001
0000
1000
0010
0000
0010
0100
0000
,
0002
0000
0013
0000
2000
0000
3310
0000
0001
0000
0100
0010
0000
0000
1001
0000
,
1000
0000
2010
0000
0000
3001
0000
0012
0000
0000
1003
0010
0100
0000
0001
0000
,
1000
0100
0000
0001
0000
0100
0000
1000
0001
0000
0000
1000
0010
0000
0100
0000
,
0001
0000
0102
0000
0000
1003
0000
2100
0000
0000
3001
0010
0100
0000
1000
0000
,
0001
0000
0000
0000
0100
0000
0000
0000
0010
0000
0000
0000
1000
0000
0000
0000
0100
0000
0000
0000
0010
0000
0000
0000
0001
0000
0000
0000
0000
0000
0000
0000
0000
1000
0000
0000
0001
0000
0000
0000
0000
0000
0100
0000
0000
0000
0000
0000
,
0020
0000
0001
0000
0000
0230
0000
1000
0000
0000
0310
1000
0001
0000
0100
0000
,
0001
0010
0000
1000
0000
0010
0000
0001
1000
0000
0000
0001
0100
0000
0010
0000
,
2000
0100
3020
0001
0230
1000
0302
0010
,
1003
0000
0000
1000
3100
0000
0010
0000
0001
0000
1000
0010
0000
0000
0110
0000
,
0002
0010
2003
0010
,
3200
0000
0000
0000
0000
0000
0000
0000
1300
0001
0000
0000
1001
0000
0110
0000
,
1001
0000
0001
0010
0200
0000
0001
0000
1300
0000
0001
0100
0020
0000
0001
0000
,
1030
0100
2000
0000
0000
0000
3001
0000
0100
0010
0000
0100
0010
0000
1010
0000
,
0001
0000
1000
0100
0020
0000
1000
0000
0031
0000
1000
0010
0200
0000
1000
0000
,
0301
0010
0002
0000
0000
0000
1003
0000
0010
0100
0000
0010
0100
0000
0101
0000
,
2000
0000
3100
0010
0002
0000
0103
0010
2000
0000
3010
0100
0002
0000
2003
0000
,
3100
0010
0200
0000
1300
0000
0010
0100
0002
0000
1000
0000
1003
0000
0000
0000
,
0201
0000
0000
0000
0000
0000
0301
0000
0010
0000
0100
0000
1000
0000
0000
0010
0000
0000
0100
0000
0000
0001
0000
0000
,
1000
0100
0000
0100
0010
0000
0001
1000
0000
0001
0000
1000
0100
0000
0010
0000
,
0011
0001
0101
0100
0110
0010
1010
1001
,
1000
0100
0020
0000
1000
0000
0031
1000
0020
0000
0230
0000
0302
0000
1003
0000
,
1100
1000
1010
0010
0110
0100
0101
1001
,
0001
0010
0200
0000
0001
0000
1300
0001
0100
0000
0010
1000
0001
0000
1001
0000
,
0002
0000
0013
0100
2000
0000
3010
0100
0002
0000
0103
0010
2000
0000
3002
0000
,
0013
0100
0020
0000
0031
0000
0100
0010
2000
0000
0001
0000
3001
0000
0000
0000
,
1020
0000
0000
0000
0000
0000
1030
0000
0100
0000
0010
0000
0001
0000
0000
0100
0000
0000
0010
0000
0000
1000
0000
0000
,
0001
0100
0000
0000
0010
1000
0000
0000
0001
0010
0000
0010
0000
0100
1000
0000
,
0002
0203
2300
0000
,
3100
0000
0000
0000
0000
0000
0000
0000
0000
0010
0100
0010
0100
0000
0000
0000
0000
0000
0000
0000
0000
0001
0000
0000
,
2000
0000
0000
0000
3200
0000
0000
0000
0302
0000
0000
0103
0013
0100
0000
1000
,
0000
0010
0000
0100
0000
0001
0000
2000
0000
0000
3001
0000
0000
0000
0000
0000
;

//---------------dance-single - ----------------
#NOTEDATA:;
#CHARTNAME:;
#STEPSTYPE:dance-single;
#DESCRIPTION:;
#CHARTSTYLE:;
#DIFFICULTY:Medium;
#METER:8;
#RADARVALUES:0.286405,0.328146,0.062932,0.386583,0.053942,223.000000,216.000000,7.000000,43.000000,0.000000,0.000000,0.000000,0.000000,0.000000,0.286405,0.328146,0.062932,0.386583,0.053942,223.000000,216.000000,7.000000,43.000000,0.000000,0.000000,0.000000,0.000000,0.000000;
#CREDIT:Ben Speirs;
#NOTES:
0000
0000
0000
0000
,
0000
0000
0000
0000
,
0000
0000
0000
0000
,
0000
0000
0000
1001
,
0001
0100
0010
0100
0002
0000
1003
0000
,
0001
0010
0100
0000
1000
0000
0001
0000
,
1000
0010
0100
0010
2000
0000
3001
0000
,
1000
0100
0010
0000
0001
0100
0010
0000
,
1001
0000
1000
0000
0001
0100
0010
0000
,
1000
0000
0001
0000
1000
0100
0010
0000
,
0001
0000
1000
0000
0001
0100
0010
0000
,
2000
3002
0023
0130
,
1000
0100
1000
0100
0010
0000
0010
0000
,
0001
0100
0001
0100
0010
0000
0010
0000
,
1000
0001
1000
0001
0010
0000
0010
0000
,
0002
0203
0320
1030
,
0001
0000
0001
0000
0000
1000
0000
1000
0000
0000
0000
0000
0100
0000
0000
0000
,
1000
0100
0010
0001
1000
0000
0001
0000
,
1000
0000
1000
0000
0000
0001
0000
0001
0000
0000
0000
0000
0100
0000
0000
0000
,
0001
0100
0010
1000
0001
0000
0000
0000
,
1000
0000
1000
0000
0000
0100
0000
0100
0000
0000
0000
0000
0010
0000
0000
0000
,
0001
0100
0010
1000
0001
0000
1000
0100
,
0020
0032
0203
0320
,
2030
0000
3100
0010
0002
0000
0103
0000
,
2001
0000
3200
0000
,
0320
0000
0130
0000
,
1002
0000
0023
0000
0230
0000
1300
0010
,
1000
0001
2000
0000
0000
0000
0000
0000
3100
0000
0010
0000
0001
0000
0000
0000
,
2000
0000
3020
0000
0230
0000
0301
1000
,
0001
0100
0002
0000
0000
0000
0000
0000
1003
0000
0000
0000
0001
0000
0010
0000
,
0200
0000
2300
0000
3020
0000
0130
0001
,
0100
0010
0200
0000
0000
0000
0000
0000
3301
0000
0000
0000
1000
0000
0000
0000
,
1200
0000
0310
0001
0200
0000
0310
0000
,
1000
0010
0100
0000
0001
0010
0100
0000
,
1000
0100
1000
0100
0010
0001
0010
0001
,
1000
0010
2000
0000
0000
0000
0000
0000
3001
0000
0000
0000
1000
0000
0000
0000
,
0001
0100
0001
0100
0010
1000
0010
1000
,
0001
0010
0002
0000
0000
0000
0000
0000
1003
0000
0100
0000
0010
0000
0000
0000
,
2001
0000
3032
0000
0203
0000
0310
1000
,
0010
0100
0020
0000
0000
0000
0000
0000
1033
0000
0000
0000
0001
0000
0000
0000
,
0021
0000
0130
1000
0020
0000
0130
0000
,
0001
0100
0010
0000
1000
0100
0010
0000
,
0002
0010
2000
0000
,
3003
0000
0000
1000
0001
0000
0000
0000
,
2000
0100
3002
0100
,
1003
0010
0100
0000
0010
0010
0000
0000
;

//---------------dance-single - ----------------
#NOTEDATA:;
#CHARTNAME:;
#STEPSTYPE:dance-single;
#DESCRIPTION:;
#CHARTSTYLE:;
#DIFFICULTY:Easy;
#METER:4;
#RADARVALUES:0.163110,0.184582,0.008990,0.458505,0.000000,127.000000,126.000000,1.000000,51.000000,0.000000,0.000000,0.000000,0.000000,0.000000,0.163110,0.184582,0.008990,0.458505,0.000000,127.000000,126.000000,1.000000,51.000000,0.000000,0.000000,0.000000,0.000000,0.000000;
#CREDIT:Ben Speirs;
#NOTES:
0000
0000
0000
0000
,
0000
0000
0000
0000
,
0000
0000
0000
0000
,
0000
0000
0000
0000
,
2000
3200
0320
0000
,
0031
0000
1000
1000
,
0002
0203
0320
0000
,
1030
0000
0001
0001
,
1000
0000
0100
0100
,
0010
0000
0001
0001
,
0100
0000
0010
0010
,
1000
0100
0010
0001
,
1000
0000
0001
0001
,
0100
0000
0100
0100
,
0010
0000
1000
1000
,
0001
0010
0100
1000
,
0001
0001
0100
0000
,
0001
0010
0100
0000
,
1000
1000
0010
0000
,
1000
0010
0100
0000
,
0001
1000
0100
0000
,
1000
0001
0100
0000
,
0002
0023
0230
2300
,
3020
0030
0200
0300
,
0002
0000
2003
0000
,
3200
0000
0300
0000
,
2001
3020
0230
0302
,
0013
0020
0000
0000
0030
0000
0000
0000
,
0002
0203
0320
2030
,
3100
0200
0000
0000
0300
0000
0000
0000
,
2000
3020
0230
0302
,
1003
2000
0000
0000
3000
0000
0001
0000
,
0200
0000
0300
0010
0020
0000
0030
0000
,
1000
0100
0010
0001
,
2000
3002
0203
0320
,
1030
2000
0000
0000
3000
0000
0000
0000
,
0020
2030
3200
0320
,
0031
0002
0000
0000
0003
0000
0000
0000
,
2000
3002
0203
0320
,
0130
0200
0000
0000
0300
0000
0010
0000
,
0020
0000
0030
0100
0200
0000
0300
0000
,
0001
0010
0100
1000
,
0010
0010
0200
0000
,
0000
0300
0010
0000
,
1000
1000
0002
0000
,
0003
0000
0000
0000
1000
1000
0000
0000
;

//---------------dance-single - ----------------
#NOTEDATA:;
#CHARTNAME:;
#STEPSTYPE:dance-single;
#DESCRIPTION:;
#CHARTSTYLE:;
#DIFFICULTY:Beginner;
#METER:2;
#RADARVALUES:0.091187,0.121369,0.008990,0.000000,0.000000,71.000000,70.000000,1.000000,0.000000,0.000000,0.000000,0.000000,0.000000,0.000000,0.091187,0.121369,0.008990,0.000000,0.000000,71.000000,70.000000,1.000000,0.000000,0.000000,0.000000,0.000000,0.000000,0.000000;
#CREDIT:Ben Speirs;
#NOTES:
0000
0000
0000
0000
,
0000
0000
0000
0000
,
0000
0000
0000
0000
,
0000
0000
0000
0000
,
0001
0001
0001
0000
,
0001
0000
0000
0000
,
1000
1000
1000
0000
,
1000
0000
0000
0000
,
0100
0000
0100
0000
,
0100
0000
0000
0000
,
0010
0000
0010
0000
,
0010
0000
0000
0000
,
0001
0000
0001
0000
,
0001
0000
0000
0000
,
1000
0000
1000
0000
,
1000
0000
0000
0000
,
0010
0010
0000
0000
,
0010
0000
0000
0000
,
0100
0100
0000
0000
,
0100
0000
0000
0000
,
0001
0001
0000
0000
,
0001
0000
0000
0000
,
1000
0000
1000
0000
,
1000
0000
0000
0000
,
1001
0000
0000
0000
,
0000
0000
0000
0000
,
0001
0001
0001
0000
,
0001
0000
0000
0000
,
0010
0010
0010
0000
,
0010
0000
0000
0000
,
0100
0100
0100
0000
,
0100
0000
0000
0000
,
1000
0000
1000
0000
,
1000
0000
0000
0000
,
0010
0010
0010
0010
,
0010
0000
0000
0000
,
0100
0100
0100
0100
,
0100
0000
0000
0000
,
0001
0001
0001
0001
,
0001
0000
0000
0000
,
1000
0000
1000
0000
,
1000
0000
0000
0000
,
0100
0000
0000
0000
,
0010
0000
0000
0000
,
0001
0000
0000
0000
,
1000
0000
0000
0000
;

//---------------dance-double - ----------------
#NOTEDATA:;
#CHARTNAME:;
#STEPSTYPE:dance-double;
#DESCRIPTION:;
#CHARTSTYLE:;
#DIFFICULTY:Hard;
#METER:12;
#RADARVALUES:0.481623,0.492219,0.269709,0.521437,0.436030,375.000000,345.000000,30.000000,58.000000,0.000000,0.000000,0.000000,0.000000,0.000000,0.481623,0.492219,0.269709,0.521437,0.436030,375.000000,345.000000,30.000000,58.000000,0.000000,0.000000,0.000000,0.000000,0.000000;
#CREDIT:Ben Speirs;
#NOTES:
// measure 0
00000000
00000000
00000000
00000000
,  // measure 1
00000000
00000000
00000000
00000000
,  // measure 2
00000000
00000000
00000000
00000000
,  // measure 3
00000000
00010000
00000000
00010000
00000000
00001000
00000000
00001000
00000000
00000000
00000000
00000000
00011000
00000000
00000000
00000000
,  // measure 4
00010100
00000000
00000000
00000100
00010000
00000000
00001000
00000000
01000000
00000000
00000000
01000000
00010000
00000000
00100000
00000000
,  // measure 5
00001000
00000000
00000000
00010000
00001000
00000000
00010000
00000010
00001000
00000000
00000100
00000000
00010000
00001000
00100000
00000000
,  // measure 6
00101000
00000000
00000000
00100000
00001000
00000000
00010000
00000000
00000010
00000000
00000000
00000010
00001000
00000000
00000100
00000000
,  // measure 7
00020000
00000000
02030000
00000000
23300000
00000000
30200000
00000000
00320000
00000000
00031000
00000100
00033000
00000100
00000000
00000000
,  // measure 8
00001001
00000000
00000001
00000000
00000100
00000000
00000001
00000000
00000010
00000000
00000100
00010000
00000000
00001000
00100000
00000000
,  // measure 9
00000000
00000000
00001000
00000000
00010000
00000000
00001000
00000000
00000100
00000000
00001000
00010000
00000000
00100000
10000000
00000000
,  // measure 10
00000000
00000000
00010000
00100000
01000000
00000000
10000000
00000000
00100000
00000000
01000000
00001000
00000000
00001000
00010000
00000000
,  // measure 11
00000200
00000000
00010300
00000000
02000000
00000000
03010000
00000000
00001000
00000000
01000000
00100000
00000000
00000000
01100000
00000000
,  // measure 12
00010000
00000000
10000000
00000000
00100000
00000000
10000000
00000000
01000000
00000000
00100000
00001000
00000000
00010000
00000100
00000000
,  // measure 13
00000000
00000000
00010000
00000000
00001000
00000000
00010000
00000000
00100000
00000000
00010000
00001000
00000000
00000100
00000001
00000000
,  // measure 14
00000000
00000000
00000001
00000000
00000010
00000000
00000100
00000000
00001000
00000000
00000010
00010000
00000000
00010000
00001000
00000000
,  // measure 15
00200000
00000000
00301000
00000000
00000020
00000000
00001030
00000000
00010000
00000000
00000010
00000100
00000000
00000000
00000110
00000000
,  // measure 16
00010000
00000000
00020100
00000000
00000000
00031000
00000000
02001000
00000000
00000000
03100000
10000000
00010000
00000000
00000000
00000000
,  // measure 17
10000000
02000000
00000000
03020000
00000000
00032000
00000000
00003010
00000331
00000000
00000100
00000010
00000100
00000000
00000001
00000000
,  // measure 18
00001000
00000000
00002100
00000000
00000000
00003001
00000000
00000201
00000000
00000000
00000310
00001000
00000001
00000000
00000010
00000000
,  // measure 19
00000001
00000000
00000000
00000000
00000100
00000000
00000000
00000000
00000010
00000000
00000000
00000000
00001000
00000000
00000000
00000000
00000100
00000000
00000000
00000000
00010000
00000000
00000000
00000000
00001000
00000000
00000000
00000000
00000000
00000000
00000000
00000000
00000000
00100000
00000000
00000000
01000000
00000000
00000000
00000000
00000000
00000000
00100000
00000000
00000000
00000000
00000000
00000000
,  // measure 20
00001000
00000000
00102000
00000000
00000000
00013000
00000000
00010020
00000000
00000000
00000130
00000001
00001000
00000000
00000000
00000000
,  // measure 21
00000001
00000020
00000000
00002030
00000000
00023000
00000000
01030000
13300000
00000000
00100000
01000000
00100000
00000000
10000000
00000000
,  // measure 22
00020000
00100000
00230000
00001000
00302000
00010000
00023000
00000010
,  // measure 23
00030010
00000000
00000100
00000000
00000001
00000000
00000010
00000000
00000100
00001000
00000000
00000100
00010000
00000000
00011000
00000000
,  // measure 24
02000000
00010000
03002000
00100000
,  // measure 25
00023000
00000000
00000000
00000000
00000000
00000000
00000000
00000000
00030010
00000100
00000000
00000000
00001001
00000000
00000110
00000000
,  // measure 26
00001001
00000000
00000001
00000010
00003200
00000000
00000001
00000000
00001300
00000000
00000001
00000100
00000020
00000000
00000001
00000000
,  // measure 27
00001030
00000100
00020000
00000000
00000000
00000000
00031000
00000000
01000000
00100000
00000000
10000000
00010000
00000000
10010000
00000000
,  // measure 28
00010000
00000000
10000000
01000000
00230000
00000000
10000000
00000000
00310000
00000000
10000000
00100000
02000000
00000000
10000000
00000000
,  // measure 29
03010000
00100000
00002000
00000000
00000000
00000000
00013000
00000000
00000010
00000100
00000000
00000001
00001000
00000000
00001001
00000000
,  // measure 30
00000002
00000000
00000013
00000100
00002000
00000000
00003010
00000100
00000020
00000000
00001030
00000100
00020000
00000000
00032000
00000000
,  // measure 31
01003000
00100000
20000000
00000000
30010000
00000000
10000000
01000000
00200000
00000000
00010000
00000000
00310000
00000000
00000000
00000000
,  // measure 32
20010000
00000000
00000000
00000000
00000000
00000000
33010000
00000000
01000000
00000000
00001000
00000000
00020000
00000000
00000000
00001000
00000000
00000000
00031000
00000000
00000000
00000000
00000000
00000000
,  // measure 33
00100000
00001000
00000000
00010000
00001000
00000000
00010000
00000010
00000300
00000100
00000000
00000010
00010000
00000000
00001000
00000000
,  // measure 34
00011000
00010000
00010010
00000010
00000110
00000100
00000101
00001001
,  // measure 35
00001000
00000100
00000020
00000000
00001000
00000000
00000031
00000000
00000100
00000000
00000010
00000000
00010000
00000000
00001000
00000000
,  // measure 36
00011000
00001000
01001000
01000000
01100000
00100000
10100000
10010000
,  // measure 37
00010000
00100000
02000000
00000000
00010000
00000000
13000000
00000000
00100000
00000000
01000000
00000000
00001000
00000000
00010000
00000000
,  // measure 38
00002000
00100000
00023000
00000010
00032000
01000000
00023000
00030200
,  // measure 39
00000310
00000001
00001000
00000000
00000001
00000000
00001000
00000010
00000200
00000000
00000001
00000000
00000301
00000000
00000000
00000000
,  // measure 40
00001002
00000000
00000000
00000000
00000000
00000000
00001033
00000000
00000010
00000000
00010000
00000000
00002000
00000000
00000000
00010000
00000000
00000000
00013000
00000000
00000000
00000000
00000000
00000000
,  // measure 41
00000100
00010000
00000000
00000000
00001000
00010000
00000000
00000000
00001000
01000000
00000000
01000000
00000000
00100000
00010000
00000000
,  // measure 42
00002000
00000010
00020000
00000000
,  // measure 43
00033000
00000000
00000000
00000000
00000000
00000000
00000000
00000000
00000000
00001000
00010000
00001000
00010000
00000000
00000000
00000000
00000000
00000000
00000000
00000000
00000000
00000000
00000000
00000000
,  // measure 44
00020000
00000000
00000000
00000000
00100000
00000000
00000000
00000000
00032000
00000000
00000000
00013000
00000010
00010000
00000000
00000100
,  // measure 45
00000000
00000010
00000000
00000001
00000000
00000100
00000000
00000002
00000000
00000000
00001003
00000000
00000000
00000000
00000000
00000000
;

//---------------dance-double - ----------------
#NOTEDATA:;
#CHARTNAME:;
#STEPSTYPE:dance-double;
#DESCRIPTION:;
#CHARTSTYLE:;
#DIFFICULTY:Medium;
#METER:9;
#RADARVALUES:0.300533,0.348655,0.098893,0.485476,0.031466,234.000000,223.000000,11.000000,54.000000,0.000000,0.000000,0.000000,0.000000,0.000000,0.300533,0.348655,0.098893,0.485476,0.031466,234.000000,223.000000,11.000000,54.000000,0.000000,0.000000,0.000000,0.000000,0.000000;
#CREDIT:Ben Speirs;
#NOTES:
00000000
00000000
00000000
00000000
,
00000000
00000000
00000000
00000000
,
00000000
00000000
00000000
00000000
,
00000000
00000000
00000000
00011000
,
00010000
00000100
00000010
00000001
00000200
00000000
00000310
00000000
,
00001000
00000010
00000100
00000000
00000001
00000010
00000100
00000000
,
00010000
00001000
00100000
00010000
02000000
00000000
03100000
00000000
,
10000000
00100000
01000000
00000000
00010000
00100000
00001000
00000000
,
00021000
00000000
00030020
00000000
00000130
00000001
00000100
00000000
,
00000002
00000000
00000023
00000000
00000130
00001000
00000100
00000000
,
00020000
00000000
00032000
00000000
01003000
00010000
01000000
00000000
,
02010000
03100000
20100000
30010000
,
10000000
01000000
10000000
01000000
00200000
00000000
00301000
00000000
,
00001000
00010000
00001000
00010000
00000020
00000000
00000130
00000000
,
00000001
00000100
00000001
00000100
00000020
00000000
00001030
00000000
,
00001002
00000013
00002001
00003100
,
00010000
00001000
00000000
00001000
00010000
00000000
00001000
00000000
,
00100000
00010000
01000000
00100000
10000000
00000000
00010000
00000000
,
10000000
01000000
00000000
00100000
00010000
00000000
01000000
00000000
,
00001000
00010000
00001000
00000000
00200000
00000000
00331000
00000000
,
00001000
00010000
00000000
00010000
00001000
00000000
00010000
00000000
,
00000100
00001000
00000010
00000100
00000001
00000000
00001000
00000000
,
00000002
00000023
00002030
00023000
,
02030000
00000000
00100000
00000000
03200000
00000000
00301000
00010000
,
00002000
00000000
00023000
00000000
,
00030020
00000000
00000130
00000110
,
00002001
00000000
00003200
00000000
00020300
00000000
00031000
01000000
,
00010000
10000000
00020000
00000000
00000000
00000000
00000000
00000000
00130000
00000000
01000000
00000000
10000000
00000000
00000000
00000000
,
20010000
00000000
30200000
00000000
02300000
00000000
03001000
00010000
,
00000100
00001000
00000200
00000000
00000000
00000000
00000000
00000000
00001300
00000000
00000000
00000000
00000001
00000000
00000100
00000000
,
00000201
00000000
00000320
00000000
00020030
00000000
00031000
00100000
,
00010000
10000000
00020000
00000000
00000000
00000000
01030000
00000000
00200000
00000000
00000000
00000000
10300000
00000000
01000000
00000000
,
00200000
00000000
00301000
00010000
00002000
00000000
00013000
00000000
,
00010000
00000010
00000100
00000001
00000010
00000100
00001000
00000000
,
00000001
00000100
00000001
00000100
00000010
00001000
00000010
00001000
,
00000100
00010000
00000200
00000000
00000000
00000000
00000000
00000000
00010300
00000000
00000000
00000000
00001000
00000000
00000000
00000000
,
01000000
00010000
01000000
00010000
10000000
00100000
10000000
00100000
,
10000000
00010000
20000000
00000000
00000000
00000000
00000000
00000000
30010000
00000000
00000000
00000000
00100000
00000000
00001000
00000000
,
00021000
00000000
00030020
00000000
00000230
00000000
00000301
00001000
,
00000100
00010000
00000200
00000000
00000000
00000000
00010300
00000000
00002000
00000000
00000000
00000000
01003000
00000000
00100000
00000000
,
20000000
00000000
30010000
00100000
00002000
00000000
00013000
00000000
,
00010000
00000010
00000100
00000000
00000001
00000010
00000100
00000000
,
00002000
00000001
00000200
00000000
,
00003300
00000000
00000000
00000100
00010000
00000000
00001000
00000000
,
02000000
00010000
03002000
00013000
,
00000100
00000000
00010000
00000000
00002000
00000300
00000000
00000000
00013000
00000000
00010000
00000000
00000000
00000000
00000000
00000000
;

//---------------dance-double - ----------------
#NOTEDATA:;
#CHARTNAME:;
#STEPSTYPE:dance-double;
#DESCRIPTION:;
#CHARTSTYLE:;
#DIFFICULTY:Easy;
#METER:5;
#RADARVALUES:0.193934,0.225600,0.062932,0.548408,0.000000,151.000000,144.000000,7.000000,61.000000,0.000000,0.000000,0.000000,0.000000,0.000000,0.193934,0.225600,0.062932,0.548408,0.000000,151.000000,144.000000,7.000000,61.000000,0.000000,0.000000,0.000000,0.000000,0.000000;
#CREDIT:Ben Speirs;
#NOTES:
00000000
00000000
00000000
00000000
,
00000000
00000000
00000000
00000000
,
00000000
00000000
00000000
00000000
,
00000000
00000000
00000000
00000000
,
00002000
02003000
03200000
00300000
,
10000000
00010000
00100000
00001000
,
00020000
00030020
00000230
00000300
,
00000001
00000010
00000100
00000000
,
00010000
00010000
00001000
00000000
,
00001000
00001000
01000000
00000000
,
01000000
00100000
10000000
01000000
,
00100000
00100000
00001000
00000000
,
00001000
00001000
00010000
00000000
,
00000010
00000010
00001000
00000000
,
00000001
00000100
00000010
00001000
,
00000100
00000100
00010000
00010000
,
00001000
00001000
00000000
00010000
00010000
00000000
00000000
00000000
,
00001000
01000000
00100000
00000000
,
10000000
10000000
00000000
00010000
00010000
00000000
00000000
00000000
,
10000000
00010000
00100000
00001000
,
00010000
00010000
00000000
00001000
00001000
00000000
00000000
00000000
,
00010000
00000100
00000010
00000001
,
00002000
00003002
00000203
00000320
,
00020030
00031000
00032000
00013000
,
00022000
00033000
00200000
00300000
,
02000000
03000000
20020000
30030000
,
20000000
32000000
03020000
00032000
,
00003010
00000020
00000000
00000000
00000031
00000000
00001000
00000000
,
00000002
00000000
00000203
00000000
00002300
00000000
00020000
00003000
,
03130000
00200000
00000000
00000000
10300000
00000000
00010000
00000000
,
20000000
30200000
00320000
00032000
,
00003100
00000200
00000000
00000000
00000301
00000000
00001000
00000000
,
00002002
00003003
00000220
00000330
,
00000001
00000010
00000100
00010000
,
00002000
00203000
00320000
02030000
,
03001000
00002000
00000000
00000000
00013000
00000000
00001000
00000000
,
00020000
00030020
00002030
00003200
,
00010300
00020000
00000000
00000000
00031000
00000000
01000000
00000000
,
20010000
30200000
02300000
03002000
,
00013000
00020000
00000000
00000000
00030100
00000000
00001000
00000000
,
00002002
00003003
00000220
00000330
,
00000001
00000100
00000010
00001000
,
00000200
00000300
00020000
00030000
,
00002000
00000000
00003000
00000000
,
02000000
03000000
00200000
00300000
,
10000000
00000000
00010000
00000000
00100000
00100000
00000000
00000000
;
