#VERSION:0.83;
#TITLE:Nevereverland;
#SUBTITLE:;
#ARTIST:Morfonica;
#TITLETRANSLIT:;
#SUBTITLETRANSLIT:;
#ARTISTTRANSLIT:;
#GENRE:;
#ORIGIN:;
#CREDIT:;
#BANNER:Nevereverland banner.png;
#BACKGROUND:Nevereverland bg.png;
#PREVIEWVID:;
#JACKET:Nevereverland jk.png;
#CDIMAGE:;
#DISCIMAGE:;
#LYRICSPATH:;
#CDTITLE:;
#MUSIC:Nevereverland.ogg;
#OFFSET:0.000000;
#SAMPLESTART:98.824219;
#SAMPLELENGTH:15.000000;
#SELECTABLE:YES;
#BPMS:0.000=75.000,
36.000=206.500,
210.000=103.250,
238.000=206.500,
246.000=103.250,
248.000=206.500;
#STOPS:;
#DELAYS:;
#WARPS:;
#TIMESIGNATURES:0.000=4=4;
#TICKCOUNTS:0.000=4;
#COMBOS:0.000=1;
#SPEEDS:0.000=1.000=0.000=0;
#SCROLLS:0.000=1.000;
#FAKES:;
#LABELS:0.000=Song Start;
#BGCHANGES:;
#KEYSOUNDS:;
#ATTACKS:
;

//---------------dance-double - ----------------
#NOTEDATA:;
#CHARTNAME:;
#STEPSTYPE:dance-double;
#DESCRIPTION:;
#CHARTSTYLE:;
#DIFFICULTY:Challenge;
#METER:15;
#RADARVALUES:0.610831,0.697188,0.162373,0.556707,0.162373,553.000000,532.000000,21.000000,72.000000,0.000000,0.000000,0.000000,0.000000,0.000000,0.610831,0.697188,0.162373,0.556707,0.162373,553.000000,532.000000,21.000000,72.000000,0.000000,0.000000,0.000000,0.000000,0.000000;
#CREDIT:Karl with a K;
#NOTES:
00000000
00000000
00000000
00000000
,
00000000
00000000
00000000
00000000
,
00000000
00000000
00000000
00000000
,
00000000
00000000
00000000
00000000
,
00000000
00000000
00000000
00000000
00000000
00000000
00000000
00000000
10000000
00000000
01000000
00000000
01000000
00100000
00000000
00002000
,
00000000
00000000
00013000
00000000
00000020
00000000
00000000
00000000
00001030
00000000
00000001
00000000
00000001
00000010
00000000
00000200
,
00000000
00000000
00001300
00000000
00010000
00000000
01000000
00000000
00200000
00000000
00000000
00000000
01300000
00000000
00010000
00020000
,
00000000
00000000
00130000
00001000
00010000
00000000
00000100
00000010
00000001
00000000
00000001
00000100
00000000
00000010
00000000
00020000
,
00000000
00031000
00010000
00200000
02000000
00000000
00000000
03000000
,
10300000
00000000
10000000
00000000
01000000
00100000
00010000
00100000
,
00001000
00010000
00001000
00000000
00001000
00010000
00000010
00000110
,
00000000
00001001
00000001
00000000
00000100
00000010
00001000
00000010
,
00010000
00001000
00010000
00001000
00000010
00001000
00010000
00001000
,
00011000
00000000
01000000
01010000
00000000
00000000
10010000
00000000
,
00010000
00110000
00000000
00000000
00011000
00000000
00001100
00000000
,
00001010
00000000
00000001
00000001
00000100
00000100
00000010
00000010
,
00010000
00000010
00010000
00000010
00010000
00000000
00001000
00010000
00001000
00000000
00000000
00000000
01100000
00000000
00000000
00000000
,
10000000
01000000
00010000
01000000
00200000
00000000
00310000
20000000
,
00000000
30100000
00010000
00001000
00000010
00001000
00000020
00000000
,
00000031
00000100
00001000
00000100
00000020
00000000
00001030
00020000
,
00000000
00031000
00000010
00010000
00001000
00100000
00100000
01000000
,
10000000
00100000
00010000
00100000
02000000
00000000
03010000
20000000
,
00000000
31000000
00010000
00001000
00000100
00001000
00000200
00000000
,
00000301
00000010
00000110
00000000
00001200
00000000
00001300
00000020
,
00000000
00000000
00000130
00000000
00000110
00000000
00000000
00000000
00000010
00000000
00010000
00001000
00010000
00000000
00001000
00100000
,
01000000
02000000
00000000
13000000
20000000
00000000
30010000
00020000
,
00000000
00130000
00200000
00000000
00301000
00000000
00011000
00000000
,
00010000
00000010
00001000
00000001
00000100
00000010
00000100
00002000
,
00000000
00000000
00013000
00000000
00001000
00000000
00200000
00000000
00000000
00000000
01300000
00100000
01000000
00000000
00000000
00000000
,
20000000
00000000
30100000
00000000
01000000
01000000
00100000
01000000
,
00000000
00100000
10000000
00000000
01000000
00100000
00010000
00000000
,
00100000
00001000
00010000
00000010
00000000
00010000
00000000
00010000
,
00000000
00010000
00000100
00000000
00000010
00000001
00001000
00000000
,
00000002
00000000
00000013
00000000
00000100
00000100
00000010
00000100
,
00000000
00000010
00000001
00000000
00000100
00000010
00001000
00000000
,
00000010
00010000
00001000
00100000
00000000
00001000
00000000
00001000
,
00000000
00000000
00001000
00000000
01000000
00000000
00000000
01000000
00100000
00000000
10000000
00000000
00010000
00000000
00000000
00000000
,
20000000
00000000
31000000
01000000
00100000
01000000
00000000
00100000
,
00000000
01000000
10000000
00100000
01000000
01000000
00010000
00000000
,
01000000
00001000
00010000
00000000
00010000
00000100
00010000
00001000
,
00000000
00000010
00000000
00000020
00000000
00000031
00001000
00000000
,
00000002
00000000
00000103
00000000
00000010
00000010
00000100
00000010
,
00000000
00000100
00000001
00000000
00000010
00000100
00001000
00000000
,
00000100
00000000
00010000
00000000
00001000
00000000
00000000
00001000
01000000
00000000
00001000
00000000
00000000
00000000
00001000
00000000
,
01000000
00000000
00001000
00000000
01000000
00000000
00001000
01000000
00001000
00000000
00100000
00000000
00010000
00000000
00010000
00000000
,
10000000
01000000
00100000
01000000
20000000
00000000
30010000
02000000
,
00000000
03001000
00010000
00000100
00000010
00000000
00000001
00000100
,
00000010
00000100
00000002
00000000
00001003
00000200
00000000
00010300
,
00001000
01000000
00100000
00010000
00001000
00000100
00000001
00000010
,
00000100
00000010
00000002
00000000
00001003
00000020
00000000
00010030
,
00001000
00100000
01000000
00000000
10000000
00100000
01000000
00100000
,
20000000
00000000
30010000
00200000
00000000
00301000
00010000
00000100
,
00000010
00001000
00010000
01000000
20000000
00000000
01000000
00000000
,
30020000
00000000
00000000
00100000
00000000
00000000
10030000
00000000
20000000
00000000
00000000
00000000
32000000
00000000
00000000
00000000
,
03020000
00000000
00000000
00000000
00032000
00000000
00003200
00000000
00000320
00000000
00000000
00000032
00000000
00000000
00000023
00000000
,
00000000
00000000
00001030
00000000
00001000
00000000
00000100
00000000
00000020
00000000
00000000
00002030
00000000
00000000
00003020
00000000
,
00000130
00001000
00000100
00001000
00000010
00000000
00000200
00000000
00000302
00000000
00000000
00000103
00000001
00000000
00000000
00000000
,
00002000
00000000
00000000
00003010
00000100
00000000
00000001
00000000
00000002
00000000
00000000
00000013
00000002
00000000
00000000
00000000
,
00001003
00000000
00000100
00010000
00002000
00000000
01003000
00000000
02000000
00000000
00000000
03010000
20000000
00000000
01000000
00000000
,
31000000
00100000
00001000
00010000
00200000
00000000
10300000
01000000
10000000
00000000
01000000
00000000
00010000
00000000
01010000
00000000
,
00000000
00010000
01000000
00010000
00001000
00011000
00000000
00001000
,
00010000
00000000
00001000
00000000
00000100
00000000
00001100
00000000
00000000
00001000
00000100
00000020
00000000
00000000
00000130
00000000
,
00001001
00000000
00000001
00000010
00000000
00000010
00000100
00010000
,
00001000
01000000
00010000
01000000
00000000
00010000
10000000
01000000
,
00100000
00001000
00010000
00001000
00000000
01000000
00001000
00010000
,
00000010
00010000
00000010
00001000
00000000
00001000
00000100
00000100
,
00000001
00000100
00001000
00000100
00010000
00000000
00001000
01000000
,
00010000
01000000
10000000
00000000
10000000
01000000
00010000
01000000
,
00100000
00000000
10000000
01000000
00000000
00010000
00000000
00010000
,
00000000
00000000
00001000
00000000
00010000
00000000
00000000
00000000
00001000
00100000
00001000
00100000
00001000
00000000
00100000
00000000
,
10010000
00000000
10000000
00100000
00000000
00100000
01000000
00001000
,
00010000
00000100
00001000
00000100
00000000
00001000
00000001
00000100
,
00000020
00000000
00001000
00000000
00010030
00000100
00010000
00002000
,
00100000
00000000
00010000
00000000
01003000
00010000
01000000
01000000
,
10000000
01000000
00010000
01000000
00001000
00000000
00010000
00000100
,
00001000
00000100
00000001
00000000
00000001
00000100
00001000
00000000
,
00000001
00000000
00000001
00000100
00000000
00001000
00000000
00010000
,
00000000
00000000
00000000
00000000
00000000
00000000
00100000
00000000
00000000
00000000
00000000
00000000
00010000
00000000
00000000
00000000
00000000
00000000
00000000
00000000
00000000
00000000
00000000
00000000
00001000
00000000
00000000
00010000
00000000
00000000
00001000
00000000
00000000
00010000
00000000
00000000
00001000
00000000
00000000
00000000
00010000
00000000
00000000
00000000
00000100
00000000
00000000
00000000
,
00000010
00000100
00000001
00000100
00000020
00000000
00000130
00002000
,
00000000
00003001
00000100
00000010
00001000
00000100
00010000
00001000
,
00200000
00000000
00000000
00000000
00301000
00000000
00001000
00000000
00010000
00001000
01000000
00000000
00010000
01000000
00000000
00000000
,
02020000
00000000
00000000
03030000
,
10000000
00100000
00010000
00100000
02000000
00000000
03010000
20000000
,
00000000
31000000
00010000
00001000
00000100
00001000
00000200
00000000
,
00000301
00000010
00001000
00000010
00000200
00000000
00001300
00020000
,
00000000
00031000
00000100
00010000
00001000
01000000
00100000
01100000
;

//---------------dance-double - ----------------
#NOTEDATA:;
#CHARTNAME:;
#STEPSTYPE:dance-double;
#DESCRIPTION:;
#CHARTSTYLE:;
#DIFFICULTY:Hard;
#METER:13;
#RADARVALUES:0.462818,0.564391,0.108249,0.371138,0.030928,419.000000,405.000000,14.000000,48.000000,0.000000,0.000000,0.000000,0.000000,0.000000,0.462818,0.564391,0.108249,0.371138,0.030928,419.000000,405.000000,14.000000,48.000000,0.000000,0.000000,0.000000,0.000000,0.000000;
#CREDIT:Karl with a K;
#NOTES:
00000000
00000000
00000000
00000000
,
00000000
00000000
00000000
00000000
,
00000000
00000000
00000000
00000000
,
00000000
00000000
00000000
00000000
,
00000000
00000000
00000000
00000000
00000000
00000000
00000000
00000000
10000000
00000000
01000000
00000000
10000000
00000000
00000000
00100000
,
00000000
00000000
01000000
00000000
00002000
00000000
00000000
00000000
00013000
00000000
00000100
00000000
00000100
00000000
00000000
00000010
,
00000000
00000000
00000001
00000000
00001000
00000000
00000001
00000000
00000020
00000000
00000000
00000000
00000031
00000000
00000100
00000200
,
00000000
00000000
00000000
00000000
00000310
00000000
00001000
00000000
00000010
00000000
00000000
00010000
00000000
00001000
00000000
00020000
,
00000000
00031000
00100000
00010000
02000000
00000000
00000000
03000000
,
10010000
10000000
01000000
00100000
,
00001000
00000000
00010000
00000000
00000010
00000000
00000100
00000110
,
00000000
00000110
00000000
00000000
00000010
00000000
00000100
00000000
,
00001000
00000000
00010000
00000000
00100000
01000000
00100000
00000000
,
10010000
00000000
00000000
11000000
00000000
00000000
00110000
00000000
,
00000000
00011000
00000000
00000000
00001010
00000000
00000110
00000000
,
00001001
00000000
00000001
00000100
00000010
00001000
00000010
00010000
,
00001000
00010000
00001000
00001000
00010000
00000000
01000000
00000000
,
10000000
01000000
00100000
00000000
00010000
00000000
01000000
00100000
,
00000000
01000000
00001000
00000000
00010000
00000100
00000010
00000000
,
00000001
00000100
00000010
00000000
00001000
00000000
00010000
00100000
,
00000000
00010000
00001000
00000000
00000010
00000100
00000010
00000100
,
00000001
00000010
00000100
00000000
00001000
00000000
00000010
00000100
,
00000000
00000010
00010000
00000000
00001000
00100000
01000000
00000000
,
10000000
00100000
01000000
00000000
10000000
00000000
01000000
00010000
,
00000000
00100000
10000000
00000000
00100000
00010000
00100000
00001000
,
00020000
00000000
00000000
00032000
00000000
00000000
00003200
00000000
,
00000000
00000320
00000000
00000000
00001030
00000000
00000001
00000000
,
00001000
00000010
00001000
00000100
00000010
00000001
00001000
00000100
,
00000000
00000010
00001000
00010000
00001000
00001000
01000000
00000000
,
20010000
00000000
01000000
00000000
30010000
00000000
10000000
02000000
,
00000000
00000000
03100000
00000000
00001000
00010000
00001000
00000000
,
00010000
00000000
00001000
00010000
00000000
00000010
00000000
00002000
,
00000000
00003001
00000100
00000001
,
00000002
00000000
00000100
00000000
00001003
00000000
00000001
00000200
,
00000000
00000000
00000310
00000000
00010000
00001000
00010000
00000000
,
00001000
00000000
00010000
00001000
00000000
00100000
00000000
02000000
,
00000000
13000000
00010000
10000000
,
20000000
00000000
00010000
00000000
30010000
10000000
00000000
00100000
,
00000000
01000000
00000000
00001000
00000000
00010000
00001000
00000000
,
00010000
00000000
00001000
00000000
00010000
00000000
00000100
00002000
,
00000000
00003020
00000000
00002030
00000000
00003001
00000010
00000000
,
00000002
00000000
00000010
00000000
00001003
00000000
00000001
00000020
,
00000000
00000000
00000130
00000000
00010000
00001000
00010000
00000000
,
00000010
00000000
00010000
00001000
00000000
00100000
00000000
00020000
,
00000000
00000000
01030000
00000000
00010000
00100000
01000000
00000000
,
10000000
00000000
00100000
10000000
01000000
00000000
00100000
00001000
,
00000000
00010000
00001000
00000000
00000010
00000000
00000001
00000000
,
00000010
00000001
00000100
00000000
00000010
00010000
00000000
00001000
,
00010000
00000000
00100000
00010000
00001000
00000000
00010100
00000000
,
00000010
00000001
00000100
00000000
00000010
00001000
00000000
00010000
,
01000000
00000000
00100000
00000000
10000000
00000000
00100000
10000000
,
01000000
00000000
00100000
10000000
00000000
00100000
00010000
00000000
,
00001000
00000100
00000010
00000001
00000200
00000000
00000010
00000000
,
00002300
00023000
02030000
00100000
,
03020000
00032000
00003200
00000010
,
00000301
00000100
00000010
00001000
00000200
00000000
00000010
00000000
,
00001000
00010300
00001000
01000000
00200000
00000000
01000000
00000000
,
00320000
00032000
00003020
00000100
,
00000001
00000100
00002030
00023000
,
00230000
00000000
20300000
00000000
31000000
00100000
01000000
00010000
,
00000000
00000000
00001000
00010000
00001000
00010000
00000000
00000000
,
00000010
00000000
00000100
00000000
00000010
00000000
00000001
00000000
00000000
00000010
00000000
00002000
00000000
00000000
00003000
00000000
,
00001001
00000000
00000001
00000010
00000000
00000100
00001000
00000000
,
00000001
00000000
00001000
00000100
00000000
00010000
00001000
00000000
,
00100000
00000000
00001000
00010000
00000000
00000000
00001000
00000000
,
00100000
00000000
01000000
10000000
00000000
00000000
00100000
00000000
,
01000000
00010000
00100000
00000000
00001000
00000000
01000000
00001000
,
00100000
00000000
00001000
00000000
00010000
00000100
00000010
00000000
,
00000001
00000000
00000100
00000001
00000000
00001000
00000000
00001000
,
00000000
00000002
00000000
00000000
00000013
00001000
00010000
00100000
,
10000000
00000000
10000000
00100000
00000000
01000000
00010000
00000000
,
10000000
00000000
00010000
01000000
00000000
00001000
00010000
00000000
,
00000020
00000000
00010000
00000000
00001000
00000000
00010030
00000020
,
00000000
00000130
00000001
00000010
,
00000100
00001000
00000010
00000000
00010000
00000000
00000100
00010000
,
00000010
00000000
00010000
00000000
00001000
01000000
00100000
00000000
,
10000000
00000000
01000000
10000000
00000000
00010000
00000000
00010000
,
00000000
20000000
00000000
00000000
31000000
00100000
00010000
01000000
,
00020000
00000000
00100000
00000000
10030000
00000000
01000000
10000000
,
00000000
01000000
10000000
01000000
00100000
00010000
01000000
00010000
,
20000000
00000000
30200000
00000000
00310000
00001000
00000010
00000000
,
00000220
00000000
00000000
00000330
,
00000001
00000010
00000100
00000000
00001000
00000000
00000010
00000100
,
00000000
00000010
00010000
00000000
00001000
00100000
01000000
00000000
,
10000000
00100000
01000000
00000000
00010000
00000000
00001000
00000010
,
00000000
00001000
00010000
00000000
01000000
10000000
01000000
00100000
;

//---------------dance-double - ----------------
#NOTEDATA:;
#CHARTNAME:;
#STEPSTYPE:dance-double;
#DESCRIPTION:;
#CHARTSTYLE:;
#DIFFICULTY:Medium;
#METER:11;
#RADARVALUES:0.357883,0.398393,0.085052,0.487118,0.015464,324.000000,313.000000,11.000000,63.000000,0.000000,0.000000,0.000000,0.000000,0.000000,0.357883,0.398393,0.085052,0.487118,0.015464,324.000000,313.000000,11.000000,63.000000,0.000000,0.000000,0.000000,0.000000,0.000000;
#CREDIT:Karl with a K;
#NOTES:
00000000
00000000
00000000
00000000
,
00000000
00000000
00000000
00000000
,
00000000
00000000
00000000
00000000
,
00000000
00000000
00000000
00000000
,
00000000
00000000
00000000
00000000
00000000
00000000
00000000
00000000
10000000
00000000
00000000
00000000
01000000
00000000
00000000
00200000
,
00000000
00000000
01300000
00000000
00100000
00000000
00000000
00000000
00001000
00000000
00000000
00000000
00010000
00000000
00000000
00000020
,
00000000
00000000
00000130
00000000
00000010
00000000
00001000
00000000
00000002
00000000
00000000
00000000
00000003
00000000
00000100
00000002
,
00000000
00000000
00000000
00000000
00000013
00000000
00000100
00000000
00001000
00000000
00000000
00000000
00000100
00000000
00000000
00020000
,
00000000
00031000
01000000
00000000
00020000
00000000
00000000
00000000
,
10030000
01000000
10000000
00010000
,
01000000
00000000
00001000
00000000
00010000
00000000
00000100
00000010
,
00000000
00000010
00000000
00000000
00000001
00000000
00000100
00000000
,
00000010
00001000
00001010
00010000
,
00010010
00000000
00000000
00010000
00000000
00000000
00011000
00000000
,
00000000
00001000
00000000
00000000
00101000
00000000
00100000
00000000
,
01100000
10000000
00010000
10000000
,
00010000
01000000
00001000
01010000
,
10000000
00000000
00100000
00000000
02000000
00000000
00000000
03020000
,
00000000
01030000
00100000
00010000
,
00001000
00000000
00010000
00000000
00000200
00000000
00000000
00000320
,
00000000
00000031
00000100
00000110
,
00000001
00000000
00000010
00000000
00000200
00000000
00000000
00002300
,
00000000
00003100
00000010
00001000
,
00010000
00000000
00001000
00000000
02000000
00000000
00000000
03200000
,
00000000
10300000
01000000
01100000
,
20000000
00000000
00000000
32000000
00000000
00000000
03200000
00000000
,
00000000
00302000
00000000
00000000
00010000
00000000
00013000
00000000
,
00010000
00000010
00010000
00000000
00000010
00000000
00001000
00000100
,
00000000
00000000
00001000
00000020
00000000
00000000
00001030
00000000
,
00000020
00000000
00000000
00000000
00001030
00000000
00000001
00002000
,
00000000
00000010
00000000
00003001
,
00000001
00000000
00000010
00000001
00000000
00000010
00000000
00000200
,
00000000
00010300
00001000
00100000
,
00200000
00000000
00000000
00000000
00310000
00000000
10000000
00020000
,
00000000
00100000
00000000
10030000
,
10000000
00000000
00100000
10000000
00000000
00100000
00000000
02000000
,
00000000
03001000
00010000
00000100
,
00000100
00000000
00000010
00000000
00000001
00000000
00000100
00000010
,
00000000
00010000
00000000
00000020
00000000
00000000
00010030
00000000
,
00001000
00000000
00010000
00000000
00010000
00000000
00001000
00100000
,
00000000
01000000
00000000
00200000
00000000
00000000
00301000
00000000
,
00200000
00000000
00000000
00000000
00310000
00000000
01000000
00020000
,
00000000
01000000
00000000
10030000
,
10000000
00000000
00100000
10000000
00000000
01000000
00000000
00200000
,
00000000
00310000
00002000
00000100
,
00003001
00000000
00000010
00000001
00000020
00000000
00000000
00000032
,
00000000
00000103
00001000
00010000
,
00001000
00010000
00002000
00000000
00000000
00203000
00000000
00000000
,
01300000
10000000
00100000
10000000
,
00100000
10000000
00200000
00000000
00000000
20300000
00000000
00000000
,
31000000
00000000
00010000
00000000
00001000
00000000
00010000
00001000
,
00020000
00000000
00000000
00030020
00000000
00000000
00000130
00000000
,
00000001
00000010
00000002
00000000
,
00000010
00001000
00002003
00000100
,
00000010
00000001
00003020
00010000
,
00001000
00010030
00020000
00000010
,
00031000
00000000
00010000
00001000
00200000
00000000
02300000
00000000
,
03200000
00302000
00023000
00032000
,
02003000
03020000
20030000
32000000
,
03200000
00000000
00320000
00000000
00130000
00000000
00100000
00001000
,
00000000
00000000
00001000
00000000
00001000
00010000
00000000
00000000
,
00010000
00000000
00010000
00000010
00000000
00000000
00000000
00000000
,
00001001
00000001
00000100
00000010
,
00010000
00010000
00001000
00010000
,
00000010
00000010
00010000
00001000
,
00100000
00100000
00001000
00010000
,
00000100
00010000
00001000
01000000
,
00001000
00010000
00001000
00100000
,
00010000
01000000
01000000
00100000
,
10000000
01000000
00100000
01000000
,
10010000
10000000
01000000
00100000
,
00001000
00001000
00010000
00001000
,
02000000
00010000
03001000
00010000
,
00000200
00001000
00010300
00001000
,
00100000
00001000
00010000
00000010
,
00010000
00001000
00010000
00000100
,
00001000
00000010
00000010
00000100
,
00000001
00000010
00000100
00000010
,
00000001
00000100
00000010
00000000
00001000
00000000
00000100
00001000
,
00000000
00000100
00010000
00001000
,
00100000
00001000
01000000
00100000
,
02200000
00000000
00000000
03300000
,
10000000
00000000
01000000
00000000
00200000
00000000
00000000
00320000
,
00000000
00130000
01000000
00010000
,
00001000
00000000
00010000
00000000
00000020
00000000
00000000
00000230
,
00000000
00000000
00000301
00000000
00000100
00000000
00001000
00010000
;

//---------------dance-double - ----------------
#NOTEDATA:;
#CHARTNAME:;
#STEPSTYPE:dance-double;
#DESCRIPTION:;
#CHARTSTYLE:;
#DIFFICULTY:Easy;
#METER:8;
#RADARVALUES:0.269517,0.298795,0.015464,0.208765,0.000000,244.000000,242.000000,2.000000,27.000000,0.000000,0.000000,0.000000,0.000000,0.000000,0.269517,0.298795,0.015464,0.208765,0.000000,244.000000,242.000000,2.000000,27.000000,0.000000,0.000000,0.000000,0.000000,0.000000;
#CREDIT:Karl with a K;
#NOTES:
// measure 0
00000000
00000000
00000000
00000000
,  // measure 1
00000000
00000000
00000000
00000000
,  // measure 2
00000000
00000000
00000000
00000000
,  // measure 3
00000000
00000000
00000000
00000000
,  // measure 4
00000000
00000000
10000000
00000000
,  // measure 5
01000000
00000000
00100000
00000000
,  // measure 6
00001000
00000000
00010000
00000000
,  // measure 7
00000100
00000000
00000010
00000000
,  // measure 8
00000001
00000000
00000200
00000000
,  // measure 9
00000301
00000000
00000100
00000000
,  // measure 10
00000010
00000000
00000000
00000000
00010000
00000000
00000000
00001000
,  // measure 11
00000000
00001000
00000000
00000000
00100000
00000000
00000000
00000000
,  // measure 12
01000000
00000000
10000000
00010000
,  // measure 13
10010000
00000000
00000000
00010000
00000000
00000000
01000000
00000000
,  // measure 14
00000000
00001000
00000000
00000000
00010000
00000000
00000100
00000000
,  // measure 15
00000010
00000001
00000001
00000001
,  // measure 16
00000100
00001000
00010000
01000000
,  // measure 17
10000000
00000000
01000000
00000000
00100000
00000000
00000000
00001000
,  // measure 18
00000000
00010000
00000010
00001000
,  // measure 19
00000001
00000000
00000010
00000000
00000100
00000000
00000000
00000010
,  // measure 20
00000000
00001000
00000010
00000001
,  // measure 21
00000001
00000000
00000100
00000000
00000010
00000000
00000000
00010000
,  // measure 22
00000000
00001000
00100000
00010000
,  // measure 23
10000000
00000000
00100000
00000000
01000000
00000000
00000000
00100000
,  // measure 24
00000000
00010000
00100000
10000000
,  // measure 25
20000000
00000000
32000000
00000000
,  // measure 26
03200000
00000000
00302000
00000000
,  // measure 27
00013000
00000010
00000100
00000000
,  // measure 28
00000001
00000000
00001000
00000001
,  // measure 29
00000001
00000000
00000100
00000000
,  // measure 30
00000010
00000000
00000100
00000010
,  // measure 31
00001000
00000000
00000100
00000000
,  // measure 32
00010000
00000000
00001000
00010000
,  // measure 33
00000010
00000000
00010000
00000000
,  // measure 34
00001000
00000000
01000000
00010000
,  // measure 35
00100000
00000000
00010000
00000000
,  // measure 36
10000000
00000000
00010000
10000000
,  // measure 37
10000000
00000000
01000000
00000000
,  // measure 38
00100000
00000000
01000000
00100000
,  // measure 39
00010000
00000000
01000000
00000000
,  // measure 40
00001000
00000000
00010000
00001000
,  // measure 41
00100000
00000000
00001000
00000000
,  // measure 42
00010000
00000000
00000100
00001000
,  // measure 43
00000010
00000000
00001000
00000000
,  // measure 44
00000001
00001000
00001000
00000001
,  // measure 45
00000001
00000000
00000100
00000000
00000010
00000000
00000000
00010000
,  // measure 46
00000000
00001000
00100000
01000000
,  // measure 47
00100000
00000000
00010000
00000000
00000000
01000000
00000000
00000000
,  // measure 48
00001000
00010000
00000010
00000100
,  // measure 49
00000010
00000000
00001000
00000000
00000000
00000100
00000000
00000000
,  // measure 50
00010000
00001000
00100000
01000000
,  // measure 51
10000000
00000000
00000000
00100000
00000000
00000000
01000000
00000000
,  // measure 52
00010000
10000000
20000000
00000000
,  // measure 53
32000000
00000000
23000000
00000000
,  // measure 54
30200000
00000000
02300000
00000000
,  // measure 55
03020000
00000000
00230000
00000000
,  // measure 56
00302000
00000000
00023000
00000000
,  // measure 57
00030020
00000230
00000302
00000000
,  // measure 58
00002003
00003020
00000230
00000302
,  // measure 59
00000023
00000000
00000230
00000000
00001300
00000000
00000000
00001000
,  // measure 60
00000000
00000000
00010000
00000000
00000000
00010000
00000000
00000000
,  // measure 61
01000000
00000000
00000000
00100000
00000000
00000000
00000000
00000000
,  // measure 62
10000000
01000000
10000000
00000000
,  // measure 63
00100000
01000000
00100000
00000000
,  // measure 64
00010000
00001000
00010000
00000000
,  // measure 65
00000100
00000010
00000100
00000000
,  // measure 66
00000010
00000010
00010000
00001000
,  // measure 67
00001000
00100000
00001000
00010000
,  // measure 68
00000100
00001000
00000100
00000000
,  // measure 69
00000010
00000100
00000010
00000010
,  // measure 70
00000001
00000100
00000001
00000000
,  // measure 71
00000010
00000100
00000010
00000000
,  // measure 72
00002000
00000000
00013000
00000000
,  // measure 73
00200000
00000000
01300000
00010000
,  // measure 74
00100000
00100000
00001000
00010000
,  // measure 75
00010000
00000010
00010000
00001000
,  // measure 76
01000000
00010000
01000000
00000000
,  // measure 77
00100000
01000000
00100000
00100000
,  // measure 78
10000000
00000000
01000000
00000000
00100000
00000000
00000000
00001000
,  // measure 79
00000000
00010000
00010000
00000010
,  // measure 80
00000100
00000001
00000010
00000100
,  // measure 81
00000220
00000000
00000000
00000330
,  // measure 82
00000001
00000000
00000010
00000000
00000100
00000000
00000000
00001000
,  // measure 83
00000000
00010000
01000000
00010000
,  // measure 84
10000000
00000000
00100000
00000000
01000000
00000000
00000000
00100000
,  // measure 85
00000000
00000000
00010000
00000000
00001000
00000000
00000100
00000010
;
