#VERSION:0.83;
#TITLE:Matt Silver;
#SUBTITLE:;
#ARTIST:Remo-con;
#TITLETRANSLIT:;
#SUBTITLETRANSLIT:;
#ARTISTTRANSLIT:;
#GENRE:TECHSTYLE;
#CREDIT:;
#MUSIC:Matt Silver.ogg;
#BANNER:Matt Silver.png;
#BACKGROUND:Matt Silver-bg.png;
#CDTITLE:;
#SAMPLESTART:27.158;
#SAMPLELENGTH:15.000;
#SELECTABLE:YES;
#OFFSET:0.787;
#BPMS:0.000=146.000;
#STOPS:220.000=1.644;
#TIMESIGNATURES:0.000=4=4;
#BGCHANGES:0.000=Matt Silver.mp4=1.000=0=0=0=StretchNoLoop====,
99999.000=-nosongbg-=1.000=0=0=0=StretchNoLoop====
;
#FGCHANGES:;

//--------------- dance-single - Extraordiberry ----------------
#NOTEDATA:;
#STEPSTYPE:dance-single;
#DESCRIPTION:Extraordiberry;
#DIFFICULTY:Beginner;
#METER:4;
#RADARVALUES:0,0,0,0,0;
#CREDIT:Extraordiberry;
#NOTES:
0000
0000
0000
0000
,
0000
0000
0000
0000
,
0000
0000
0000
0000
,
0000
0000
0000
0000
,
0000
0000
0000
0000
,
1000
0000
0000
0000
,
1000
0000
0000
0000
,
0001
0000
0000
0000
,
0001
0000
0001
0000
,
0001
0000
0010
0000
,
0001
0000
0000
0000
,
1000
0000
0100
0000
,
1000
0000
0000
0000
,
0001
0000
0001
0000
,
0100
0000
0000
0000
,
0010
0000
0010
0000
,
1000
0000
0000
0000
,
0001
0001
0001
0000
,
1000
0000
0001
0000
,
1000
1000
1000
0000
,
0001
0000
1000
0000
,
0010
0010
0010
0000
,
0100
0000
0010
0000
,
0100
0100
0100
0000
,
0001
0000
0000
0000
,
1000
0000
1000
0000
,
0100
0000
0010
0000
,
0001
0000
0001
0000
,
0100
0000
0010
0000
,
2000
3000
1000
0000
,
0100
0000
0010
0000
,
0001
0000
0001
0000
,
0100
0000
0001
0000
,
1000
1000
1000
0000
,
0001
0000
0010
0000
,
0100
0100
0100
0000
,
1000
0000
0001
0000
,
0200
0000
0300
0000
,
0000
0000
0000
0000
,
0020
0000
0030
0000
,
0000
0000
0000
0000
,
2000
0000
0000
0000
,
0000
0000
0000
3000
,
0002
0000
0000
0000
,
0000
0000
0000
0003
,
1000
0000
0000
0000
,
0100
0000
0000
0000
,
0010
0000
0010
0000
,
0001
0000
0001
0000
,
1000
0000
0000
0000
,
1000
0000
0000
0000
,
0001
0000
0000
0000
,
0001
0000
0000
0000
,
0100
0000
0000
0000
,
0010
0000
0000
0000
,
0000
0000
0000
0000
,
1000
0000
1000
0000
,
0100
0000
0010
0000
,
0001
0000
0001
0000
,
0100
0000
0010
0000
,
2000
3000
1000
0000
,
0100
0000
0010
0000
,
0001
0000
0001
0000
,
0100
0000
0010
0000
,
1000
1000
1000
0000
,
0100
0000
0010
0000
,
0001
0001
0001
0000
,
0100
0000
0010
0000
,
1000
1000
1000
0000
,
0100
0000
0100
0000
,
1000
1000
1000
0000
,
0001
0000
1000
0000
,
1001
0000
0000
0000
;

//--------------- dance-single - Extraordiberry ----------------
#NOTEDATA:;
#STEPSTYPE:dance-single;
#DESCRIPTION:Extraordiberry;
#DIFFICULTY:Easy;
#METER:8;
#RADARVALUES:0,0,0,0,0;
#CREDIT:Extraordiberry;
#NOTES:
0000
0000
0000
0000
,
0000
0000
0000
0000
,
0000
0000
0000
0000
,
0000
0000
0000
0000
,
0000
0000
0000
0000
,
1000
0100
0010
0001
,
0010
0100
1000
0001
,
1000
0010
0100
0001
,
1000
0010
0001
0010
,
1001
1000
0110
0001
,
1001
1000
0110
0000
,
0110
1000
1001
0010
,
0110
0001
1001
0001
,
1000
0100
0001
0100
,
1000
0001
0100
0100
,
0000
0001
0100
1000
,
0100
0001
1000
0100
,
1000
0000
0000
0001
0000
0000
1000
0000
,
0001
0100
0010
1000
,
0001
0000
0000
1000
0000
0000
0001
0000
,
1000
0002
0000
1003
,
1000
0000
0000
0100
0000
0000
1000
0000
,
0001
0100
0010
1000
,
0001
0000
0000
0100
0000
0000
0001
0000
,
2000
0000
0000
3000
,
1001
1001
0110
0110
,
1000
0001
0110
1001
,
1000
0001
0100
0001
,
1000
1000
1001
1001
,
1100
1000
0001
0001
,
0100
0010
1000
1000
,
0100
0001
0100
1000
,
0001
0001
0100
0100
,
0001
0000
1000
0001
0000
0000
0001
1000
,
0000
0000
1000
0001
0000
0000
0010
0000
,
0100
0000
0010
0100
0000
0000
0100
0010
,
0000
0000
0010
0100
0000
0000
1000
0000
,
0002
0000
0000
0003
,
0200
0000
0000
0300
,
0020
0000
0000
0030
,
1000
0000
0000
0000
,
0002
0000
0000
1003
,
2000
0000
0000
3001
,
0002
0000
0000
1003
,
2000
0000
0000
3001
,
1000
1000
1000
1000
,
0010
0010
0010
0010
,
1000
1000
0001
0001
,
1000
1000
1000
0000
0001
0001
0001
0000
,
1000
0100
0010
0001
,
0010
0100
1000
0001
,
1000
0010
0100
0001
,
1000
0010
0001
0010
,
1000
1000
0001
1001
,
1000
1000
0100
0110
,
0002
0003
0000
0000
0000
0000
0000
0000
0000
0000
0000
0000
0000
0000
0000
0000
,
1001
0110
1001
0110
,
1000
0001
0110
1001
,
1000
0001
0110
0001
,
1000
1000
0110
1001
,
0101
0001
1000
1000
,
0100
0010
0001
0001
,
0100
1000
0100
0001
,
1000
1000
0002
0000
,
1003
0000
0000
0100
0000
0000
1000
0000
,
0001
0001
0001
1000
,
0001
0000
0000
0100
0000
0000
0001
0000
,
0010
0010
0001
1001
,
1000
0000
0001
1000
0000
0001
1000
0000
,
0001
0001
0100
0100
,
0001
0000
1000
0001
0000
1000
0001
0000
,
0000
0000
0001
1000
0000
0000
0100
0000
,
1001
0000
0000
0000
;

//--------------- dance-single - Extraordiberry ----------------
#NOTEDATA:;
#STEPSTYPE:dance-single;
#DESCRIPTION:Extraordiberry;
#DIFFICULTY:Medium;
#METER:13;
#RADARVALUES:0,0,0,0,0;
#CREDIT:Extraordiberry;
#NOTES:
0000
0000
0000
0000
,
0000
0000
0000
0000
,
0000
0000
0000
0000
,
0000
0000
0000
0000
,
0000
0000
0000
0000
,
1000
0001
0000
0010
0000
0100
0000
1000
,
0001
0100
0000
0010
0000
1000
0000
0001
,
0010
0100
0000
1000
0000
0001
0000
0010
,
0001
0100
0000
0010
0000
0010
0010
0010
,
2000
3200
0302
2003
,
3002
0203
2300
3002
,
2003
0000
3010
0010
0002
0000
0013
0010
,
2000
0000
0000
0000
3100
0000
0100
0000
0001
0000
0100
1000
0000
0000
1000
0000
,
0001
0100
0010
0001
0010
0100
0001
1000
,
0001
0010
0100
0001
0100
0010
0001
1000
,
0000
0000
0001
0001
1000
0010
0100
1000
,
0100
0000
0010
0000
1000
0000
0001
0010
0000
0000
0010
0000
0001
0000
0001
0000
,
1000
0000
0010
0100
0000
0001
0000
1000
0000
0100
0000
0010
0000
0000
0010
0000
,
0100
1000
0001
0100
0010
1000
1000
0000
,
0001
0000
0010
0100
0000
1000
0000
0001
0000
0100
0000
0010
0000
0000
0010
0000
,
0100
0000
0001
0000
1000
0000
0100
0010
0000
0001
0000
0000
0001
0000
0000
0000
,
1000
0000
0001
0100
0000
1000
0000
0100
0000
0001
0000
1000
0000
0000
1000
0000
,
0001
0100
0010
0001
0010
1000
1000
0000
,
0001
0000
1000
0100
0000
0001
0000
0100
0000
1000
0000
0001
0000
0000
0001
0000
,
2000
0000
0000
0000
0000
0000
0000
3000
,
0001
0001
0100
0010
1000
1000
0001
1000
,
1000
0100
1000
1000
0001
0001
0100
0010
,
1000
0001
0001
0010
0100
0100
1000
0010
,
0100
0100
0001
1000
0001
0001
1000
1000
,
0110
0000
0002
0010
0000
1000
0000
0103
,
0200
0001
0000
0010
0000
1000
0000
0310
,
2000
0001
0000
0100
0000
0001
0000
3010
,
1000
0000
1000
0000
0001
1000
0000
0000
0100
0000
0010
0000
0100
0000
0000
0000
,
1001
0000
0000
1000
0000
0000
0010
0000
0110
0000
0000
0100
0000
0000
0001
0000
,
1001
0000
1000
1001
0000
0010
0110
0000
,
1001
0000
0000
0001
0000
0000
0110
0000
0000
0010
0000
0000
1000
0000
0001
0000
,
1001
1000
0000
0001
1001
0000
0001
1001
,
2000
0000
0000
3200
0000
0000
0000
0320
0000
0000
0000
0032
0000
0000
0000
2003
,
0000
0000
0000
3002
0000
0000
0000
0000
2003
0000
0000
0000
0000
0000
0000
0000
,
3002
0000
0000
0203
0000
0000
0000
0320
0000
0000
0000
2030
0000
0000
0000
0000
,
0000
0000
0000
0000
0000
0000
0000
0002
0000
0000
0000
0000
3003
0000
0000
0000
,
0001
0000
0010
0000
0000
0002
0000
0000
1000
0000
0000
0000
0010
0000
0013
0000
,
0000
0001
0000
0000
0000
0002
0000
0000
1000
0000
0000
0000
0013
0000
0000
0000
,
0000
0000
0001
0000
0000
2000
0000
0000
0001
0000
0000
0000
0010
0000
3010
0000
,
0000
1000
0000
0000
0000
2000
0000
0000
0001
0000
0000
0000
0000
3010
0000
0000
,
1000
0100
0001
1000
0010
0001
1000
0001
,
0001
0100
1000
0001
0010
1000
0001
0001
,
1000
1000
1000
1000
0001
0001
0001
0001
,
0010
0010
0010
0010
0010
0010
0010
0100
,
1000
0001
0000
0100
0000
0010
0000
1000
,
0001
0010
0000
0100
0000
1000
0000
0001
,
0100
0010
0000
1000
0000
0001
0000
0010
,
0100
1000
0000
0001
0000
0010
0001
0001
,
1000
0010
0100
0001
1000
0010
0100
0001
,
1000
0100
0010
0001
1000
0100
0010
0001
,
2000
3000
0000
0000
0000
0000
0000
0000
0000
0000
0000
0000
0000
0000
0000
0000
,
0001
0001
0010
1000
0010
0010
0001
1000
,
1000
0010
1000
1000
0010
0010
0001
0010
,
1000
0001
0001
0010
1000
1000
0010
0001
,
0100
0100
1000
0100
0001
0001
1000
1000
,
0110
1000
0002
0010
0000
1000
0000
0100
,
1003
0001
2000
0010
0000
0001
0000
0100
,
3001
1000
0001
0010
0100
0001
0100
0010
,
0001
0000
1000
0000
0010
0000
0010
0100
0000
0010
0000
0000
0100
0000
0000
0000
,
0001
0000
1000
0100
0000
0001
0000
0100
0000
1000
0000
0001
0000
0000
1000
0000
,
0001
0100
0001
0100
0010
0100
0010
1000
0002
0000
0000
0000
,
1003
0000
0001
0100
0000
1000
0000
0100
0000
0001
0000
1000
0000
0000
0001
0000
,
0010
0000
0001
1000
0000
0100
0000
0001
0000
0100
0000
1000
0000
0100
0000
0000
,
1000
0000
0001
0100
0000
1000
0000
0100
0000
0001
0000
1000
0000
0000
0001
0000
,
0010
0100
1000
0100
0010
0100
1000
0100
0020
0000
0000
0000
,
0031
0000
1000
0100
0000
0001
0000
0100
0000
1000
0000
0001
0000
0000
1000
0000
,
0001
1000
0000
0000
0001
1000
0000
0000
0000
0010
0000
0010
0000
0010
0000
0010
,
0100
0000
0000
0000
;

//--------------- dance-single - Extraordiberry ----------------
#NOTEDATA:;
#STEPSTYPE:dance-single;
#DESCRIPTION:Extraordiberry;
#DIFFICULTY:Hard;
#METER:16;
#RADARVALUES:0,0,0,0,0;
#CREDIT:Extraordiberry;
#NOTES:
0000
0000
0000
0000
,
0000
0000
0000
0000
,
0000
0000
0000
0000
,
0000
0000
0000
0000
,
0000
0000
0000
0000
,
1000
0010
0001
1000
0001
0010
1000
0001
,
1000
0100
0001
1000
0001
0100
1000
0001
,
1000
0010
0001
1000
0100
0010
0001
0010
,
1000
0000
1000
0001
1000
0001
0010
0100
0000
0001
0010
0100
0000
0001
0010
0100
,
2000
0000
3000
0010
2000
0000
3000
0000
1002
0000
0003
0010
0002
0000
0003
0000
,
0201
0000
0300
0010
0200
0000
0300
0000
0120
0000
0030
1000
0200
0000
0300
0000
,
2001
0000
3000
0001
1000
0100
0000
0000
1002
0000
0003
1000
0001
0100
0000
0000
,
0120
0000
0030
0100
0001
0010
0000
0000
0120
0000
0130
1000
0000
0100
1000
0010
,
2000
0000
0001
0000
3100
1000
0001
0000
2010
0000
0001
0000
3100
1000
0001
0000
,
2010
0000
0001
0000
3100
1000
0001
0000
2010
0000
0001
0000
0100
0000
3001
1000
,
0000
0000
0000
0000
0010
1000
0001
0000
0012
0000
1000
0000
0103
0001
0010
0000
,
0012
0000
1000
0000
0103
0001
0010
0100
0000
0001
0010
0100
0000
0001
0010
0100
,
1000
0000
0001
0100
0000
1000
0000
0100
0000
0001
0000
1000
0000
1000
0010
0000
,
1010
0000
1000
0001
1000
0000
0000
0000
1010
0000
1000
0001
1000
0000
0000
0000
,
0001
0000
1000
0100
0000
0001
0000
0100
0000
1000
0000
0001
0000
0001
0010
0000
,
0011
0000
0001
1000
0010
0000
0010
0100
0000
1000
0000
0000
0100
0001
0000
0000
,
1000
0000
0001
0010
0000
1000
0000
0010
0000
0001
0000
1000
0000
1000
0010
0000
,
1010
0000
1000
0100
1000
0001
0000
0000
1010
0000
1000
0100
1000
0001
0000
0000
,
0001
0000
1000
0010
0000
0001
0000
0010
0000
1000
0000
0001
0000
0001
0020
0000
,
0000
0000
0000
0000
0000
0000
0000
0030
,
0001
1000
0010
0000
0100
0010
1000
0000
0001
1000
0010
0000
0100
0010
1000
0000
,
0001
1000
0010
0000
0001
1000
0010
0000
0010
1000
0001
0000
1000
0010
0100
0000
,
0001
1000
0100
0000
0001
1000
0100
0000
0100
1000
0001
0000
1000
0100
0010
0000
,
0001
0010
0100
0000
0001
0010
0100
0000
0100
1000
0001
0000
0100
1000
0001
0000
,
0120
0000
0000
0000
0130
0010
0001
0000
0010
0100
0001
0000
0100
0010
0100
0000
,
1001
0000
0001
0000
1000
0100
0010
0000
1000
0010
0100
0000
1000
0100
0010
0000
,
1001
0001
1000
0010
0001
1000
0001
0010
,
1000
0000
1000
0000
0001
0010
0000
0000
1002
0000
0003
0100
0010
0000
0000
0000
,
1000
0000
0001
0010
0000
0100
1000
0001
0100
0000
0100
0010
0000
1000
0001
0010
,
0100
1000
0000
1000
0001
0010
0100
1000
0000
1000
0001
0100
0010
1000
0001
0010
,
0001
0000
1000
0010
0000
0100
0001
1000
0100
0010
0000
0100
0000
1000
0010
0100
,
0001
1000
0001
0000
0001
1000
0010
0100
0001
0000
0001
1000
0100
0010
0001
0100
,
0001
0000
1000
0010
0000
0001
0000
1000
0000
0100
0000
0002
0000
0000
0000
2003
,
0000
0000
0000
3002
0000
0000
0000
0000
2003
0000
0000
0000
0000
0000
0000
0000
,
3001
0000
1000
0100
0000
0001
0000
1000
0000
0010
0000
0002
0000
0000
0000
0000
,
0000
0000
0000
0000
0000
0000
0000
0200
0000
0000
0000
0000
0303
0000
0000
0000
,
0002
0000
0000
0000
0000
0000
0000
0000
0000
0000
0000
0000
2003
0000
0000
0000
0000
0000
0000
0000
0000
0000
0000
0000
0000
0000
0000
0000
0000
0000
3002
0000
0000
0000
0000
0000
0000
0000
0000
0000
0000
0000
0000
2003
0000
0000
0000
0000
3002
0000
0000
0000
0000
2003
0000
0000
0000
0000
0000
0000
0000
0000
0000
0000
0000
0000
0000
0000
0000
0000
0000
0000
3200
0000
0000
0000
0000
0000
0000
0000
0000
0000
0000
0000
0320
0000
0000
0000
0000
0000
0000
0000
0000
0000
0000
0000
,
0000
0000
0000
0000
0000
0000
0032
0000
0000
0000
0000
0000
0000
0000
0000
0000
0000
0000
0000
0000
0000
0000
0000
0000
0000
0000
0000
0000
0000
0000
2003
0000
0000
0000
0000
0000
0000
0000
0000
0000
0000
0000
0000
3002
0000
0000
0000
0000
2003
0000
0000
0000
0000
3002
0000
0000
0000
0000
0000
0000
0000
0000
0000
0000
0000
0000
0000
0000
0000
0000
0000
0000
0203
0000
0000
0000
0000
0000
0000
0000
0000
0000
0000
0000
0000
0000
0000
0000
0000
0000
0000
0000
0000
0000
0000
0000
,
0000
0000
0000
0000
0000
0000
0000
0000
0000
0000
0000
0000
0302
0000
0000
0000
0000
0000
0000
0000
0000
0000
0000
0000
0000
0000
0000
0000
0000
0000
0023
0000
0000
0000
0000
0000
0000
0000
0000
0000
0000
0000
0000
0230
0000
0000
0000
0000
2300
0000
0000
0000
0000
3002
0000
0000
0000
0000
0000
0000
0000
0000
0000
0000
0000
0000
0000
0000
0000
0000
0000
0000
2003
0000
0000
0000
0000
0000
0000
0000
0000
0000
0000
0000
3200
0000
0000
0000
0000
0000
0000
0000
0000
0000
0000
0000
,
0000
0000
0000
0000
0000
0000
2300
0000
0000
0000
0000
0000
0000
0000
0000
0000
0000
0000
0000
0000
0000
0000
0000
0000
0000
0000
0000
0000
0000
0000
3020
0000
0000
0000
0000
0000
0000
0000
0000
0000
0000
0000
0000
0230
0000
0000
0000
0000
0302
0000
0000
0000
0000
2003
0000
0000
0000
0000
0000
0000
0000
0000
0000
0000
0000
0000
0000
0000
0000
0000
0000
0000
0000
0000
0000
0000
0000
0000
3001
0000
0000
0000
0000
0000
0000
0000
0000
0000
0000
0000
0000
0000
0000
0000
0000
0000
,
2000
0000
3010
2000
0001
0000
3010
2000
0001
0000
3010
2000
0001
0000
3010
1000
,
0002
0000
0013
0002
1000
0000
0013
0002
1000
0000
0013
0002
1000
0000
0013
0001
,
2000
0010
0010
0010
0010
0010
0010
0010
,
0010
0010
0000
0010
0000
0010
0010
0000
0010
0010
0000
0010
0000
0010
3010
0000
,
1000
0010
0001
1000
0001
0010
1000
0001
,
1000
0100
0001
1000
0001
0100
1000
0001
,
0001
0100
1000
0001
0010
0100
1000
0100
,
0001
0000
0010
0000
1000
0000
0001
0000
0100
0000
0010
0000
0100
0010
0001
0000
,
1000
0001
1000
0000
1000
0010
1000
0000
1000
0001
1000
0000
1000
0100
1000
0000
,
0001
0010
0001
0000
0001
1000
0001
0000
0001
0100
0001
0000
0001
1000
0001
0000
,
2002
3003
0000
0000
0000
0000
0000
0000
0000
0000
0000
0000
0000
0000
0000
0000
,
1000
0200
0010
0000
1300
0001
0100
0000
0001
0020
0100
0000
0031
1000
0010
0000
,
0001
0020
0100
0000
0031
1000
0010
0000
1000
0200
0010
0000
1300
0001
0100
0000
,
0001
2000
0100
0000
3001
0100
0010
0000
0001
2000
0100
0000
3010
0100
0010
0000
,
1000
0002
0100
0000
1003
0100
0010
0000
0001
2000
0100
0000
3001
0100
0100
0000
,
0120
0030
1002
0003
0120
0000
1000
0000
0130
0010
0100
0000
0120
0000
0001
0000
,
0130
0010
0100
0000
2001
0000
0100
0000
3001
1000
0001
0000
1002
0000
0010
0000
,
1003
0001
1000
0000
2010
0000
0001
0000
3100
1000
0001
0000
0011
0000
1000
0001
,
0100
0000
1000
0001
0100
0000
0100
0010
0000
0001
0000
0000
0020
0000
0030
0000
,
1000
0100
0010
0100
0000
0001
0000
1000
0000
0010
0000
0001
0000
0001
1000
0000
,
0010
0010
0100
0010
0010
0001
0010
0010
2000
0000
0000
0000
,
3001
0010
0100
0010
0000
1000
0000
0001
0000
0100
0000
1000
0000
1000
0001
0000
,
0001
0010
0100
0010
0000
1001
0000
1001
0000
1001
0000
1001
0000
0110
0000
0001
,
1000
0010
0100
0010
0000
0001
0000
1000
0000
0100
0000
0001
0000
0001
0010
0000
,
0001
0010
1000
0010
0001
0010
1000
0010
0002
0000
0000
0000
,
1003
0010
0100
0010
0000
0001
0000
1000
0000
0100
0000
0001
0000
0001
1000
0000
,
0100
0020
0000
0030
0001
2000
0000
3000
0000
1000
0000
0100
0000
0001
0000
0100
,
1000
0000
0000
0000
;

//--------------- dance-double - Extraordiberry ----------------
#NOTEDATA:;
#STEPSTYPE:dance-double;
#DESCRIPTION:Extraordiberry;
#DIFFICULTY:Easy;
#METER:8;
#RADARVALUES:0,0,0,0,0;
#CREDIT:Extraordiberry;
#NOTES:
00000000
00000000
00000000
00000000
,
00000000
00000000
00000000
00000000
,
00000000
00000000
00000000
00000000
,
00000000
00000000
00000000
00000000
,
00000000
00000000
00000000
00000000
,
00010000
00000010
00001000
00000010
,
00010000
00001000
00010000
00010000
,
00001000
00100000
00010000
00100000
,
00001000
00001000
00010000
00010000
,
00011000
00001000
01000000
00000000
,
10010000
10000000
01000000
00000000
,
01100000
00100000
00001000
00000000
,
00011000
00010000
00001000
00001000
,
00010000
00000100
00001000
00000100
,
00000010
00000001
00001000
00000000
,
00000010
00001000
00000010
00010000
,
00001000
00010000
00100000
10000000
,
00010000
00000000
00000000
00010000
00000000
00000000
10000000
00000000
,
01000000
00100000
00001000
00000000
,
00010000
00000000
00000000
00010000
00000000
00000000
00001000
00000000
,
00010000
00000010
00001000
00001000
,
00000001
00000000
00000000
00000001
00000000
00000000
00000100
00000000
,
00000010
00010000
00001000
00000000
,
00010000
00000000
00000000
00010000
00000000
00000000
00001000
00000000
,
00010000
00001000
00000010
00000000
,
00001001
00000001
00000100
00000010
,
00000110
00000100
00000110
00000010
,
00001000
00000010
00010000
00001000
,
00100000
01000000
10000000
10000000
,
01100000
10000000
00010000
00010000
,
01000000
00001000
00010000
00010000
,
00001000
00000010
00000001
00000001
,
00001000
00000010
00010000
00010000
,
00001000
00000000
00010000
00001000
00000000
00000000
00001000
00010000
,
00000000
00000000
00010000
00001000
00000000
00000000
00100000
00000000
,
00010000
00000000
00100000
00010000
00000000
00000000
00010000
00100000
,
00000000
00000000
00100000
00010000
00000000
00000000
10000000
00000000
,
00020000
00000000
00000000
00030000
,
02000000
00000000
00000000
03000000
,
00002000
00000000
00000000
00003000
,
00010000
00000000
00000000
00000000
,
00002000
00000000
00000000
00013000
,
00020000
00000000
00000000
00031000
,
00002000
00000000
00000000
00013000
,
00020000
00000000
00000000
00031000
,
00010000
00010000
00010000
00010000
,
00000100
00000100
00000100
00000100
,
00001000
00001000
00000001
00000001
,
00000100
00001000
00010000
00001000
,
00010000
00000100
00001000
00000100
,
00010000
00001000
00010000
00010000
,
00001000
01000000
00010000
01000000
,
00001000
00010000
00001000
00001000
,
00100000
00100000
00010000
00010000
,
10000000
10000000
01000000
01000000
,
00020000
00030000
00000000
00000000
00000000
00000000
00000000
00000000
00000000
00000000
00000000
00000000
00000000
00000000
00000000
00000000
,
00011000
00010000
00000010
00001000
,
00001001
00000001
00000110
00001000
,
00000001
00000100
00000010
00000001
,
00000010
00001000
00000010
00010000
,
00011000
00001000
00010000
00010000
,
00100000
10000000
00010000
00010000
,
00100000
00001000
00010000
00000100
,
00001000
00000001
00000200
00000000
,
00000310
00000000
00000000
00010000
00000000
00000000
00001000
00000000
,
00010000
00010000
00010000
00000000
,
00001000
00000000
00000000
00100000
00000000
00000000
00010000
00000000
,
10000000
10000000
00010000
10010000
,
10000000
00000000
00000000
01000000
00000000
00000000
00010000
00000000
,
00001000
00001000
00001000
00000010
,
00000001
00000000
00000000
00000100
00000000
00000000
00000010
00000000
,
00000000
00010000
00000000
00000000
00001000
00000000
00010000
00000000
,
00011000
00000000
00000000
00000000
;

//--------------- dance-double - Extraordiberry ----------------
#NOTEDATA:;
#STEPSTYPE:dance-double;
#DESCRIPTION:Extraordiberry;
#DIFFICULTY:Medium;
#METER:13;
#RADARVALUES:0,0,0,0,0;
#CREDIT:Extraordiberry;
#NOTES:
00000000
00000000
00000000
00000000
,
00000000
00000000
00000000
00000000
,
00000000
00000000
00000000
00000000
,
00000000
00000000
00000000
00000000
,
00000000
00000000
00000000
00000000
,
00010000
00001000
00000000
00000010
00000000
00000001
00000000
00000100
,
00000000
00001000
00000000
00010000
00000000
00100000
00000000
10000000
,
00000000
01000000
00000000
00010000
00000000
00001000
00000000
00000010
,
00000000
00000001
00000000
00000100
00001000
00010000
00001000
00010000
,
00100000
00000000
00000000
10000000
00100000
00000000
01000000
00000000
00010000
00000000
00000000
00100000
00010000
00000000
00100000
00000000
,
00001000
00000000
00000000
00010000
00001000
00000000
00000010
00000000
00000100
00000000
00001000
00000000
00000001
00000000
00000000
00000000
,
00000100
00000000
00000000
00000001
00000100
00000000
00000010
00000000
00010000
00000000
00000000
00001000
00010000
00000000
00100000
00000000
,
10000000
00000000
00000000
01000000
10000000
00000000
01000000
00000000
00100000
00000000
00000000
00001000
00000000
00000000
00010000
00000000
,
00000010
00001000
00000010
00010000
00001000
00010000
00000010
00001000
,
00000010
00000000
00010000
00000000
00000100
00000000
00001000
00000000
00000100
00000000
00000010
00000000
00000100
00000000
00010000
00001000
,
00000000
00000000
00010000
00010000
00001000
01000000
00010000
01000000
,
00001000
00010000
00001000
00000010
00000100
00000010
00000001
00000000
,
00000001
00001000
00000010
00000100
00001000
00010000
00100000
00000000
,
10000000
00010000
00100000
00001000
00010000
01000000
01000000
00000000
,
10000000
00010000
01000000
00100000
00010000
00001000
00000100
00000000
,
00000001
00000000
00001000
00000000
00000100
00000000
00000000
00000010
00000000
00001000
00000000
00000000
00010000
00000000
00000000
00000000
,
00100000
10000000
01000000
00010000
00001000
00000010
00000100
00000000
,
00000010
00000001
00001000
00000010
00010000
00001000
00000010
00000000
,
00000001
00000100
00001000
00010000
00100000
10000000
00010000
00000000
,
00200000
00000000
00000000
00000000
00000000
00000000
00000000
00300000
,
00001000
00010000
00001000
00000010
00000001
00000010
00001000
00010000
,
00001000
01000000
01000000
00010000
00010000
10000000
01000000
00100000
,
00001000
00010000
00001000
00000100
00000001
00000100
00001000
00010000
,
00100000
10000000
00010000
00100000
00001000
00001000
00010000
00010000
,
02001000
00000000
03020000
00100000
00000000
10000000
00000000
01000000
,
00000000
00032000
00000000
00000010
00000000
00000001
00000000
00000100
,
00000000
00013000
00100000
00010000
00100000
00001000
00010000
00001000
,
00010000
00000000
00010000
00000000
00001000
00010000
00000000
00000000
00000010
00000000
00001000
00000000
00000100
00000000
00000000
00000000
,
00011000
00000000
00000000
00100000
00000000
00000000
00001000
00000000
00011000
00000000
00000000
00000010
00000000
00000000
00010000
00000000
,
00011000
00000000
00001000
00101000
00000000
00010000
00011000
00000000
,
00010010
00000000
00000000
00001000
00000000
00000000
00011000
00000000
00000000
00100000
00000000
00000000
00010000
00000000
00000010
00000000
,
00010010
00010000
00000000
00001000
00011000
00000000
00010000
00011000
,
00002000
00000000
00000000
00003020
00000000
00000000
00000000
00000032
00000000
00000000
00000000
00002003
00000000
00000000
00000000
00003020
,
00000000
00000000
00000000
00020030
00000000
00000000
00000000
00000000
00032000
00000000
00000000
00000000
00000000
00000000
00000000
00000000
,
00023000
00000000
00000000
00230000
00000000
00000000
00000000
20300000
00000000
00000000
00000000
30020000
00000000
00000000
00000000
00000000
,
00000000
00000000
00000000
00000000
00000000
00000000
00000000
00200000
00000000
00000000
00000000
00000000
00330000
00000000
00000000
00000000
,
00001000
00000000
00010000
00000000
00000000
00002000
00000000
00000000
00010000
00000000
00000000
00000000
00100000
00000000
00103000
00000000
,
00000000
00001000
00000000
00000000
00000000
00002000
00000000
00000000
00010000
00000000
00000000
00000000
00103000
00000000
00000000
00000000
,
00000000
00000000
00001000
00000000
00000000
00020000
00000000
00000000
00001000
00000000
00000000
00000000
00000010
00000000
00030010
00000000
,
00000000
00010000
00000000
00000000
00000000
00020000
00000000
00000000
00001000
00000000
00000000
00000000
00000000
00030010
00000000
00000000
,
00010000
00001000
00000010
00000001
00001000
00000001
00000100
00001000
,
00010000
01000000
10000000
00010000
10000000
00100000
00010000
00001000
,
00000010
00000010
00000001
00000001
00000100
00000100
00001000
00001000
,
00010000
00010000
00010000
00010000
00010000
00010000
00010000
00010000
,
00001000
00010000
00000000
00100000
00000000
10000000
00000000
01000000
,
00000000
00010000
00000000
00001000
00000000
00000010
00000000
00000001
,
00000000
00000100
00000000
00001000
00000000
00010000
00000000
00100000
,
00000000
10000000
00000000
01000000
00000000
00010000
00001000
00000000
,
00010000
00100000
00010000
00100000
10000000
01000000
10000000
01000000
,
00010000
00001000
00010000
00001000
00000010
00000001
00000010
00000001
,
00000200
00000300
00000000
00000000
00000000
00000000
00000000
00000000
00000000
00000000
00000000
00000000
00000000
00000000
00000000
00000000
,
00001000
00010000
00100000
10000000
00100000
00010000
00001000
00010000
,
01000000
10000000
00010000
00100000
01000000
00010000
00001000
00000010
,
00000001
00001000
00000010
00000001
00000010
00000100
00001000
00010000
,
00001000
00000010
00000001
00001000
00000010
00010000
00001000
00100000
,
00110000
10000000
00020000
00100000
00000000
10000000
00000000
01000000
,
00000000
00032000
00000000
00000010
00000000
00000001
00000000
00000100
,
00000000
00013000
00100000
00001000
00010000
00001000
00100000
00010000
,
00100000
00000000
00001000
00000000
00001000
00000000
00010000
00001000
00000000
00010000
00000000
00000000
00100000
00000000
00000000
00000000
,
10000000
01000000
00010000
00001000
00000010
00000001
00001000
00000000
,
00000001
00000100
00000001
00001000
00000010
00001000
00000010
00010000
00002000
00000000
00000000
00000000
,
00013000
00100000
10000000
01000000
00010000
00001000
00010000
01000000
,
00100000
00000000
00001000
00010000
00000000
00001000
00000000
00010000
00000000
00000100
00000000
00001000
00000000
00000100
00000000
00000010
,
00000001
00000100
00001000
00010000
00100000
10000000
00010000
00000000
,
10000000
01000000
10000000
01000000
00100000
01000000
00100000
00001000
00020000
00000000
00000000
00000000
,
00031000
00000010
00000001
00000100
00001000
00010000
00001000
00000100
,
00000010
00010000
00000000
00000000
00001000
00010000
00000000
00000000
00000000
00001000
00000000
00001000
00000000
00001000
00000000
00001000
,
00010000
00000000
00000000
00000000
;

//--------------- dance-double - Extraordiberry ----------------
#NOTEDATA:;
#STEPSTYPE:dance-double;
#DESCRIPTION:Extraordiberry;
#DIFFICULTY:Hard;
#METER:16;
#RADARVALUES:0,0,0,0,0;
#CREDIT:Extraordiberry;
#NOTES:
00000000
00000000
00000000
00000000
,
00000000
00000000
00000000
00000000
,
00000000
00000000
00000000
00000000
,
00000000
00000000
00000000
00000000
,
00000000
00000000
00000000
00000000
,
00010000
00001000
00000100
00000010
00000100
00001000
00010000
00000010
,
00010000
00001000
00000010
00000100
00000010
00001000
00010000
00010000
,
00001000
00010000
00100000
01000000
00100000
00010000
00001000
01000000
,
00001000
00000000
00010000
00000000
01000000
00100000
01000000
10000000
00000000
10000000
01000000
00100000
00000000
00100000
01000000
10000000
,
00020000
02030000
03200000
00302000
,
00003020
00020030
00032000
00003020
,
00000032
00000000
00000003
00001000
00000010
00010000
00000000
00000000
00002000
00000000
00003000
01000000
00010000
10000000
00000000
00000000
,
02000000
00000000
03000000
00100000
00001000
00010000
00000000
00000000
00012000
00000000
00013000
00001000
00000000
00010000
00000100
00001000
,
00000200
00000000
00010000
00000000
00001300
00000100
00000010
00000000
00000200
00000000
00010000
00000000
00001300
00000100
00000010
00000000
,
00000200
00000000
00010000
00000000
00001300
00000100
00000010
00000000
00000200
00000000
00010000
00000000
00001300
00000000
00000001
00000010
,
00000000
00000000
00000000
00000000
00001000
00010000
00100000
00000000
02000000
00000000
00001000
00000000
03010000
01000000
00100000
00000000
,
02000000
00000000
00001000
00000000
03010000
01000000
00010000
10000000
00000000
10000000
01000000
00100000
00000000
00100000
01000000
10000000
,
00010000
00000000
01000000
00100000
00000000
00010000
00000000
00001000
00000000
00000100
00000000
00000010
00000000
00000010
00001000
00000000
,
00000002
00000010
00001003
00000001
00002000
00000010
00003001
00000000
,
00001000
00000000
00000100
00000010
00000000
00001000
00000000
00010000
00000000
01000000
00000000
00100000
00000000
00100000
00010000
00000000
,
10000000
00000000
00100000
00010000
00001000
00000000
00001000
00010000
00000000
00001000
00000000
00000000
00100000
01000000
00000000
00000000
,
10000000
00000000
00100000
00010000
00000000
00001000
00000000
00000100
00000000
00000010
00000000
00001000
00000000
00001000
00000001
00000000
,
00000020
00000001
00000130
00000010
00000200
00010000
00001300
00000000
,
00000001
00000000
00000100
00001000
00000000
00010000
00000000
00100000
00000000
10000000
00000000
01000000
00000000
01000000
00020000
00000000
,
00000000
00000000
00000000
00000000
00000000
00000000
00000000
00030000
,
00001000
00010000
00000010
00000000
00001000
00000010
00000100
00000000
00001000
00010000
00000010
00000000
00001000
00000010
00000100
00000000
,
00001000
00010000
00000010
00000000
00001000
00010000
00000010
00000000
00000010
00010000
00001000
00000000
00001000
00010000
00001000
00000000
,
00010000
00001000
00100000
00000000
00010000
00100000
01000000
00000000
00010000
00001000
00100000
00000000
00010000
00100000
01000000
00000000
,
00010000
00001000
00100000
00000000
01000000
00100000
01000000
00000000
00010000
00001000
00100000
00000000
00010000
00001000
00100000
00000000
,
00012000
00000000
00000000
00000000
00003100
00000010
00000100
00000000
00000010
00010000
00001000
00000000
00000100
00000010
00000100
00000000
,
00001000
00000000
00010000
00000000
01000000
00100000
01000000
00000000
00100000
00001000
00010000
00000000
01000000
00100000
01000000
00000000
,
10000000
00100000
00010000
00001000
00010000
01000000
10000000
00100000
,
00010000
00000000
00010000
00000000
00001000
00000100
00000000
00000000
00000002
00000000
00000000
00000000
00000023
00000000
00000000
00000000
,
00001030
00000000
00010000
00001000
00000000
00010000
00001000
00100000
01000000
00000000
10000000
01000000
00000000
00100000
00001000
00010000
,
00001000
00100000
00000000
00100000
00001000
00010000
00001000
00100000
00000000
00100000
00001000
00010000
00001000
00010000
00000100
00000000
,
00010000
00000000
00001000
00010000
00000000
00001000
00010000
00000010
00000100
00001000
00000000
00010000
00000000
00010000
00000010
00001000
,
00000010
00010000
00001000
00000000
00001000
00010000
00000010
00010000
00001000
00000000
00001000
00010000
00000010
00000100
00001000
00010000
,
00200000
00000000
00000000
20300000
00000000
00000000
00000000
32000000
00000000
00000000
00000000
03020000
00000000
00000000
00000000
01000000
,
00000000
00000000
00000000
00001000
00000000
00000000
00000000
00000000
00000010
00000000
00000000
00000000
00000000
00000000
00000000
00000000
,
00032000
00000000
00000000
00010000
00000000
00000000
00000000
00000010
00000000
00000000
00000000
00010000
00000000
00000000
00000000
00000000
,
00000000
00000000
00000000
00000000
00000000
00000000
00000000
00000001
00000000
00000000
00000000
00000000
00003000
00000000
00000000
00000000
,
00020000
00000000
00000000
00000000
00000000
00000000
00000000
00000000
00000000
00000000
00000000
00000000
00032000
00000000
00000000
00000000
00000000
00000000
00000000
00000000
00000000
00000000
00000000
00000000
00000000
00000000
00000000
00000000
00000000
00000000
00023000
00000000
00000000
00000000
00000000
00000000
00000000
00000000
00000000
00000000
00000000
00000000
00000000
00032000
00000000
00000000
00000000
00000000
00203000
00000000
00000000
00000000
00000000
00320000
00000000
00000000
00000000
00000000
00000000
00000000
00000000
00000000
00000000
00000000
00000000
00000000
00000000
00000000
00000000
00000000
00000000
00000000
00230000
00000000
00000000
00000000
00000000
00000000
00000000
00000000
00000000
00000000
00000000
00000000
00302000
00000000
00000000
00000000
00000000
00000000
00000000
00000000
00000000
00000000
00000000
00000000
,
00000000
00000000
00000000
00000000
00000000
00000000
00023000
00000000
00000000
00000000
00000000
00000000
00000000
00000000
00000000
00000000
00000000
00000000
00000000
00000000
00000000
00000000
00000000
00000000
00000000
00000000
00000000
00000000
00000000
00000000
00032000
00000000
00000000
00000000
00000000
00000000
00000000
00000000
00000000
00000000
00000000
00000000
00000000
00023000
00000000
00000000
00000000
00000000
00030020
00000000
00000000
00000000
00000000
00002030
00000000
00000000
00000000
00000000
00000000
00000000
00000000
00000000
00000000
00000000
00000000
00000000
00000000
00000000
00000000
00000000
00000000
00000000
00003020
00000000
00000000
00000000
00000000
00000000
00000000
00000000
00000000
00000000
00000000
00000000
00000000
00000000
00000000
00000000
00000000
00000000
00000000
00000000
00000000
00000000
00000000
00000000
,
00000000
00000000
00000000
00000000
00000000
00000000
00000000
00000000
00000000
00000000
00000000
00000000
00000000
00000000
00000000
00000000
00000000
00000000
00000000
00000000
00000000
00000000
00000000
00000000
00020030
00000000
00000000
00000000
00000000
00000000
00000000
00000000
00000000
00000000
00000000
00000000
00000000
00000000
00000000
00000000
00000000
00000000
00000000
00000000
00000000
00000000
00000000
00000000
00000000
00000000
00000000
00000000
00000000
00000000
00000000
00000000
00000000
00000000
00000000
00000000
00032000
00000000
00000000
00000000
00000000
00000000
00000000
00000000
00000000
00000000
00000000
00000000
00000000
00000000
00000000
00000000
00000000
00000000
00000000
00000000
00000000
00000000
00000000
00000000
00000000
00000000
00200000
00000000
00000000
00000000
00000000
00000000
00000000
00000000
00000000
00003000
00320000
00000000
00000000
00000000
00000000
00000000
00000000
00000000
00000000
00000000
20030000
00000000
00000000
00000000
00000000
00000000
00000000
00000000
00000000
00000000
00000000
00000000
00000000
00000000
00000000
00000000
00000000
00000000
00000000
00000000
00000000
00000000
00000000
00000000
00000000
00000000
00000000
00000000
00000000
00000000
00000000
00000000
00000000
00000000
00000000
00000000
00000000
00000000
32000000
00000000
00000000
00000000
00000000
00000000
00000000
00000000
00000000
00000000
00000000
00000000
00000000
00000000
00000000
00000000
00000000
00000000
00000000
00000000
00000000
00000000
00000000
00000000
03200000
00000000
00000000
00000000
00000000
00000000
00000000
00000000
00000000
00000000
00000000
00000000
00000000
00000000
00000000
00000000
00000000
00000000
00000000
00000000
00000000
00000000
00000000
00000000
,
00000000
00000000
00000000
00000000
00000000
00000000
00302000
00000000
00000000
00000000
00000000
00000000
00000000
00000000
00000000
00000000
00000000
00000000
00000000
00000000
00000000
00000000
00000000
00000000
00000000
00000000
00000000
00000000
00000000
00000000
00023000
00000000
00000000
00000000
00000000
00000000
00000000
00000000
00000000
00000000
00000000
00000000
00000000
00030020
00000000
00000000
00000000
00000000
00002030
00000000
00000000
00000000
00000000
00003002
00000000
00000000
00000000
00000000
00000000
00000000
00000000
00000000
00000000
00000000
00000000
00000000
00000000
00000000
00000000
00000000
00000000
00000000
00000000
00000000
00000000
00000000
00000000
00000000
00000203
00000000
00000000
00000000
00000000
00000000
00000000
00000000
00000000
00000000
00000000
00000000
00000000
00000000
00000000
00000000
00000000
00000000
,
00001300
00000000
00010000
00001000
00100000
00000000
00100000
00001000
00010000
00000000
00010000
00001000
00100000
00000000
00100000
00001000
,
00010000
00000000
00001000
00010000
00000010
00000000
00000010
00010000
00001000
00000000
00001000
00010000
00000010
00000000
00000010
00010000
,
00002000
00003020
00002030
00023000
02030000
03020000
00032000
00003020
,
00000032
00002003
00023000
20030000
30020000
00032000
00003002
00000203
,
00001300
00010000
00100000
01000000
00100000
00010000
00001000
01000000
,
00001000
00010000
01000000
00100000
01000000
00010000
00001000
00001000
,
00010000
00001000
00000100
00000010
00000100
00001000
00010000
00000010
,
00010000
00000000
00001000
00000000
00000010
00000000
00000100
00000000
00000010
00000000
00001000
00000000
00010000
00000100
00001000
00000000
,
00000001
00000100
00001000
00010000
00001000
00000010
00000001
00000100
,
00001000
00010000
00001000
00000010
00000001
00000100
00001000
00010000
,
00200000
00300000
00000000
00000000
00000000
00000000
00000000
00000000
00000000
00000000
00000000
00000000
00000000
00000000
00000000
00000000
,
00010000
00002000
00100000
00000000
00013000
00001000
00010000
00000000
00001000
00020000
00000010
00000000
00031000
00010000
00001000
00000000
,
00001000
00020000
00000100
00000000
00031000
00010000
00001000
00000000
00010000
00002000
01000000
00000000
00013000
00001000
00010000
00000000
,
00010000
00000020
00001000
00000000
00010030
00001000
00010000
00000000
00001000
00200000
00010000
00000000
01300000
00000000
00010000
00000000
,
00001000
00020000
00000010
00000000
00031000
00010000
00001000
00000000
00001000
00020000
00000010
00000000
00031000
00010000
00100000
00000000
,
10020000
00000000
00130000
00000000
02000000
00000000
10000000
00000000
03100000
01000000
00100000
00000000
00002000
00000000
00100000
00000000
,
00013000
00001000
00010000
00000000
00000020
00000000
00001000
00000000
00000130
00000010
00000100
00000000
00000002
00000000
00001000
00000000
,
00000013
00000001
00000010
00000000
00000200
00000000
00010000
00000000
00001300
00000100
00000010
00000000
00000100
00000000
00010000
00000100
,
00001000
00000000
00010000
00000100
00001000
00000000
00001000
00000010
00000000
00000100
00000000
00000000
00002000
00000000
00003000
00000000
,
00010000
00000000
00100000
10000000
00000000
01000000
00000000
00010000
00000000
00001000
00000000
00000010
00000000
00000010
00000001
00000000
,
00000001
00000000
00000100
00000000
00001000
00000000
00010000
00000000
00001000
00000000
00100000
00000000
01000000
00000000
00010000
00000000
00002000
00000000
00000000
00000000
00000000
00003000
00000000
00000000
,
00001000
00000000
00000010
00000001
00000000
00000100
00000000
00001000
00000000
00010000
00000000
00100000
00000000
00100000
10000000
00000000
,
00010000
00000000
00010000
00100000
00000000
00011000
00000000
00100000
00000000
00011000
00000000
00000010
00000000
00011000
00000000
00000010
,
00001000
00000000
00000001
00000010
00000000
00001000
00000000
00010000
00000000
01000000
00000000
10000000
00000000
10000000
00100000
00000000
,
00010000
00000000
00001000
00000000
00000100
00000000
00001000
00000000
00010000
00000000
00001000
00000000
00000100
00000000
00001000
00000000
00020000
00000000
00000000
00000000
00000000
00030000
00000000
00000000
,
00001000
00000000
00000010
00000001
00000000
00000100
00000000
00001000
00000000
00010000
00000000
00100000
00000000
00100000
10000000
00000000
,
00010000
00200000
00000000
00300000
00000100
00002000
00000000
00003000
00000000
00000001
00000000
00000100
00000000
00001000
00000000
00010000
,
00001000
00000000
00000000
00000000
;
