#VERSION:0.83;
#TITLE:Mamma Mia;
#SUBTITLE:;
#ARTIST:ABBA;
#TITLETRANSLIT:;
#SUBTITLETRANSLIT:;
#ARTISTTRANSLIT:;
#GENRE:;
#ORIGIN:;
#CREDIT:;
#BANNER:banner.png;
#BACKGROUND:Mamma Mia-bg.png;
#PREVIEWVID:;
#JACKET:jacket.png;
#CDIMAGE:;
#DISCIMAGE:;
#LYRICSPATH:;
#CDTITLE:;
#MUSIC:Mamma Mia.ogg;
#OFFSET:-0.501000;
#SAMPLESTART:14.717306;
#SAMPLELENGTH:14.000008;
#SELECTABLE:YES;
#BPMS:0.000=137.254,
4.000=125.960,
6.000=137.970,
8.000=132.090,
11.979=139.280,
16.000=134.000,
24.000=138.780,
28.000=133.000,
32.000=136.490,
35.000=132.890,
38.000=135.800,
44.000=136.600,
48.000=136.380,
56.000=138.070,
68.000=136.860,
76.000=137.550,
84.000=136.130,
91.000=141.370,
93.000=136.170,
100.000=139.450,
103.000=134.780,
108.000=141.940,
112.000=134.550,
116.000=138.910,
120.000=138.350,
124.000=136.860,
132.000=137.780,
136.000=140.000,
140.000=135.770,
148.000=139.560,
152.000=138.160,
168.000=137.540,
172.000=139.500,
176.000=137.530,
180.000=140.280,
184.000=138.180,
188.000=138.640,
192.000=140.800,
196.000=138.870,
204.000=138.190,
212.000=138.910,
216.000=140.620,
224.000=138.190,
232.000=139.200,
236.000=138.150,
244.000=136.270,
247.000=145.920,
248.000=141.620,
249.000=135.000,
252.000=140.100,
256.000=137.630,
260.000=139.420,
264.000=138.050,
269.000=139.420,
272.000=137.110,
276.000=135.860,
284.000=138.780,
288.000=134.170,
292.000=136.980,
296.000=135.700;
#STOPS:;
#DELAYS:;
#WARPS:;
#TIMESIGNATURES:0.000=4=4;
#TICKCOUNTS:0.000=4;
#COMBOS:0.000=1;
#SPEEDS:0.000=1.000=0.000=0;
#SCROLLS:0.000=1.000;
#FAKES:;
#LABELS:0.000=Song Start;
#BGCHANGES:-1.000=Mamma Mia.avi=1.000=0=0=1=====,
99999=-nosongbg-=1.000=0=0=0 // don't automatically add -songbackground-
;
#KEYSOUNDS:;
#ATTACKS:
;

//---------------dance-single - ----------------
#NOTEDATA:;
#CHARTNAME:;
#STEPSTYPE:dance-single;
#DESCRIPTION:;
#CHARTSTYLE:;
#DIFFICULTY:Beginner;
#METER:3;
#RADARVALUES:0.129557,0.162364,0.036568,0.043882,0.000000,124.000000,119.000000,5.000000,6.000000,0.000000,0.000000,0.000000,0.000000,0.000000,0.129557,0.162364,0.036568,0.043882,0.000000,124.000000,119.000000,5.000000,6.000000,0.000000,0.000000,0.000000,0.000000,0.000000;
#CREDIT:;
#NOTES:
0000
0000
0000
0000
,
0000
0000
0000
0000
,
0000
0000
0000
0000
,
0000
0000
0000
0000
,
1000
0000
1000
0000
,
0000
0000
0001
0000
,
0100
0000
0100
0000
,
0000
0000
0010
0000
,
0100
0000
0100
0000
,
0001
0000
0001
0000
,
1000
0000
0000
0000
,
1000
0000
0000
0000
,
0001
0000
0001
0000
,
0010
0000
0010
0000
,
0100
0000
0000
0000
,
0100
0000
0000
0000
,
1000
0000
2000
0000
,
3000
0000
0001
0000
,
0001
0000
0200
0000
,
0300
0000
0001
0000
,
0010
0000
0010
0000
,
0001
0000
0001
0000
,
1000
0000
1000
0000
,
0010
0000
0100
0000
,
0200
0000
0000
0000
,
0300
0000
0010
0000
,
0020
0000
0000
0000
,
0030
0000
1000
0000
,
0000
0001
0001
0000
,
0100
0000
0010
0000
,
0000
0100
0100
0000
,
0010
0000
0010
0000
,
0000
1000
1000
0000
,
0100
0000
0100
0000
,
0000
0010
0010
0000
,
0100
0000
0100
0000
,
1000
0000
1000
0000
,
0001
0000
0001
0000
,
0100
0000
0100
0000
,
0010
0000
0010
0000
,
0100
0000
0000
0000
,
0010
0000
1001
0000
,
1000
0000
1000
0000
,
0001
0000
0001
0000
,
0100
0000
0100
0000
,
0010
0000
0000
0000
,
0100
0000
0100
0000
,
0001
0000
0001
0000
,
1000
0000
1000
0000
,
0100
0000
0000
0000
,
1000
0000
1000
0000
,
0010
0000
0010
0000
,
0100
0000
0100
0000
,
0001
0000
1001
0000
,
0001
0000
0001
0000
,
0010
0000
0010
0000
,
0100
0000
0100
0000
,
1000
0000
1001
0000
,
0001
0000
0001
0000
,
1000
0000
0000
0000
,
1000
0000
1000
0000
,
0001
0000
0000
0000
,
1000
0000
0100
0000
,
0010
0000
1001
0000
,
0001
0000
0001
0000
,
1000
0000
1000
0000
,
0010
0000
0010
0000
,
0100
0000
0010
0000
,
1001
0000
0000
0000
,
0000
0000
0000
0000
,
1000
0000
2000
0000
,
3000
0000
0001
0000
,
0100
0000
0200
0000
,
0300
0000
0001
0000
,
0001
0000
0000
0000
;

//---------------dance-single - ----------------
#NOTEDATA:;
#CHARTNAME:;
#STEPSTYPE:dance-single;
#DESCRIPTION:;
#CHARTSTYLE:;
#DIFFICULTY:Easy;
#METER:6;
#RADARVALUES:0.263293,0.324728,0.160901,0.058509,0.000000,252.000000,230.000000,22.000000,8.000000,0.000000,0.000000,0.000000,0.000000,0.000000,0.263293,0.324728,0.160901,0.058509,0.000000,252.000000,230.000000,22.000000,8.000000,0.000000,0.000000,0.000000,0.000000,0.000000;
#CREDIT:Venomothim;
#NOTES:
0000
0000
0000
0000
,
0000
0000
0000
0000
,
0000
0000
0000
0000
,
0000
0000
0000
0000
,
1000
0100
2000
0000
,
0000
3000
0001
0100
,
0001
0010
0002
0000
,
0000
0003
1000
0100
,
0010
0010
0001
0100
,
0010
0010
0100
0001
,
0010
0000
0010
0000
,
0100
0000
0100
0000
,
0100
0100
1000
0010
,
0100
0100
0010
1000
,
0100
0000
0100
0000
,
1000
0000
1000
0000
,
0001
0100
0002
0000
,
0010
0000
0100
0000
,
1003
0100
2000
0000
,
0010
0000
0100
0000
,
3001
0001
0010
0000
,
0001
0100
0010
1000
,
0100
0100
1000
0000
,
0010
1000
1100
0011
,
1001
0001
0100
0010
,
1000
0010
0100
0001
,
1001
1000
0100
0010
,
0100
1000
0001
0001
,
0000
0100
0100
0000
,
0000
0010
1000
0100
,
0000
0010
0010
0000
,
0100
1000
0010
0100
,
0000
0001
0001
0000
,
1000
0100
1000
0010
,
0000
1000
1000
0000
,
0001
0010
0100
1000
,
0001
0101
1000
1100
,
0001
0010
0100
1000
,
0001
0011
1000
1010
,
0001
0010
0100
1000
,
0010
0100
1001
0000
,
0001
0001
1000
1000
,
0001
0100
0001
1000
,
0100
1000
0010
1000
,
0001
1010
0101
0000
,
1000
0100
0010
0001
,
1000
0010
1000
0001
,
0010
0001
1000
0100
,
1000
0011
1100
0000
,
0001
0100
0010
1000
,
0001
0010
1000
0010
,
0001
0100
1000
0100
,
0001
1010
0101
0000
,
1000
1000
0001
0001
,
1000
0100
0001
0100
,
1000
0010
0001
0010
,
1000
0011
1100
0000
,
0001
0001
1000
1000
,
0010
1000
0100
0010
,
0001
0001
1000
1000
,
0001
0100
0010
1000
,
0001
0001
1000
1000
,
0100
1010
0101
0000
,
0001
1000
1000
0001
,
1000
0100
0010
0001
,
1000
0010
0100
0001
,
0010
0110
1001
0000
,
0001
0010
0100
1000
,
2002
0000
0000
0000
,
0000
0000
3003
0000
,
1000
0100
2000
0000
,
0000
3000
0001
0100
,
0001
0010
0002
0000
,
0000
0003
1000
0100
,
1000
0000
0000
0000
;

//---------------dance-single - ----------------
#NOTEDATA:;
#CHARTNAME:;
#STEPSTYPE:dance-single;
#DESCRIPTION:;
#CHARTSTYLE:;
#DIFFICULTY:Medium;
#METER:8;
#RADARVALUES:0.371953,0.405909,0.365684,0.102392,0.000000,356.000000,306.000000,50.000000,14.000000,0.000000,0.000000,0.000000,0.000000,0.000000,0.371953,0.405909,0.365684,0.102392,0.000000,356.000000,306.000000,50.000000,14.000000,0.000000,0.000000,0.000000,0.000000,0.000000;
#CREDIT:Venomothim;
#NOTES:
0000
0000
0000
0000
,
0000
0000
0000
0000
,
0000
0000
0000
0000
,
0000
0000
0000
0000
,
1000
0010
1000
0020
0000
0000
0000
0000
,
0000
0000
0100
0130
,
0001
0010
0001
0020
0000
0000
0000
0000
,
0000
0000
0100
0130
,
1000
0000
1100
0000
0001
0100
0001
0000
,
0010
0000
0011
0000
0010
0100
0010
0000
,
0100
2000
0001
3001
,
0100
0002
1000
1003
,
0100
0000
1010
0000
1000
0010
1000
0000
,
0100
0000
0011
0000
0001
0010
0001
0000
,
0100
0020
1000
1030
,
0100
0020
0001
0031
,
1000
0100
1000
0020
0000
0000
0000
0000
,
0001
1000
1000
0130
,
0100
0001
0010
0200
0000
0000
0000
0000
,
0001
0000
0001
0000
1300
0001
1000
0000
,
0010
0101
0010
1100
,
0001
0000
0010
0000
0001
0100
0010
0000
,
1000
0101
0001
1100
,
0001
1000
1010
0101
,
1001
0000
0001
1000
0001
0000
1000
0100
,
1000
0010
1010
0101
,
1001
0000
0001
0010
0001
0000
0010
0100
,
0010
0001
0110
1001
,
0001
0000
1000
1000
0001
0001
0000
0000
,
0000
0000
1000
1000
0100
0100
1000
1000
,
0000
0000
0020
0000
0130
0000
0000
0001
,
0000
1000
0100
1000
0010
0000
0010
0000
,
0000
0000
0100
0100
0001
0001
0000
0000
,
0000
0000
0010
0010
0001
0001
1000
1000
,
0000
0000
0020
0000
0130
0000
0000
0001
,
0000
0010
0100
0010
0001
0000
1001
0000
,
1000
0000
1010
0000
0001
0010
1000
0000
,
0010
0000
0011
0000
0001
0100
1000
0000
,
0100
0000
0101
0000
1000
0100
0001
0000
,
0100
0000
1100
0000
1000
0010
0001
0000
,
0010
0000
1010
0000
0101
0000
0001
1000
,
0000
0100
0010
0000
0110
0000
1001
0000
,
0001
0000
0010
0000
1000
0010
0001
0000
,
1000
0000
0010
0000
0001
0010
1000
0000
,
0100
0000
0011
0000
1100
0000
0001
0100
,
0000
0100
0010
0000
0110
0000
1001
0000
,
0001
0000
0100
0000
1000
0100
0001
0000
,
1000
0000
0100
0000
0001
0100
1000
0000
,
0100
0000
1010
0000
0101
0000
1000
0100
,
0000
0100
0010
0000
0110
0000
1001
0000
,
0001
0000
1000
0000
0010
0100
0001
0000
,
1000
0000
0001
0000
0010
0100
1000
0000
,
0010
0000
0110
0000
1001
0000
0001
0100
,
0000
0100
0010
0000
1010
0000
0101
0000
,
1000
0000
0100
0000
0010
0001
1000
0000
,
0001
0000
0100
0000
0010
1000
0001
0000
,
0100
0000
0110
0000
1001
0000
1000
0100
,
0000
0100
0010
0000
0011
0000
1100
0000
,
0001
0000
0100
0000
0010
1000
0001
0000
,
1000
0000
0100
0000
0010
0001
1000
0000
,
0010
0000
0100
0000
0001
1000
0100
0000
,
0010
0000
0100
0000
1000
0001
0100
0000
,
0010
0000
0110
0000
1001
0000
0001
1000
,
0000
1000
0010
0000
0100
0000
1001
0000
,
1000
0000
0100
0000
0010
0001
1000
0000
,
0001
0000
0100
0000
0010
1000
0001
0000
,
0100
0000
1010
0000
0101
0000
0001
0010
,
0000
0010
0100
0000
0110
0000
0110
0000
,
2002
0000
0000
0000
,
0000
0000
0000
3003
,
1000
0100
1000
0020
0000
0000
0000
0000
,
0000
0000
0100
0130
,
0100
0001
0010
0200
0000
0000
0000
0000
,
0000
0000
0010
0310
,
0110
0000
0000
0000
;

//---------------dance-single - ----------------
#NOTEDATA:;
#CHARTNAME:;
#STEPSTYPE:dance-single;
#DESCRIPTION:;
#CHARTSTYLE:;
#DIFFICULTY:Hard;
#METER:11;
#RADARVALUES:0.457628,0.514152,0.234038,0.197469,0.000000,438.000000,406.000000,32.000000,27.000000,0.000000,0.000000,0.000000,0.000000,0.000000,0.457628,0.514152,0.234038,0.197469,0.000000,438.000000,406.000000,32.000000,27.000000,0.000000,0.000000,0.000000,0.000000,0.000000;
#CREDIT:Venomothim;
#NOTES:
0000
0000
0000
0000
,
0000
0000
0000
0000
,
0000
0000
0000
0000
,
0000
0000
0000
0000
,
1000
0100
0010
0002
0000
0000
0000
0000
,
0000
0000
0103
1000
0100
0001
1000
0000
,
0001
0010
0100
2000
0000
0000
0000
0000
,
0000
0000
3100
0001
0100
1000
0001
0000
,
0001
0000
1010
0000
0001
0100
0010
0100
,
0001
0000
1000
0100
0010
0100
1000
0010
,
1000
0000
0001
0100
1000
1000
1000
0100
,
0001
0000
1000
0100
0001
0001
0001
0100
,
1000
0000
0011
0000
1000
0100
0010
0100
,
1000
0000
0001
0100
0010
0100
0001
0010
,
0001
0000
1000
0100
0001
0001
0001
0100
,
1000
0000
0001
0100
1000
1000
1000
0100
,
0001
0010
0100
2000
0000
0000
0000
0000
,
0000
0000
3001
0100
1000
0100
0001
0000
,
1000
0010
0100
0002
0000
0000
0000
0000
,
0000
0000
1003
0100
0001
0100
0001
0100
,
1000
1010
0001
0011
,
1000
0000
0100
0010
0001
0100
0010
0100
,
0001
0011
1000
1010
,
0001
0000
0110
0110
,
1001
0001
0010
0100
1000
0001
0010
0100
,
1000
0001
0010
0100
0110
0000
0011
0000
,
1001
1000
0010
0100
0001
1000
0010
0100
,
0001
1000
0010
0100
0001
0001
1000
1000
,
1001
0000
0001
0001
1000
1000
0000
0000
,
0000
0000
0001
0010
1000
0010
0001
1000
,
0000
0000
0002
0000
1003
0000
0000
0020
,
0000
0031
0010
1000
0001
0001
1000
1000
,
0000
0000
0100
0100
0010
0010
0000
0000
,
0000
0000
0001
0100
1000
0100
0001
1000
,
0000
0000
0002
0000
1003
0000
0000
0200
,
0000
0301
0100
1000
0001
0000
1001
0000
,
2000
0000
0010
0000
3001
0010
1000
0010
,
0002
0000
0100
0000
1003
0100
0001
0100
,
2000
0000
0010
0000
3001
0010
1000
0010
,
0002
0000
0100
0000
1003
0100
0001
0100
,
1000
0000
0011
0000
1100
0000
0001
0200
,
0000
1300
0100
0010
1000
1000
0001
0001
,
1000
0100
0001
0100
1000
0001
1000
0001
,
1000
0010
0001
0010
1000
0001
1000
0001
,
0100
0000
1010
0000
0101
0000
1000
0020
,
0000
0031
0010
1000
0001
0001
1000
1000
,
0001
0010
1000
0010
0001
1000
0001
1000
,
0001
0100
1000
0100
0001
1000
0001
1000
,
0100
0000
0011
0000
1100
0000
0001
0200
,
0000
1300
0100
0010
1000
1000
0001
0001
,
1000
0100
0001
0100
0010
0001
1000
0001
,
1000
0010
0001
0010
0100
0001
1000
0001
,
0100
0000
1010
0000
0101
0000
0001
2000
,
0000
3100
0001
0010
1000
0000
1001
0000
,
0001
0010
1000
0010
0100
1000
0001
1000
,
0001
0100
1000
0100
0010
1000
0001
1000
,
0100
0000
0011
0000
1100
0000
1000
0002
,
0000
0103
1000
0010
0001
0000
1001
0000
,
0002
0000
0100
0000
1003
0100
0001
0100
,
2000
0000
0010
0000
3001
0010
1000
0010
,
0002
0000
0100
0000
1003
0100
0001
0100
,
2000
0000
0010
0000
3001
0010
1000
0010
,
0001
0000
1010
0000
0101
0000
0001
2000
,
0000
3100
0001
0100
0010
0010
0001
0001
,
1000
0010
0001
0010
1000
0001
1000
0001
,
1000
0100
0001
0100
1000
0001
1000
0001
,
0100
0000
1010
0000
0101
0000
0001
2000
,
0000
3100
0001
0100
0010
0010
0001
0001
,
2002
0000
0000
0000
,
0000
0000
3003
0000
,
0001
0010
0100
2000
0000
0000
0000
0000
,
0000
0000
3100
0001
0100
1000
0001
0000
,
0001
0100
0010
2000
0000
0000
0000
0000
,
0000
0000
3010
0001
0010
1000
0001
0000
,
1001
0000
0000
0000
;

//---------------dance-double - ----------------
#NOTEDATA:;
#CHARTNAME:;
#STEPSTYPE:dance-double;
#DESCRIPTION:;
#CHARTSTYLE:;
#DIFFICULTY:Easy;
#METER:6;
#RADARVALUES:0.268517,0.351788,0.219411,0.102392,0.000000,257.000000,227.000000,30.000000,14.000000,0.000000,0.000000,0.000000,0.000000,0.000000,0.268517,0.351788,0.219411,0.102392,0.000000,257.000000,227.000000,30.000000,14.000000,0.000000,0.000000,0.000000,0.000000,0.000000;
#CREDIT:Venomothim (Uncharted Territory);
#NOTES:
00000000
00000000
00000000
00000000
,
00000000
00000000
00000000
00000000
,
00000000
00000000
00000000
00000000
,
00000000
00000000
00000000
00000000
,
00010000
00000000
00200000
00000000
,
00000000
00000000
00310000
00000000
,
00001000
00000000
00000020
00000000
,
00000000
00000000
00001030
00000000
,
00010000
00010000
00100000
00100000
,
01000000
10000000
00100000
01000000
,
00010000
00000000
00010000
00000000
,
00100000
00000000
00001000
00000000
,
00010000
00010000
00000010
00000100
,
00000001
00000001
00000010
00000100
,
00010000
00000000
00010000
00000000
,
00001000
00000000
00001000
00000000
,
00010000
00001000
00200000
00000000
,
00000000
01300000
10000000
00100000
,
01000000
00001000
00020000
00000000
,
00000000
00030010
00000100
00000001
,
00001000
00001000
00000001
00000000
,
00000001
00000010
00000100
00001000
,
00000100
00010000
00001000
00000000
,
00100000
00010000
10100000
01010000
,
10000000
00100000
01000000
00001000
,
00010000
00000100
00001100
00000011
,
00001001
00000001
00000100
00000010
,
00010000
00001000
00011000
00011000
,
00000000
00010000
00020000
00030000
,
00000000
00001000
00001000
00002000
,
00003000
00000100
00000200
00000300
,
00000010
00000010
00001000
00001000
,
00000000
00000001
00000002
00000003
,
00000000
00000100
00000100
00000200
,
00000300
00000010
00000020
00000030
,
00010000
00010000
00001000
00100000
,
00010000
01010000
10000000
10100000
,
10000000
01000000
00100000
00010000
,
01000000
01001000
00001000
00010010
,
00001000
00000010
00000100
00000001
,
00000010
00000011
00001100
00000000
,
00000001
00000100
00000010
00010000
,
00001000
00010000
00100000
00100000
,
00010000
00001000
00000010
00000010
,
00001000
00011000
00011000
00000000
,
00010000
01000000
10000000
01000000
,
00010000
00001000
00000100
00000100
,
00001000
00010000
01000000
01000000
,
00010000
00011000
00011000
00000000
,
00001000
00000100
00000001
00000100
,
00001000
00001000
00010000
00010000
,
00001000
00000010
00000100
00001000
,
00000010
00000101
00001010
00000000
,
00000001
00000010
00000100
00010000
,
00001000
00001000
00010000
00010000
,
00001000
00100000
01000000
10000000
,
00010000
10100000
01010000
00000000
,
10000000
00100000
01000000
00001000
,
00010000
00010100
00100000
00110000
,
00010000
01000000
00100000
10000000
,
01000000
10100000
10000000
01010000
,
00010000
00100000
00001000
00010000
,
00000010
00001010
00000101
00000000
,
00000001
00000100
00000001
00001000
,
00000100
00010000
00001000
00001000
,
00100000
00001000
00010000
00010000
,
00001000
00110000
00001100
00000000
,
00000100
00010000
00001000
00100000
,
00022000
00000000
00000000
00000000
,
00000000
00000000
00033000
00000000
,
00010000
01000000
20000000
00000000
,
00000000
00000000
31000000
00010000
,
00001000
00000100
00000002
00000000
,
00000000
00000000
00000103
00001000
,
00010000
00000000
00000000
00000000
;

//---------------dance-double - ----------------
#NOTEDATA:;
#CHARTNAME:;
#STEPSTYPE:dance-double;
#DESCRIPTION:;
#CHARTSTYLE:;
#DIFFICULTY:Medium;
#METER:9;
#RADARVALUES:0.356281,0.405909,0.299861,0.117019,0.000000,341.000000,300.000000,41.000000,16.000000,0.000000,0.000000,0.000000,0.000000,0.000000,0.356281,0.405909,0.299861,0.117019,0.000000,341.000000,300.000000,41.000000,16.000000,0.000000,0.000000,0.000000,0.000000,0.000000;
#CREDIT:Venomothim;
#NOTES:
// measure 0
00000000
00000000
00000000
00000000
,  // measure 1
00000000
00000000
00000000
00000000
,  // measure 2
00000000
00000000
00000000
00000000
,  // measure 3
00000000
00000000
00000000
00000000
,  // measure 4
00001000
00010000
00001000
00200000
00000000
00000000
00000000
00000000
,  // measure 5
00000000
10000000
01000000
00310000
,  // measure 6
00010000
00000010
00000100
00000020
00000000
00000000
00000000
00000000
,  // measure 7
00000000
00000001
00000100
00001030
,  // measure 8
00011000
00101000
00001000
00100000
,  // measure 9
00010000
00000000
01000000
00000000
00100000
10000000
01000000
00000000
,  // measure 10
10000000
00100000
01000000
01000000
,  // measure 11
00010000
00100000
01000000
01000000
,  // measure 12
00100000
00000000
00101000
00000000
00010000
00000010
00000100
00000000
,  // measure 13
00000001
00000001
00001000
00001000
,  // measure 14
00000001
00000010
00000100
00000100
,  // measure 15
00001000
00000010
00000100
00000100
,  // measure 16
00000001
00000100
00001000
00020000
00000000
00000000
00000000
00000000
,  // measure 17
00000000
01000000
01000000
01030000
,  // measure 18
10000000
01000000
00010000
00002000
00000000
00000000
00000000
00000000
,  // measure 19
00000000
00000100
00000100
00003100
,  // measure 20
00000001
00000011
00001000
00001100
,  // measure 21
00010000
00000000
00001000
00000000
00100000
00010000
01000000
00000000
,  // measure 22
00100000
10100000
00010000
01010000
,  // measure 23
01000000
00001000
00101000
00010100
,  // measure 24
00011000
00000000
00001000
00000100
00001000
00000000
00010000
01000000
,  // measure 25
00010000
00001000
01001000
00010010
,  // measure 26
00011000
00000000
00001000
00000010
00001000
00000000
00010000
00100000
,  // measure 27
00010000
00000000
00001000
00000000
00000100
00000010
00000100
00000010
,  // measure 28
00000000
00000000
00010000
00010000
00001000
00001000
00000000
00000000
,  // measure 29
00000000
00000000
00100000
00100000
00010000
00010000
10000000
10000000
,  // measure 30
00000000
00000000
02000000
00000000
03100000
00000000
00000000
20000000
,  // measure 31
00000000
30100000
00001000
00010000
00000010
00000000
00000110
00000000
,  // measure 32
00000000
00000000
00010000
00010000
00001000
00001000
00000000
00000000
,  // measure 33
00000000
00000000
00000100
00000100
00000001
00000001
00001000
00001000
,  // measure 34
00000000
00000000
00000020
00000000
00000130
00000000
00000000
00000002
,  // measure 35
00000000
00000103
00001000
00010000
00100000
00000000
10010000
00000000
,  // measure 36
10000000
00000000
11000000
00000000
10000000
01000000
00010000
00000000
,  // measure 37
01000000
00000000
00110000
00000000
00100000
00001000
00010000
00000000
,  // measure 38
00000100
00000000
00001010
00000000
00001000
00000001
00000010
00000000
,  // measure 39
00000100
00000000
00010100
00000000
00010000
00001000
00100000
00000000
,  // measure 40
00010000
00000000
10100000
00000000
01010000
00000000
00010000
10000000
,  // measure 41
00000000
10000000
01000000
00000000
01100000
00000000
00101000
00000000
,  // measure 42
00010000
00000000
00001000
00000000
00000100
00000010
00000100
00000000
,  // measure 43
00001000
00000000
00010000
00000000
01000000
00100000
01000000
00000000
,  // measure 44
10000000
00000000
10100000
00000000
01010000
00000000
00000000
00002000
,  // measure 45
00000000
00013000
00000010
00000000
00000100
00000000
00000100
00000000
,  // measure 46
00001000
00000000
00010000
00000000
01000000
10000000
01000000
00000000
,  // measure 47
00010000
00000000
00001000
00000000
00000100
00000001
00000100
00000000
,  // measure 48
00001000
00000000
00000101
00000000
00001010
00000000
00000000
00020000
,  // measure 49
00000000
00031000
01000000
00000000
00100000
00000000
00100000
00000000
,  // measure 50
10000000
00000000
01000000
00000000
00010000
00001000
00000100
00000000
,  // measure 51
00000001
00000000
00000100
00000000
00001000
00010000
01000000
00000000
,  // measure 52
10000000
00000000
01100000
00000000
10010000
00000000
00000000
00020000
,  // measure 53
00000000
01030000
00100000
00000000
10100000
00000000
01010000
00000000
,  // measure 54
10000000
00000000
00100000
00000000
00010000
00001000
00000010
00000000
,  // measure 55
00000001
00000000
00000010
00000000
00001000
00010000
00100000
00000000
,  // measure 56
10000000
00000000
01100000
00000000
10010000
00000000
00000000
20000000
,  // measure 57
00000000
31000000
00100000
00000000
00110000
00000000
11000000
00000000
,  // measure 58
10000000
00000000
00100000
00000000
01000000
00001000
00010000
00000000
,  // measure 59
00000010
00000000
00000100
00000000
00000001
00000010
00000100
00000000
,  // measure 60
00001000
00000000
00000100
00000000
00010000
00001000
00100000
00000000
,  // measure 61
00010000
00000000
01000000
00000000
00100000
10000000
01000000
00000000
,  // measure 62
10000000
00000000
10100000
00000000
01010000
00000000
00000000
00001000
,  // measure 63
00000000
00010000
00000010
00000000
00000100
00000000
00000100
00000000
,  // measure 64
00000001
00000000
00000010
00000000
00000100
00010000
00001000
00000000
,  // measure 65
00100000
00000000
00010000
00000000
10000000
01000000
10000000
00000000
,  // measure 66
00100000
00000000
01100000
00000000
10010000
00000000
00000000
00010000
,  // measure 67
00000000
00100000
00001000
00000000
00010000
00000000
00000100
00000000
,  // measure 68
00002002
00000000
00000000
00000000
,  // measure 69
00000000
00000000
00003003
00000000
,  // measure 70
00000001
00000100
00000010
00002000
00000000
00000000
00000000
00000000
,  // measure 71
00000000
00000100
00000100
00003100
,  // measure 72
00010000
00001000
00100000
00020000
00000000
00000000
00000000
00000000
,  // measure 73
00000000
01000000
01000000
01030000
,  // measure 74
10010000
00000000
00000000
00000000
;

//---------------dance-double - ----------------
#NOTEDATA:;
#CHARTNAME:;
#STEPSTYPE:dance-double;
#DESCRIPTION:;
#CHARTSTYLE:;
#DIFFICULTY:Hard;
#METER:12;
#RADARVALUES:0.452404,0.487091,0.241352,0.197469,0.000000,433.000000,400.000000,33.000000,27.000000,0.000000,0.000000,0.000000,0.000000,0.000000,0.452404,0.487091,0.241352,0.197469,0.000000,433.000000,400.000000,33.000000,27.000000,0.000000,0.000000,0.000000,0.000000,0.000000;
#CREDIT:Venomothim;
#NOTES:
00000000
00000000
00000000
00000000
,
00000000
00000000
00000000
00000000
,
00000000
00000000
00000000
00000000
,
00000000
00000000
00000000
00000000
,
00010000
00001000
00000100
00000002
00000000
00000000
00000000
00000000
,
00000000
00000000
00000103
00000010
00000100
00000010
00001000
00000000
,
00000100
00010000
01000000
00200000
00000000
00000000
00000000
00000000
,
00000000
00000000
01300000
00100000
01000000
00100000
00010000
00000000
,
01000000
00000000
10010000
00000000
10000000
01000000
00100000
00010000
,
01000000
00000000
00001000
00010000
00000010
00001000
00000001
00000010
,
00000001
00000000
00001000
00000100
00000001
00000001
00000001
00000100
,
00001000
00000000
00010000
01000000
10000000
10000000
10000000
01000000
,
00010000
00000000
00011000
00000000
00001000
00000100
00000001
00000010
,
00000000
00000010
00000001
00001000
00000010
00000100
00000001
00000010
,
00000100
00000000
00010000
01000000
10000000
10000000
10000000
01000000
,
00010000
00000000
00001000
00000100
00000001
00000001
00000001
00000100
,
00001000
00010000
00100000
20000000
00000000
00000000
00000000
00000000
,
00000000
00000000
31000000
10000000
00100000
01000000
00010000
00000000
,
00100000
00001000
00010000
00000020
00000000
00000000
00000000
00000000
,
00000000
00000000
00000130
00000001
00000010
00000100
00001000
00000100
,
00000001
00001100
00001000
00000101
,
00000001
00000000
00001000
00000100
00010000
00001000
00100000
00010000
,
10000000
10100000
00010000
01010000
,
01000000
00001000
00101000
00010100
,
00011000
00100000
00001000
00010000
00000100
00100000
00001000
00010000
,
00000100
00100000
00001000
00010000
00000100
00000000
00101000
00000000
,
00011000
00000010
00010000
00001000
01000000
00000010
00010000
00001000
,
01000000
00000010
00010000
00001000
00100000
00100000
00001000
00001000
,
00010000
00000000
00001000
00000100
00000001
00000100
00000000
00000000
,
00000000
00000000
00001000
00010000
01000000
10000000
01000000
00010000
,
00000000
00000000
00002000
00000000
00013000
00000000
00000000
00000020
,
00000000
00000130
00001000
00010000
01000000
00000000
10010000
00000000
,
00000000
00000000
00010000
00100000
10000000
00100000
00000000
00000000
,
00000000
00000000
00010000
00001000
00000010
00000001
00000010
00001000
,
00000000
00000000
00020000
00000000
00031000
00000000
00000000
00200000
,
00000000
01300000
00010000
00001000
00000100
00000000
00011000
00000000
,
00020000
00000000
01000000
00000000
00031000
00000100
00000001
00000100
,
00002000
00000000
00000100
00000000
00013000
01000000
10000000
01000000
,
00020000
00000000
00100000
00000000
00031000
00000010
00000001
00000010
,
00002000
00000000
00000100
00000000
00013000
00100000
10000000
00100000
,
00010000
00000000
00101000
00000000
00010100
00000000
00001000
00200000
,
00000000
00310000
01000000
00100000
10000000
10000000
00010000
00010000
,
10000000
01000000
00010000
00001000
00000100
00000001
00001000
00001000
,
00000001
00000100
00001000
00010000
01000000
10000000
00010000
00010000
,
10000000
00000000
10100000
00000000
01010000
00000000
00001000
00020000
,
00000000
00031000
00000100
00000001
00000010
00000000
00001001
00000000
,
00000001
00000010
00001000
00010000
00100000
10000000
00010000
00010000
,
10000000
00100000
00010000
00001000
00000010
00000001
00001000
00001000
,
00000001
00000000
00000011
00000000
00001100
00000000
00010000
00002000
,
00000000
00013000
01000000
10000000
00100000
00000000
10010000
00000000
,
10000000
00100000
01000000
00010000
00100000
00001000
00010000
00000010
,
00001000
00000001
00000010
00000100
00010000
00001000
00100000
00010000
,
01000000
00000000
10100000
00000000
01010000
00000000
10000000
02000000
,
00000000
03010000
00001000
00000100
00000001
00000000
00001001
00000000
,
00000001
00000100
00000010
00010000
00001000
00100000
00010000
10000000
,
00100000
10000000
01000000
00100000
00001000
00010000
00000100
00001000
,
00000010
00000000
00000011
00000000
00001100
00000000
00000001
00000200
,
00000000
00001300
00010000
01000000
10000000
00000000
10010000
00000000
,
20000000
00000000
00100000
00000000
30010000
01000000
00001000
00010000
,
00000020
00000000
00001000
00000000
00000130
00000001
00000010
00000100
,
00020000
00000000
00001000
00000000
00030100
00100000
00010000
10000000
,
00200000
00000000
01000000
00000000
10300000
00100000
01000000
00010000
,
10000000
00000000
01100000
00000000
01001000
00000000
00010000
00002000
,
00000000
00103000
00000100
00010000
00000010
00000010
00001000
00001000
,
00000001
00000010
00000100
00001000
00000001
00000010
00000100
00001000
,
00000100
00010000
00001000
00100000
00010000
01000000
00010000
10000000
,
00100000
00000000
10100000
00000000
01010000
00000000
00010000
02000000
,
00000000
03001000
00010000
00000010
00000100
00000001
00001000
00000000
,
00022000
00000000
00000000
00000000
,
00000000
00000000
00033000
00000000
,
00010000
01000000
10000000
02000000
00000000
00000000
00000000
00000000
,
03000000
00000000
00010000
00001000
00000100
00000001
00000100
00000000
,
00001000
01000000
00001000
00000200
00000000
00000000
00000000
00000000
,
00000000
00000000
00001300
00010000
01000000
10000000
01000000
00000000
,
01100000
00000000
00000000
00000000
;
