#TITLE:LOW;
#SUBTITLE:;
#ARTIST:RAM;
#TITLETRANSLIT:;
#SUBTITLETRANSLIT:;
#ARTISTTRANSLIT:;
#GENRE:;
#CREDIT:;
#MUSIC:LOW.ogg;
#BANNER:;
#BACKGROUND:;
#CDTITLE:;
#SAMPLESTART:25.743;
#SAMPLELENGTH:12.031;
#SELECTABLE:YES;
#OFFSET:-0.243;
#BPMS:0.000=160.000
,164.000=80.000
,180.000=160.000
;
#STOPS:;
#BGCHANGES:;
#FGCHANGES:;

//--------------- dance-single - Pandemonium X ----------------
#NOTES:
     dance-single:
     Pandemonium X:
     Beginner:
     4:
     0,0,0,0,0:
0000
0000
0000
0000
,
0000
0000
0000
0000
,
0000
0000
0000
0000
,
0000
0000
0000
0000
,
0000
0000
0000
0000
,
0002
0000
0000
0000
0000
0000
0000
0003
,
0000
0000
0000
0000
,
0000
0000
0000
0000
,
0220
0000
0000
0330
,
1000
0000
0000
0000
,
0001
0000
0000
0000
,
1000
0000
0000
0000
,
0100
0000
0000
0000
,
0020
0000
0000
0000
0000
0000
0000
0030
,
0000
0100
0000
0000
,
0010
0000
0001
0000
,
0220
0000
0000
0330
,
1001
0001
0001
0000
,
0000
0100
0000
0000
,
0010
0010
0010
0000
,
0000
1000
0000
0000
,
0002
0000
0000
0000
0000
0000
0000
0003
,
0000
0010
0000
0000
,
0100
0100
0100
0000
,
2002
0000
0000
3003
,
0110
0010
0100
0000
,
0001
0000
0001
0000
,
1000
0010
1000
0000
,
0100
0000
0001
0000
,
2000
0000
0000
0000
0000
0000
0000
3000
,
0000
0001
0001
0001
,
1000
0000
0001
0000
,
0220
0000
0000
0330
,
1001
0000
0000
0000
0000
0000
0000
0001
,
0000
0000
0000
0000
,
1000
0000
0000
0000
0000
0000
0000
0001
,
0000
0000
0000
0000
,
0100
0000
0000
0000
0000
0000
0000
0010
,
0000
0000
0000
0000
,
0100
0000
0000
0100
0000
0100
0000
0000
,
0000
0010
0000
0000
,
1001
0000
0000
0000
0000
0001
0000
0000
,
0000
0000
0100
0000
,
0110
0000
0000
0000
0000
1000
0000
0000
,
0200
0300
0000
0000
,
0020
0000
0000
0000
0000
0000
0000
0030
,
0000
0000
0000
0000
,
0000
0000
0000
0000
,
0000
0000
0000
0000
,
0200
0000
0000
0000
0000
0000
0000
0300
,
0000
0000
0000
0000
,
0000
0000
0000
0000
,
2002
0000
0000
3003
,
0001
0000
1000
0000
,
0100
0010
0100
0000
,
0010
0000
0001
0000
,
0000
1000
0100
1000
,
0020
0000
0000
0000
0000
0000
0000
0030
,
0000
0000
0100
0000
0000
0001
0000
0000
,
1000
0000
0001
0000
,
0220
0000
0000
0000
,
0330
1001
0000
0001
,
0000
1000
0000
0100
,
1000
0010
0000
0100
,
0000
0001
0001
1000
,
0020
0000
0000
0000
0000
0000
0000
0030
,
0000
0000
0100
0000
0000
0010
0000
0000
,
1000
0000
0000
1000
0000
0000
0000
0000
,
2002
0000
0000
0000
,
3003
0000
0000
0000
;

//--------------- dance-single - Pandemonium X ----------------
#NOTES:
     dance-single:
     Pandemonium X:
     Easy:
     7:
     0,0,0,0,0:
0000
0000
0000
0000
,
0000
0000
0000
0000
,
0000
0000
0000
0000
,
0000
0000
0000
0000
,
0000
0000
0000
0000
,
0020
0000
0000
0000
0000
0000
0000
0030
,
0000
0000
0000
0000
,
0000
0000
0000
0000
,
2002
0000
0000
3003
,
0101
0001
1000
0100
,
0000
0000
0010
0000
0000
0010
0000
0000
,
0100
0010
0001
1000
,
0000
0001
0001
0001
,
1000
0000
0000
0200
0000
0320
0000
0002
,
0000
0033
1000
0000
1000
0000
1000
0000
,
0002
0103
0002
1003
,
0200
0000
0000
0000
,
0310
0001
0100
0101
,
0000
0000
1001
0000
0000
1100
0000
0000
,
1000
0010
0100
0010
,
0000
1010
0010
1000
,
0001
0000
0000
0200
0000
0320
0000
0200
,
0000
0330
1001
0000
0000
1010
0000
0000
,
0001
1000
0100
0010
,
0200
0000
0000
0000
,
1300
0010
0001
0010
,
1000
0000
1001
0000
0000
0110
0000
0000
,
0001
0100
1000
0100
,
0001
1001
0010
1001
,
0001
0000
0000
0020
0000
0230
0000
2000
,
0000
3300
0011
0000
0000
1100
0000
0000
,
0002
0000
0000
0000
,
2000
0000
0000
3003
,
1001
0000
0000
1000
0000
0000
0000
1000
,
0000
1000
1000
0000
,
0001
0000
0000
0001
0000
0000
0000
0001
,
0000
0001
0001
0000
,
0110
0000
0000
0010
0000
0000
0000
0010
,
0000
0010
0010
0000
,
0110
0000
0000
0100
0000
0100
0000
0000
,
0000
0100
0000
0000
,
0010
0000
1000
0000
0001
1000
0100
0000
,
0010
0100
1001
0000
,
0001
0000
0100
0000
0001
0010
0100
0000
,
2000
3000
0000
0000
,
0001
0000
0000
0200
0000
0320
0000
0200
,
0000
0330
0000
0000
0000
0000
0000
0000
,
0000
0000
0000
0000
,
0000
0000
0000
0000
,
1000
0000
0000
0002
0000
2003
0000
0002
,
0000
3003
0000
0000
0000
0000
0000
0000
,
0000
0000
0000
0000
,
0002
0203
0320
2030
,
3001
0010
0001
1000
,
0000
0000
1100
0000
0000
0011
0000
0000
,
0001
1000
0010
0100
,
0000
1010
0101
1001
,
1000
0000
0000
0200
0000
0320
0000
0200
,
0000
0330
1001
0000
0000
0101
0000
0000
,
0010
1000
0001
0001
,
2000
3200
0320
0032
,
0003
1001
0001
0100
,
0001
1000
0100
1000
,
0001
0100
0001
1000
,
0100
0010
0010
0010
,
0100
0000
0000
0020
0000
0032
0000
0200
,
0000
0303
0001
0000
0000
0100
0000
0000
,
0001
0000
0000
1000
0000
0000
0000
0000
,
0002
0203
0320
2030
,
3001
0000
0000
0000
;

//--------------- dance-single - Pandemonium X ----------------
#NOTES:
     dance-single:
     Pandemonium X:
     Medium:
     11:
     0,0,0,0,0:
0000
0000
0000
0000
,
0000
0000
0000
0000
,
0000
0000
0000
0000
,
0000
0000
0000
0000
,
0000
0000
0000
0000
,
1000
0100
0010
0001
0000
1000
0000
0001
,
0000
0000
0000
0000
,
0000
0000
0000
0000
,
2000
3020
0230
0302
,
1003
0000
0000
0000
0001
0000
0000
0100
0000
0000
0001
0000
0010
0100
0000
0000
,
0000
0000
0000
0000
1000
0000
0000
1000
0000
0000
1000
0000
0000
0000
0000
0000
,
0001
0000
0000
0000
1000
0000
0000
0010
0000
0000
0100
0000
0010
1000
0000
0000
,
0000
0000
0000
0000
0100
0000
0000
0010
0000
0000
0001
0000
1000
0000
0000
0000
,
0010
0100
0001
0010
0000
0100
0000
1000
,
0000
0000
0000
0000
0100
0000
0000
0100
0000
0000
0100
0000
0000
0000
0000
0000
,
0010
0001
0010
0000
0100
1000
0100
0000
,
2000
3020
0230
0302
,
0013
0000
0100
0000
1000
0000
0000
0100
0000
0000
1000
0000
0001
0000
0000
0000
,
0000
0000
0201
0000
0300
0021
0000
0030
,
0100
0000
0010
0000
0001
0000
0000
0010
0000
0000
0001
0000
1000
0000
0000
0000
,
0000
0000
0000
0000
0010
0000
0000
0010
0000
0000
0020
0000
0000
0000
0000
0000
,
1030
0100
0010
0001
0000
1000
0000
0010
,
0000
0000
1020
0000
0030
2001
0000
3000
,
0100
0000
0010
0000
0001
0000
0000
0100
0000
0000
0001
0000
1000
0000
0000
0000
,
0020
0230
0302
2003
,
3100
0010
0001
0000
0100
0000
1010
0000
,
0000
0000
0120
0000
0030
1002
0000
0003
,
1000
0001
0010
0000
0100
0000
0011
0000
,
0000
0000
0000
0000
0100
0000
0000
1000
0000
0000
0010
0000
0100
0000
0000
0000
,
0001
0010
0100
1000
0000
0001
0000
0100
,
0000
0000
2010
0000
3000
0021
0000
0030
,
1002
0103
2001
3100
,
2000
3020
0230
0302
,
1003
0000
0000
1000
0000
0000
0000
1000
,
0000
0000
0000
0000
1000
0000
0000
0000
1000
0000
0000
0100
0000
0000
0010
0000
,
0100
0000
0000
0100
0000
0000
0000
0100
,
0000
0000
0000
0000
0100
0000
0000
0010
0000
0000
0001
0000
0000
1000
0000
0000
,
0001
0000
0000
0001
0000
0000
0000
0001
,
0000
0000
0000
0000
0001
0000
0000
1000
0000
0000
0010
0000
0000
1000
0000
0000
,
0100
0000
0000
0100
0000
0100
0000
0000
,
0000
0000
0000
0000
0010
0000
0000
0001
0000
0000
1000
0000
0000
0000
0000
0000
,
1001
0000
0000
0000
0000
0000
0000
0000
0000
0000
0000
0000
0000
0000
0000
0000
0000
0000
0000
0000
1000
0000
0000
0100
0000
0000
0010
0000
0000
0100
0000
0000
,
1000
0000
0000
0001
0000
0000
0000
0000
0100
0001
0010
0000
0000
0100
0000
0000
,
1000
0000
0000
0000
0000
0000
0000
0000
0000
0000
0000
0000
0000
0000
0000
0000
0000
0000
0000
0000
0010
0000
0000
0100
0000
0000
0001
0000
0000
1000
0000
0000
,
0001
0000
0000
0001
0000
0000
0001
0000
0000
0000
0000
0000
0000
0000
0000
0000
0000
0000
0000
0000
0000
0000
0000
0000
0000
0000
0000
0000
0000
0000
0000
0000
,
1000
0100
0010
0001
0000
1000
0000
0010
,
0000
0000
0000
0000
0100
0000
0000
0100
0000
0000
0100
0000
0000
0000
0000
0000
,
0010
0000
0000
0000
1000
0000
0000
0001
0000
0000
0010
0000
0100
1000
0000
0000
,
0000
0000
0000
0000
0100
0000
0000
0100
0000
0000
0100
0000
0000
0000
0000
0000
,
1000
0100
0010
0001
0000
1000
0000
0001
,
0000
0000
0000
0000
0100
0000
0000
0100
0000
0000
0100
0000
0000
0000
0000
0000
,
0001
0000
0000
0000
1000
0000
0000
0001
0000
0000
0010
0000
0100
0010
0000
0000
,
0002
0023
0230
2300
,
3010
0100
0001
0000
0010
0100
1000
0000
,
0000
0000
2100
0000
3000
0021
0000
0030
,
0001
0100
1000
0000
0100
0010
1000
0000
,
0000
0000
0000
0000
0001
0000
0000
1000
0000
0000
0010
0000
0100
0000
0001
0000
,
1000
0100
0010
0001
0000
1000
0000
0010
,
0000
0000
0120
0000
0030
2010
0000
3000
,
0001
0010
1000
0000
0010
0100
1000
0000
,
0200
2300
3020
0230
,
0301
0000
0000
0000
1010
0000
0000
0010
0000
0000
0100
0000
0001
0000
0000
1000
,
0000
0000
0100
0000
1000
0000
0000
0010
0000
0000
0200
0000
0000
0000
0000
0000
,
0310
0000
1000
0000
0001
0000
0000
0010
0000
0000
0100
0000
0010
0000
0000
0001
,
0000
0000
1000
0000
0010
0000
0000
1001
0000
0000
0001
0000
0010
0000
0100
0000
,
1000
0100
1000
0001
0000
1000
0000
0010
,
0000
0000
2001
0000
3000
0201
0000
0300
,
0001
0100
0010
0000
1000
0010
0100
0000
,
0001
0010
0100
1000
0100
0010
0001
1000
,
1001
0000
0000
0000
;

//--------------- dance-single - Pandemonium X ----------------
#NOTES:
     dance-single:
     Pandemonium X:
     Hard:
     15:
     0,0,0,0,0:
0000
0000
0000
0000
,
0000
0000
0000
0000
,
0000
0000
0000
0000
,
0000
0000
0000
0000
,
0000
0000
0000
0000
,
0002
0203
0302
0023
0000
0230
0000
2000
,
0000
3300
0000
0000
,
0000
0000
0000
0000
,
1000
0010
1000
0010
0100
0001
0100
0001
0010
0100
1000
0100
0010
0001
1000
0001
,
1000
0000
0001
0000
0101
0000
0000
0011
0000
0000
0001
0000
1000
0010
0000
0000
,
0000
0000
0000
0000
0101
0000
0000
1001
0000
0000
0022
0000
0000
0000
0033
0000
,
1001
0000
0000
0000
1100
0000
0000
0011
0000
0000
0001
0000
1000
0100
0000
0000
,
0000
0000
0000
0000
0011
0000
0000
1100
0000
0000
1010
0000
0010
0100
0010
0000
,
2000
3200
0302
0203
0000
2300
0000
0200
,
0000
0000
3300
0000
0011
0000
0000
0101
0000
0000
0022
0000
0000
0000
0033
0000
,
1001
0000
0010
0000
1001
1000
0001
0000
,
1000
0100
1000
0100
0010
0001
0010
0001
1000
0100
0010
0001
0010
0100
1000
0001
,
1000
0000
0000
0000
0000
0000
0001
0000
0000
0000
0000
0000
1001
0000
0000
0000
0000
0000
0001
0000
0000
0020
0030
0000
0000
0000
0000
0020
0030
0000
1000
0000
0000
0000
0000
0000
0001
0000
0000
1000
0000
0000
0000
0000
0000
0000
0000
0000
,
1000
0100
0021
0000
0130
1020
0000
0130
,
0001
0000
0000
0000
0000
0000
1000
0000
0000
0000
0000
0000
1001
0000
0000
0000
0000
0000
0001
0000
0000
0200
0300
0000
0000
0000
0000
0200
0300
0000
1000
0000
0000
0000
0000
0000
0001
0000
0000
1000
0000
0000
0000
0000
0000
0000
0000
0000
,
0001
0000
0100
0000
0110
0000
0000
0101
0000
0000
2002
0000
0000
0000
3003
0000
,
2000
3020
0032
0023
0000
0230
0000
0002
,
0000
0303
2010
0000
3000
0201
0000
0300
,
1001
1000
0001
0000
0001
1000
0001
0000
,
0100
0001
0100
0010
1000
0010
1000
0001
1000
0001
0010
0100
1000
0100
0010
0001
,
1000
0000
0000
0000
0000
0000
0100
0000
0000
0000
0000
0000
0011
0000
0000
0000
0000
0000
0001
0000
0000
0020
0030
0000
0000
0000
0000
0020
0030
0000
1000
0000
0000
0000
0000
0000
1001
0000
0000
0000
0000
0000
0000
0000
0000
0000
0000
0000
,
0001
0100
0210
0000
0300
1020
0000
0030
,
1001
0000
0000
0000
0000
0000
0001
0000
0000
0000
0000
0000
1100
0000
0000
0000
0000
0000
1000
0000
0000
0200
0300
0000
0000
0000
0000
0200
0300
0000
0001
0000
0000
0000
0000
0000
1001
0000
0000
0000
0000
0000
0000
0000
0000
0000
0000
0000
,
0001
0000
1000
0000
1100
0000
0000
0011
0000
0000
2002
0000
0000
0000
3003
0000
,
0002
0203
0302
0023
0000
0230
0000
2000
,
0000
0000
0000
3300
0011
0000
0000
0000
0000
0000
1001
0000
0000
0000
0000
0000
,
2000
0000
0000
3000
,
0001
0100
0001
0100
0010
1000
0010
1000
0010
0100
0001
0100
0010
1000
0100
0010
,
0001
0000
0000
0001
0000
0000
0000
0001
,
0000
0000
0000
0000
0001
0000
0000
0000
1000
0000
0000
1000
0000
0000
1000
0000
,
0010
0000
0000
0010
0000
0000
0000
0010
,
0000
0000
0000
0000
0010
0000
0000
0100
0000
0000
1000
0000
0000
0100
0000
0000
,
0001
0000
0000
0001
0000
0000
0000
0001
,
0000
0000
0000
0000
0001
0000
0000
1000
0000
0000
0001
0000
0000
0010
0000
0000
,
0100
0000
0000
0100
0000
0100
0000
0000
,
0000
0000
0000
0000
0010
0000
0000
0100
0000
0000
1000
0000
0000
0000
0000
0000
,
1001
0000
0000
0000
0001
0000
0100
0000
0010
0000
0000
0010
0000
0000
0010
0000
0000
0000
0000
0000
0100
0000
0000
0001
0000
0000
1000
0000
0000
0100
0000
0000
,
0010
0000
0000
0000
0100
0000
1000
0000
0001
0000
0000
0001
0000
0001
1000
0000
0010
0100
0010
0000
1001
0000
0000
0000
0000
0000
0010
0000
0000
0000
0000
0000
,
1001
0000
0000
0000
1000
0000
0001
0000
0100
0000
0000
0100
0000
0000
0100
0000
0000
0000
0000
0000
0010
0000
0000
1000
0000
0000
0001
0000
0000
0010
0000
0000
,
0200
0000
0300
2000
0000
3000
0020
0000
0000
0030
0000
0000
0000
0000
0000
0000
0000
0000
0000
0000
0000
0000
0000
0000
0000
0000
0000
0000
0000
0000
0000
0000
,
2000
3020
0032
0023
0000
0230
0000
0002
,
0000
0000
0303
0000
1000
0000
0000
1000
0000
0000
1000
0000
2000
0000
0000
0000
,
3010
0000
0100
0000
0001
0000
0000
0001
0000
0000
0001
0000
0010
0100
0000
0000
,
0000
0000
0000
0000
0010
0000
0000
0010
0000
0000
0010
0000
0100
0000
1000
0000
,
0002
0203
2300
3200
0000
0302
0000
0020
,
0000
0000
0033
0000
0100
0000
0000
0100
0000
0000
0200
0000
0000
0000
0000
0000
,
1300
0000
0000
0000
0100
0000
0000
0010
0000
0000
0001
0000
1000
0010
0000
0000
,
0100
0001
0100
0001
1000
0010
1000
0010
0100
0001
0100
0010
0100
0001
1000
0100
,
0010
0000
0000
0000
0000
0000
0001
0000
0000
0000
0000
0000
0011
0000
0000
0000
0000
0000
0001
0000
0000
0020
0030
0000
0000
0000
0000
0020
0030
0000
1000
0000
0000
0000
0000
0000
0001
0000
0000
0100
0000
0000
0000
0000
0000
0000
0000
0000
,
0010
1000
1020
0000
0130
0102
0000
0000
,
1003
0000
0000
0000
0000
0000
0100
0000
0000
0000
0000
0000
1100
0000
0000
0000
0000
0000
1000
0000
0000
0020
0030
0000
0000
0000
0000
0020
0030
0000
0001
0000
0000
0000
0000
0000
1000
0000
0000
0100
0000
0000
0000
0000
0000
0000
0000
0000
,
1000
0000
0010
0000
0100
0000
0000
0001
0000
0000
0010
0000
1000
0000
0010
0000
,
0002
0203
2300
3200
0000
0302
0000
0020
,
0000
0033
1200
0000
0300
2010
0000
0000
,
3001
0000
0100
0000
0010
1000
0000
0100
0010
0001
1000
0000
0001
0000
0000
0000
,
1000
0100
1000
0100
0010
0001
0010
0001
0100
0010
0100
0010
0100
0001
1000
0010
,
0100
0000
0000
0000
1001
0000
0001
0100
0000
0100
0010
0000
0100
0001
0000
1000
,
0100
0000
0010
0000
0100
1000
0000
0100
0010
0000
0001
0000
1000
0000
0010
0100
,
0001
0000
1000
0000
0010
0000
0100
0001
0000
0001
0010
0000
0100
0000
0010
0000
,
0001
0000
1000
0000
1010
0000
0000
0011
0000
0000
1001
0000
2100
0000
0000
0000
,
3200
0302
0203
2300
0000
3020
0000
0200
,
0000
0330
1001
0000
0000
0110
0000
0000
,
0001
0000
0000
0001
0000
0000
0001
0000
0000
0000
1000
0000
0001
0010
0000
0000
,
0001
0100
0001
0100
0010
1000
0010
1000
0100
0010
0001
0010
0100
1000
0001
0100
,
0010
0000
0000
0000
;
