#VERSION:0.83;
#TITLE:からくれなゐ (Instrumental);
#SUBTITLE:;
#ARTIST:UNDEAD CORPORATION;
#TITLETRANSLIT:Karakurenai (Instrumental);
#SUBTITLETRANSLIT:;
#ARTISTTRANSLIT:;
#GENRE:;
#ORIGIN:;
#TAGS:;
#CREDIT:;
#BANNER:Karakurenai (Instrumental).png;
#BACKGROUND:Karakurenai (Instrumental)-bg.png;
#PREVIEWVID:;
#JACKET:Karakurenai (Instrumental)-jacket.png;
#CDIMAGE:;
#DISCIMAGE:;
#LYRICSPATH:;
#CDTITLE:cdtitle.png;
#MUSIC:Karakurenai (Instrumental).ogg;
#OFFSET:0.000000;
#SAMPLESTART:36.000000;
#SAMPLELENGTH:11.294000;
#SELECTABLE:YES;
#BPMS:0.000000=170.000000
;
#STOPS:;
#DELAYS:;
#WARPS:;
#TIMESIGNATURES:0.000000=4=4
;
#TICKCOUNTS:0.000000=4
;
#COMBOS:0.000000=1
;
#SPEEDS:0.000000=1.000000=0.000000=0
;
#SCROLLS:0.000000=1.000000
;
#FAKES:;
#LABELS:0.000000=Song Start
;
#BGCHANGES:;
#KEYSOUNDS:;
#ATTACKS:
;

//---------------dance-single - ----------------
#NOTEDATA:;
#CHARTNAME:;
#CHARTHASH:2437054066;
#STEPSTYPE:dance-single;
#BANNER:;
#DESCRIPTION:;
#CHARTSTYLE:;
#DIFFICULTY:Beginner;
#METER:4;
#METERF:0.000000;
#LASTSECONDHINT:119.647064;
#RADARVALUES:0.163828,0.273778,0.072684,0.201901,0.000000,142.000000,133.000000,9.000000,25.000000,0.000000,0.000000,0.000000,0.000000,0.000000,0.163828,0.273778,0.072684,0.201901,0.000000,142.000000,133.000000,9.000000,25.000000,0.000000,0.000000,0.000000,0.000000,0.000000;
#CREDIT:MEGAtive;
#NOTES:
0000
0000
0000
0000
,
0000
0000
0000
0000
,
0000
0000
0000
0000
,
0000
0000
0000
0000
,
0000
0000
0000
0000
,
0000
0000
0000
0000
,
1000
0000
0000
0000
,
0001
0000
0000
0000
,
0100
0000
0000
0000
,
0010
0000
0000
0000
,
2000
0000
0000
0000
,
3200
0000
0000
0000
,
0320
0000
0000
0000
,
0032
0000
0000
0000
,
2003
0000
0000
0000
,
3020
0000
0000
0000
,
0230
0000
0000
0000
,
0002
0000
0000
0303
,
2000
0000
0000
0000
,
0000
0000
0000
0000
,
3200
0000
0000
0000
,
0000
0000
0000
0000
,
0320
0000
0000
0000
,
0032
0000
0000
0000
,
0203
0000
0000
0000
,
0020
0000
0330
0000
,
1001
0000
1000
0000
,
0010
0010
0010
0000
,
0100
0000
0001
0000
,
1000
1000
1000
0000
,
0100
0000
0010
0000
,
0001
0001
0001
0000
,
1000
0000
0010
0000
,
0100
0000
0002
0000
,
1003
0000
1000
0000
,
0100
0100
0100
0000
,
0010
0000
0001
0000
,
1000
1000
1000
0000
,
0010
0000
0100
0000
,
0001
0001
0001
0000
,
1000
0000
0100
0000
,
0010
0000
0002
0000
,
0203
0000
0000
0000
,
0310
0000
0110
0000
,
0000
0000
1001
0000
,
0001
0000
1001
0000
,
0000
0000
0110
0000
,
0100
0000
0110
0000
,
0000
0000
1001
0000
,
0001
0000
0001
0000
,
0020
0000
0000
0000
,
0130
0000
0100
0000
,
1000
0000
1000
0000
,
0010
0000
0010
0000
,
0100
0000
0200
0000
,
0301
0000
0001
0000
,
0010
0000
0010
0000
,
0100
0000
0100
0000
,
2000
0000
0000
0000
,
3001
0000
0000
0000
,
0000
0000
0000
0000
,
0000
0000
0000
0000
,
0000
0000
0000
0000
,
2000
0000
0000
0000
,
3020
0000
0000
0000
,
0230
0000
0000
0000
,
0301
0000
0000
0000
,
1001
0000
0001
0000
,
0100
0100
0100
0000
,
0010
0000
1000
0000
,
0100
0100
0100
0000
,
0010
0000
0001
0000
,
1000
1000
1000
0000
,
0001
0000
0100
0000
,
0010
0000
0010
0010
,
1000
0000
0001
0000
,
0010
0010
0010
0000
,
0100
0000
1000
0000
,
0010
0010
0010
0000
,
1000
0000
0001
0000
,
0010
0010
0010
0000
,
0100
0000
1000
0000
,
0001
0000
0100
0000
,
0010
0010
0010
0010
,
0220
0000
0000
0330
;

//---------------dance-single - ----------------
#NOTEDATA:;
#CHARTNAME:;
#CHARTHASH:922546476;
#STEPSTYPE:dance-single;
#BANNER:;
#DESCRIPTION:;
#CHARTSTYLE:;
#DIFFICULTY:Easy;
#METER:8;
#METERF:0.000000;
#LASTSECONDHINT:119.647064;
#RADARVALUES:0.325349,0.410667,0.153445,0.177673,0.000000,282.000000,263.000000,19.000000,22.000000,0.000000,0.000000,0.000000,0.000000,0.000000,0.325349,0.410667,0.153445,0.177673,0.000000,282.000000,263.000000,19.000000,22.000000,0.000000,0.000000,0.000000,0.000000,0.000000;
#CREDIT:MEGAtive;
#NOTES:
0000
0000
0000
0000
,
0000
0000
0000
0000
,
0000
0000
0000
0000
,
0000
0000
0000
0000
,
0000
0000
0000
0000
,
0000
0000
0000
0000
,
0002
0000
0000
0000
,
0203
0000
0000
0000
,
0320
0000
0000
0000
,
2030
0000
0000
0000
,
3001
0010
0001
0010
,
0001
1000
0010
0000
,
1000
0010
1000
0010
,
1000
0001
0010
0000
,
0001
0010
0001
0010
,
0001
1000
0010
0000
,
1000
0010
0100
0001
,
2000
0000
0000
3000
,
1002
0000
0023
0000
,
0230
0000
1000
0000
,
2300
0000
3020
0000
,
0230
0000
0001
0000
,
0301
0010
0001
0010
,
0100
1000
0100
1000
,
0001
0100
0010
1000
,
0200
0000
0310
0000
,
1001
0000
0001
0100
0001
0000
0100
0000
,
0010
1000
0100
0010
,
0001
0000
1000
0100
1000
0000
0001
0000
,
0100
0010
1000
0001
,
0010
0000
0100
1000
0100
1000
0100
0000
,
0010
0001
1000
0001
,
0100
0000
0010
1000
0010
1000
0010
0000
,
0100
0001
2000
0000
,
3001
0000
1000
0100
1000
0000
0100
0000
,
0010
0001
0100
0010
,
1000
0000
0001
0100
0001
0000
1000
0000
,
0100
0010
0001
1000
,
0010
0000
0100
0001
0100
0001
0100
0000
,
0010
1000
0001
1000
,
0100
0000
0010
0001
0010
0001
0010
0000
,
0100
1000
0001
0001
,
0200
0000
0000
0000
,
0310
0010
0100
0001
,
0000
0001
1000
0000
1000
0000
0100
0000
,
0010
0010
0001
1000
,
0000
1000
0010
0000
0010
0000
0100
0000
,
0001
0001
1000
0100
,
0000
0100
1000
0000
0001
0000
0001
0000
,
0100
0100
0010
1000
,
0200
0000
0000
0310
,
1001
0000
1100
0000
,
1001
0000
0101
0000
,
1001
0000
1100
0000
,
1001
0000
0220
0330
,
1001
0000
0011
0000
,
1001
0000
1010
0000
,
1001
0000
0011
0000
,
2001
0000
3020
0000
,
0130
0000
0000
0000
,
0000
0000
0000
0000
,
0000
0000
0000
0000
,
0000
0000
0000
0000
,
0002
0000
0000
0000
,
0023
0000
0000
0000
,
0230
0000
0000
0000
,
1300
0000
0000
0000
,
1001
0000
1000
0100
1000
0000
0001
0000
,
0100
0010
0100
0001
,
1000
0000
0010
0100
0010
0000
1000
0000
,
0001
0010
0100
1000
,
0001
0000
1000
0100
1000
0100
1000
0000
,
0010
0100
0010
1000
,
0001
0000
0010
0100
0010
0100
0010
0000
,
0001
1000
0010
0010
,
1001
0000
1000
0010
1000
0000
0001
0000
,
0010
0100
0010
0001
,
1000
0000
0100
0010
0100
0000
1000
0000
,
0001
1000
0010
0100
,
0001
0000
1000
0010
1000
0010
1000
0000
,
0100
0010
0001
1000
,
0001
0000
0100
0010
0100
0010
0100
0000
,
0001
1000
0100
0100
,
0010
0010
0010
0010
,
0001
0100
0010
1000
;

//---------------dance-single - ----------------
#NOTEDATA:;
#CHARTNAME:;
#CHARTHASH:1404115911;
#STEPSTYPE:dance-single;
#BANNER:;
#DESCRIPTION:;
#CHARTSTYLE:;
#DIFFICULTY:Medium;
#METER:11;
#METERF:0.000000;
#LASTSECONDHINT:119.647064;
#RADARVALUES:0.491485,0.547556,0.137293,0.508791,0.000000,426.000000,409.000000,17.000000,63.000000,0.000000,0.000000,0.000000,0.000000,0.000000,0.491485,0.547556,0.137293,0.508791,0.000000,426.000000,409.000000,17.000000,63.000000,0.000000,0.000000,0.000000,0.000000,0.000000;
#CREDIT:MEGAtive;
#NOTES:
0000
0000
0000
0000
,
0000
0000
0000
0000
,
0000
0000
0000
0000
,
0000
0000
0000
0000
,
0000
0000
0000
0000
,
0000
0000
0000
0000
,
1000
0010
1000
0010
,
0100
0001
1000
0001
0010
0000
0010
0000
,
0100
0000
1000
0000
0100
0000
0010
0001
,
0200
0000
0000
0000
0310
1000
0010
0000
,
1000
1100
0001
0101
,
1000
0010
0100
0001
0010
0000
1000
0000
,
0010
0110
0001
1001
,
1000
0100
0010
0001
0100
0010
0100
0000
,
0001
0101
1000
1100
,
0001
0100
0010
1000
0100
0000
0001
0000
,
0110
0000
0100
0010
0100
0010
0001
1000
,
0001
0100
0010
1000
0001
0010
0200
0000
,
0310
0001
0010
0001
2000
0000
3001
0100
,
0020
0000
0130
0100
,
0010
1000
0010
1000
0002
0000
1003
0100
,
0020
0000
0130
0100
,
1000
1100
0001
0101
,
1000
1010
0001
0011
,
1000
0100
0010
0001
1000
0010
0100
0001
,
0020
0000
0031
0000
,
2010
0000
3010
0100
0001
0100
0001
1000
,
0200
0000
0320
0000
0031
0000
1000
0100
,
0020
0000
0130
1000
0001
0100
0001
0100
,
0020
0000
0230
0000
0301
0000
0100
0010
,
2000
0000
3010
0100
0010
1000
0200
0000
,
0320
0000
0032
0000
0103
0000
0010
0100
,
0002
0000
0103
0010
1000
0001
1000
0100
,
0020
0000
0130
0000
0010
0001
1000
0010
,
0200
0000
0310
1000
0001
0100
0010
1000
,
0200
0000
0320
0000
0031
0000
1000
0010
,
0200
0000
0310
1000
0001
0010
0100
1000
,
0020
0000
0230
0000
0301
0000
1000
0010
,
0200
0000
0310
0100
0010
1000
0200
0000
,
0320
0000
0032
0000
0103
0000
0100
0010
,
2000
0000
3010
0100
0001
1000
0100
0010
,
0002
0000
1003
0000
0200
0000
0310
0001
,
0200
0000
0000
0000
0310
1000
0010
1000
,
0001
0000
0010
0000
1000
0000
0010
0100
,
0000
0100
0010
0001
0100
0000
0010
0000
,
1000
0000
0010
0000
0001
0000
0010
0100
,
0000
0100
0010
1000
0100
0000
0010
0000
,
0001
0000
0010
0000
1000
0000
0010
0100
,
0000
0100
0010
0001
0100
0000
0010
0000
,
1000
0010
0001
0010
,
0200
0000
0000
0000
0301
1000
0100
0000
,
1100
0000
0100
1000
0010
0000
0010
1000
,
0100
0000
0100
1000
0010
0000
0010
0100
,
0001
0000
0001
0100
1000
0000
1000
0100
,
0001
0000
0001
0100
1000
0000
0100
0000
,
0001
0000
0100
0001
0010
0000
0010
0001
,
0100
0000
0100
0001
0010
0000
0010
0100
,
1000
0000
1000
0100
0001
0000
0001
0100
,
2000
0000
3020
0000
,
0230
0000
0000
0000
,
0002
0000
0000
0300
,
0023
0000
0000
0000
,
0200
0000
0000
0030
,
1300
0100
0000
0100
0000
0100
0010
0000
,
0010
0001
0000
0001
1000
0001
1000
0000
,
0010
0100
0000
0100
0000
0100
0000
0100
,
0002
0000
0003
0000
,
1001
0000
1000
0010
1000
0001
0100
0010
,
2000
0000
3200
0000
0310
0000
0001
0010
,
0200
0000
0310
0001
1000
0001
0010
0100
,
2000
0000
3020
0000
0130
0000
0001
1000
,
0020
0000
0130
0001
0100
0001
0010
0000
,
0200
0000
2300
0000
3010
0000
0100
0001
,
2000
0000
3010
0100
0010
1000
0001
1000
,
0200
0000
0310
0000
0100
0010
0100
0010
,
0002
0000
1003
0100
1000
0001
0010
0100
,
2000
0000
3020
0000
0130
0000
0001
1000
,
0020
0000
0130
0001
1000
0001
0100
0010
,
2000
0000
3200
0000
0310
0000
0001
1000
,
0200
0000
0310
0001
0010
0001
0100
0000
,
0020
0000
2030
0000
3100
0000
0010
0001
,
2000
0000
3010
0100
0010
1000
0001
1000
,
0200
0000
0310
0000
0020
0000
0130
1000
,
0010
0110
1000
1001
,
0001
0010
1000
0010
0001
0000
0101
0000
;

//---------------dance-single - ----------------
#NOTEDATA:;
#CHARTNAME:;
#CHARTHASH:3708263665;
#STEPSTYPE:dance-single;
#BANNER:;
#DESCRIPTION:;
#CHARTSTYLE:;
#DIFFICULTY:Hard;
#METER:15;
#METERF:0.000000;
#LASTSECONDHINT:119.647064;
#RADARVALUES:0.648391,0.752889,0.218053,0.274586,0.096913,562.000000,535.000000,27.000000,34.000000,0.000000,0.000000,0.000000,0.000000,0.000000,0.648391,0.752889,0.218053,0.274586,0.096913,562.000000,535.000000,27.000000,34.000000,0.000000,0.000000,0.000000,0.000000,0.000000;
#CREDIT:MEGAtive;
#NOTES:
0000
0000
0000
0000
,
0000
0000
0000
0000
,
0000
0000
0000
0000
,
0000
0000
0000
0000
,
0000
0000
0000
0000
,
0000
0000
0000
0000
,
1000
0100
1000
0100
,
0010
0001
1000
0001
0100
0000
0010
0000
,
0100
0000
0001
0000
0100
0000
0010
1000
,
0200
0000
0000
0000
0310
0010
0100
0100
,
1000
0010
0000
0010
0100
0010
1000
0000
,
1000
0001
0010
0100
1000
1000
0010
0000
,
0100
0001
0010
0000
0100
1000
0010
0000
,
0100
0001
0100
0001
0100
0000
0010
0000
1000
0000
1000
0000
0100
0000
0010
0000
,
0001
0100
0000
0100
0010
0100
0001
0000
,
0001
0010
0100
1000
0010
0010
0100
0000
,
1001
0000
0000
0000
0001
0010
0001
0000
0010
0100
0010
0000
0100
1000
0100
0000
,
1000
0001
0100
1000
0001
0010
0100
0000
,
1001
1000
0001
0010
0200
0000
0301
0100
,
1000
0000
0001
1000
0001
0000
0100
0000
0010
0000
0000
0000
0010
1000
0001
0000
,
1000
0001
0010
0100
2000
0000
3010
1000
,
0100
0000
0010
0001
0010
0000
0001
0000
0100
0000
0000
0000
0110
0000
0000
0000
,
0010
1000
0010
0001
0010
0100
0001
1000
,
0200
0000
0001
0000
0010
0000
1000
0300
,
0100
1000
0010
0100
0001
0010
0100
1000
,
0010
0000
0100
0010
0100
0000
0010
0000
2010
0000
0000
0000
0000
0000
0000
0000
,
3001
0010
0001
0100
0010
0100
0001
1000
,
0200
0000
0010
0000
2300
0000
3010
1000
,
0001
0100
0001
0100
0010
0001
0010
0100
,
0002
0000
1000
0000
0023
0000
0130
0010
,
0001
1000
0001
0100
1000
0100
0010
0100
,
0002
0000
0010
0000
2003
0000
3001
0100
,
0010
1000
0010
1000
0100
0010
0001
0100
,
0010
0100
0001
0000
1000
0010
1000
0001
,
1000
0100
1000
0010
0100
0010
1000
0001
,
0020
0000
0100
0000
0032
0000
0103
0001
,
1000
0010
1000
0010
0100
1000
0100
0010
,
2000
0000
0001
0000
3200
0000
0310
0100
,
1000
0001
1000
0010
0001
0010
0100
0010
,
2000
0000
0100
0000
3002
0000
1003
0010
,
0100
0001
0100
0001
0010
0100
1000
0010
,
0100
0010
1000
0001
0020
0000
0130
0010
,
0001
1000
0010
0001
1000
0100
0010
1000
,
0001
0001
0100
0010
0001
0001
1000
0100
,
0000
0000
0100
0010
1000
0000
1000
0000
0100
0000
0010
0000
0001
0010
0001
0000
,
1000
1000
0100
0010
1000
1000
0001
0100
,
0000
0000
0100
0010
0001
0000
0001
0000
0100
0000
0000
0000
0110
0000
0000
0000
,
1001
1000
0010
0100
1000
1000
0001
0010
,
0000
0000
0010
0100
0001
0000
0001
0000
0010
0000
0100
0000
1000
0100
1000
0000
,
0001
0001
0010
0100
0001
0001
1000
0010
,
0001
0000
1000
0010
1000
0000
0010
0100
0010
0000
0010
0000
1001
0000
0000
0000
,
1100
1000
0010
0100
0101
0001
0010
0100
,
1100
0000
1000
0100
1000
0000
0010
0000
0110
0000
0000
0000
1001
0000
0000
0000
,
0011
0001
0100
0010
1010
1000
0100
0010
,
0011
0000
0001
0010
0001
0000
0100
0000
0210
0000
0000
0000
1000
0000
0300
0000
,
0101
0001
0010
0100
1100
1000
0010
0100
,
0101
0000
0001
0100
0001
0000
0010
0000
0110
0000
0000
0000
1001
0000
0000
0000
,
1010
1000
0100
0010
0011
0001
0100
0010
,
1000
0000
1000
0001
0010
0000
0100
0000
0110
0000
0000
0000
1001
0000
0000
0000
,
2000
0000
0000
0000
,
3010
0100
0001
0100
0010
0100
0001
0100
,
0020
0000
0000
0000
,
2030
0000
0000
0000
3001
0010
0001
0010
,
0100
1000
0000
1000
0001
1000
0010
0000
,
0010
0100
0000
0100
0001
1000
0001
0000
,
0010
0100
1000
0010
0100
0001
0010
0100
,
2000
0000
3002
0000
,
1003
0010
0100
1000
0001
0010
0100
0010
,
2000
0000
0100
0000
0010
0000
3001
1000
,
0100
0010
0100
1000
0010
0100
0001
0010
,
0200
0000
0001
0000
1000
0000
0310
0001
,
0200
0000
0310
1000
0100
0001
0200
0000
,
2300
0000
0010
0000
0100
0000
3001
1000
,
0010
0100
0010
1000
0100
0010
0001
0100
,
1000
0000
0110
0000
0010
1000
0010
0100
,
0001
0010
0100
0001
1000
0010
0100
0010
,
0002
0000
0100
0000
0010
0000
1003
0100
,
0010
0001
1000
0001
0100
0010
1000
0100
,
0020
0000
0001
0000
1000
0000
0130
1000
,
0010
0100
0010
1000
0100
0010
0001
0100
,
0020
0000
0001
0000
1000
0000
0130
0010
,
1000
0001
0010
0100
1000
0010
0100
0001
,
0020
0000
0100
0000
0032
0000
1003
0010
,
0100
0100
0001
0001
1000
1000
0100
0100
,
0010
0001
0010
0001
0010
0100
0010
0100
1000
0000
0001
0000
1001
0000
0000
0000
;

//---------------dance-double - ----------------
#NOTEDATA:;
#CHARTNAME:;
#CHARTHASH:1677387221;
#STEPSTYPE:dance-double;
#BANNER:;
#DESCRIPTION:;
#CHARTSTYLE:;
#DIFFICULTY:Easy;
#METER:8;
#METERF:0.000000;
#LASTSECONDHINT:119.647064;
#RADARVALUES:0.320734,0.410667,0.153445,0.169597,0.000000,278.000000,259.000000,19.000000,21.000000,0.000000,0.000000,0.000000,0.000000,0.000000,0.320734,0.410667,0.153445,0.169597,0.000000,278.000000,259.000000,19.000000,21.000000,0.000000,0.000000,0.000000,0.000000,0.000000;
#CREDIT:MEGAtive;
#NOTES:
00000000
00000000
00000000
00000000
,
00000000
00000000
00000000
00000000
,
00000000
00000000
00000000
00000000
,
00000000
00000000
00000000
00000000
,
00000000
00000000
00000000
00000000
,
00000000
00000000
00000000
00000000
,
00020000
00000000
00000000
00000000
,
00030200
00000000
00000000
00000000
,
00000320
00000000
00000000
00000000
,
00000002
00000000
00000033
00000000
,
00000001
00000100
00000001
00000100
,
00000010
00001000
00000100
00000000
,
00010000
00000100
00010000
00000100
,
00010000
00001000
00100000
00000000
,
00010000
01000000
00010000
01000000
,
00100000
10000000
00010000
00000000
,
00200000
00000000
00000000
00000000
,
00320000
00000000
00000000
00000000
00130000
00001000
00100000
00000000
,
00002000
00000000
00023000
00000000
,
00030020
00000000
00000000
00000000
,
00000230
00000000
00000302
00000000
,
00000023
00000000
00000000
00000000
,
00000130
00001000
00000100
00001000
,
00000100
00010000
00000100
00010000
,
00001000
01000000
00010000
01000000
,
00200000
00000000
01300000
00000000
,
10010000
00000000
00010000
01000000
00010000
00000000
00100000
00000000
,
00001000
00010000
00001000
00010000
,
00000100
00000000
00000010
00000100
00000010
00000000
00000001
00000000
,
00000100
00000010
00000010
00001000
,
00000100
00000000
00010000
00000100
00010000
00000100
00010000
00000000
,
00001000
00000000
01000000
00000000
00100000
00000000
10000000
00010000
,
10000000
01000000
00100000
00001000
,
00010000
00001000
00010000
00000010
,
00000100
00000000
00000010
00001000
00000010
00000000
00000100
00000000
,
00000001
00000010
00000100
00001000
,
00000100
00000000
00010000
00001000
00010000
00000000
00001000
00000000
,
00100000
01000000
00100000
00010000
,
10000000
00000000
00010000
01000000
00010000
01000000
00010000
00000000
,
00100000
00000000
00001000
00000000
00010000
00000000
00000100
00001000
,
00000100
00000010
00000100
00010000
,
00001000
00010000
00001000
01000000
,
00200000
00000000
00000000
00000000
,
01300000
01000000
00100000
01000000
,
00000000
00010000
00100000
00000000
00101000
00000000
00001000
00000000
,
00010000
00010000
00000100
00010000
,
00000000
00000010
00000100
00000000
00000110
00000000
00000010
00000000
,
00001000
00001000
00000100
00001000
,
00000000
00000100
00010000
00000000
00010100
00000000
00000100
00000000
,
00010000
00010000
00001000
00010000
,
00200000
00000000
00000000
01300000
,
10010000
00000000
01100000
00000000
,
10010000
00000000
01100000
00000000
,
00110000
00000000
00011000
00000000
,
00110000
00000000
00021000
00000000
,
00030010
00000000
00001001
00000000
,
00000110
00000000
00001001
00000000
,
00000011
00000000
00001010
00000000
,
00000012
00000000
00000203
00000000
,
00000310
00000000
00000000
00000000
,
00000000
00000000
00000000
00000000
,
00000000
00000000
00000000
00000000
,
00000000
00000000
00000000
00000000
,
00002000
00000000
00000000
00000000
,
00003200
00000000
00000000
00000000
,
00020300
00000000
00000000
00000000
,
00031000
00000000
00000000
00000000
,
00011000
00000000
00001000
00100000
00001000
00000000
00010000
00000000
,
00000100
00000010
00000100
00001000
,
00000010
00000000
00000100
00000001
00000100
00000000
00000010
00000000
,
00001000
00000100
00000100
00010000
,
00001000
00000000
01000000
00010000
01000000
00010000
01000000
00000000
,
00100000
00000000
10000000
00000000
00100000
00000000
01000000
00010000
,
00100000
00001000
00010000
00000010
,
00000100
00000100
00000010
00001000
,
00000100
00000000
00000010
00000001
00000010
00000000
00000100
00000000
,
00001000
00000010
00001000
00000100
,
00010000
00000000
00001000
00100000
00001000
00000000
00010000
00000000
,
00100000
01000000
01000000
00100000
,
10000000
00000000
00010000
00100000
00010000
00100000
00010000
00000000
,
01000000
00000000
00001000
00000000
00010000
00000000
00000100
00001000
,
00000010
00000100
00000010
00001000
,
00000001
00000000
00001000
00000000
00000100
00000000
00000010
00000100
,
00001000
00001000
00001000
00001000
,
00000100
00010000
00001000
01000000
;

//---------------dance-double - ----------------
#NOTEDATA:;
#CHARTNAME:;
#CHARTHASH:2302963397;
#STEPSTYPE:dance-double;
#BANNER:;
#DESCRIPTION:;
#CHARTSTYLE:;
#DIFFICULTY:Medium;
#METER:11;
#METERF:0.000000;
#LASTSECONDHINT:119.647064;
#RADARVALUES:0.503022,0.547556,0.153445,0.549171,0.000000,436.000000,417.000000,19.000000,68.000000,0.000000,0.000000,0.000000,0.000000,0.000000,0.503022,0.547556,0.153445,0.549171,0.000000,436.000000,417.000000,19.000000,68.000000,0.000000,0.000000,0.000000,0.000000,0.000000;
#CREDIT:MEGAtive;
#NOTES:
00000000
00000000
00000000
00000000
,
00000000
00000000
00000000
00000000
,
00000000
00000000
00000000
00000000
,
00000000
00000000
00000000
00000000
,
00000000
00000000
00000000
00000000
,
00000000
00000000
00000000
00000000
,
00001000
00010000
00001000
00100000
,
00010000
00100000
00010000
00100000
02000000
00000000
13000000
00000000
,
00010000
00000000
10000000
00000000
00100000
00000000
10000000
00010000
,
01000000
00000000
00100000
00000000
00010000
00001000
00010000
00000000
,
00000100
00000010
00000100
00001000
,
00000001
00000100
00000010
00000100
00002000
00000000
00003100
00000000
,
00000010
00001000
00000100
00010000
,
00001000
00100000
00010000
00100000
02000000
00000000
03100000
00001000
,
00010000
00001000
00010000
00000010
,
00001000
00000001
00000010
00000001
00000200
00000000
00001300
00000000
,
00000100
00000000
00000100
00000010
00001000
00000000
00000010
00001000
,
00000100
00010000
00001000
01000000
00010000
01000000
00100000
00000000
,
10000000
00100000
10000000
00100000
00020000
00000000
00130000
00010000
,
00002000
00010000
00010000
00013000
,
00010000
00000100
00010000
00000100
00000020
00000000
00000130
00001000
,
00000020
00000100
00000100
00000130
,
00000101
00000001
00001001
00001000
,
00001100
00000100
00010100
00010000
,
00011000
00001000
01001000
01000000
,
01100000
01100000
10010000
00000000
,
20000000
00000000
30100000
01000000
00100000
01000000
00010000
10000000
,
02000000
00000000
03200000
00000000
00310000
00000000
10000000
01000000
,
00200000
00000000
00310000
00100000
00010000
00100000
00001000
00010000
,
00000020
00000000
00000230
00000000
00000302
00000000
00001003
00000010
,
00000200
00000000
00000310
00001000
00000001
00001000
00000200
00000000
,
00020300
00000000
00032000
00000000
00013000
00000000
00001000
00100000
,
00020000
00000000
00130000
00010000
10000000
00010000
10000000
00100000
,
02000000
00000000
03100000
00000000
01000000
00010000
10000000
00010000
,
20000000
00000000
31000000
00100000
01000000
00100000
00010000
00100000
,
00002000
00000000
00023000
00000000
00030100
00000000
00000010
00000001
,
00000200
00000000
00000310
00001000
00000010
00001000
00000010
00010000
,
00002000
00000000
00023000
00000000
00031000
00000000
00100000
00010000
,
02000000
00000000
03100000
10000000
00100000
10000000
00020000
00000000
,
20030000
00000000
32000000
00000000
03100000
00000000
00001000
00010000
,
00002000
00000000
00013000
00000100
00001000
00000100
00001000
00000001
,
00000020
00000000
00000130
00000000
00002000
00000000
00003001
00000100
,
00000001
00001000
00000010
00001000
00000100
00010000
00001000
01000000
,
00100000
01000000
10010000
10000000
,
00010000
01000000
10000000
01000000
00010000
00000000
01010000
00000000
,
01000000
00010000
00110000
00100000
,
00010000
00100000
10000000
00100000
00010000
00000000
00100000
00001000
,
00010000
00000010
00001010
00001000
,
00000001
00000100
00001000
00000100
00000001
00000000
00000101
00000000
,
00000100
00000010
00001010
00001000
,
00000200
00000000
00000000
00000000
00010300
00001000
00010000
00000000
,
00011000
00000000
00001000
00010000
00100000
00000000
00100000
01000000
,
00010000
00000000
00010000
00100000
01000000
00000000
01000000
10000000
,
00100000
00000000
00100000
00010000
00001000
00000000
00001000
00010000
,
00000100
00000000
00000100
00001000
00000020
00000000
00000100
00000000
,
00001030
00000000
00001000
00000001
00000010
00000000
00000010
00000100
,
00001000
00000000
00001000
00000100
00010000
00000000
00010000
00001000
,
01000000
00000000
01000000
00100000
10000000
00000000
10000000
01000000
,
00200000
00000000
00000000
00000000
00310000
00100000
00010000
00100000
,
00002000
00000000
00000000
00000000
,
00020000
00000000
00000000
00033000
,
00020000
00000000
00000000
00000000
,
00000020
00000000
00000000
00030030
,
00000010
00000100
00000000
00000100
00000000
00000100
00000010
00000000
,
00000010
00001000
00000000
00001000
00000001
00001000
00000100
00000000
,
00000010
00000100
00000000
00000100
00000000
00000100
00000000
00000100
,
00020000
00000000
00032000
00000000
,
02003000
00000000
03100000
10000000
00100000
10000000
00010000
00100000
,
00002000
00000000
00023000
00000000
00031000
00000000
00010000
00000100
,
00000020
00000000
00000130
00001000
00000100
00001000
00000001
00000100
,
00000020
00000000
00000032
00000000
00000013
00000000
00000100
00001000
,
00020000
00000000
00031000
00100000
00010000
00100000
00020000
00000000
,
20030000
00000000
32000000
00000000
03100000
00000000
01000000
10000000
,
00200000
00000000
01300000
00010000
01000000
00010000
10000000
01000000
,
00200000
00000000
01300000
00000000
00100000
00001000
00100000
00001000
,
00020000
00000000
00030010
00001000
00000010
00001000
00000001
00000010
,
00000200
00000000
00000302
00000000
00000103
00000000
00001000
00000100
,
00020000
00000000
00031000
00010000
00001000
00100000
00001000
00100000
,
00020000
00000000
02030000
00000000
13000000
00000000
01000000
00100000
,
02000000
00000000
03100000
10000000
00100000
10000000
00020000
00000000
,
00230000
00000000
00302000
00000000
00013000
00000000
00001000
00000100
,
00000020
00000000
00000130
00000001
00000100
00000001
00001000
00000100
,
00000020
00000000
00000130
00000000
00000002
00000000
00000103
00001000
,
00000010
00001010
00001000
00001100
,
00000100
00010000
00001000
00100000
00010000
10000000
10100000
00000000
;

//---------------dance-double - ----------------
#NOTEDATA:;
#CHARTNAME:;
#CHARTHASH:843445453;
#STEPSTYPE:dance-double;
#BANNER:;
#DESCRIPTION:;
#CHARTSTYLE:;
#DIFFICULTY:Hard;
#METER:14;
#METERF:0.000000;
#LASTSECONDHINT:120.705887;
#RADARVALUES:0.604550,0.655977,0.032304,0.492639,0.072684,524.000000,520.000000,4.000000,61.000000,0.000000,0.000000,0.000000,0.000000,0.000000,0.604550,0.655977,0.032304,0.492639,0.072684,524.000000,520.000000,4.000000,61.000000,0.000000,0.000000,0.000000,0.000000,0.000000;
#CREDIT:MEGAtive;
#NOTES:
// measure 0
00000000
00000000
00000000
00000000
,  // measure 1
00000000
00000000
00000000
00000000
,  // measure 2
00000000
00000000
00000000
00000000
,  // measure 3
00000000
00000000
00000000
00000000
,  // measure 4
00000000
00000000
00000000
00000000
,  // measure 5
00000000
00000000
00000000
00000000
,  // measure 6
00020000
00030200
00002300
00003200
,  // measure 7
00010300
00001000
00100000
00010000
02000000
00000000
00100000
00000000
,  // measure 8
03020000
00000000
00230000
00000000
00302000
00000000
00013000
00000100
,  // measure 9
00000020
00000000
00000100
00000000
00000130
00000010
00000100
00000010
,  // measure 10
00000001
00000100
00000000
00000100
00000000
00000100
00000100
00000000
,  // measure 11
00000100
00000001
00000010
00001000
00010000
00001000
00001000
00000000
,  // measure 12
00010000
00100000
01000000
00000000
00010000
10000000
01000000
00000000
,  // measure 13
00100000
00010000
00100000
00010000
00100000
00000000
01000000
00000000
10000000
00000000
00100000
00000000
00100000
00000000
01000000
00000000
,  // measure 14
00010000
00100000
00000000
00100000
00000000
00100000
00100000
00000000
,  // measure 15
00100000
00010000
01000000
00001000
00010000
00001000
00001000
00000000
,  // measure 16
00010000
00000000
00000000
00000000
00010000
00001000
00010000
00000000
00001000
00010000
00000100
00000000
00010000
00000100
00001000
00000000
,  // measure 17
00000100
00000010
00000001
00000100
00000010
00001000
00000200
00000000
,  // measure 18
00010300
00001000
00010000
01000000
00200000
00000000
01300000
10000000
,  // measure 19
00100000
00000000
01000000
00100000
01000000
00000000
00100000
00000000
01000000
00000000
00000000
00000000
00100000
01000000
00010000
00000000
,  // measure 20
01000000
00001000
00010000
00000100
00000020
00000000
00000130
00001000
,  // measure 21
00000010
00000000
00000100
00000010
00000100
00000000
00000010
00000000
00000110
00000000
00000000
00000000
00001001
00000000
00000000
00000000
,  // measure 22
00001000
00000100
00001000
00000010
00010000
00001000
00010000
00000100
,  // measure 23
00010000
00000000
00010000
00001000
00010000
00000000
00001000
00000000
00100000
00000000
01000000
00000000
00100000
00000000
00000000
00000000
,  // measure 24
01000000
10000000
00100000
00010000
00001000
00010000
00000100
00000010
,  // measure 25
00000001
00000000
00000010
00000001
00000010
00000000
00000100
00000000
00020000
00000000
00000000
00000000
00000000
00000000
00000000
00000000
,  // measure 26
00031000
00010000
00001000
00000100
00000010
00001000
00000100
00010000
,  // measure 27
00002000
00000000
00203000
00000000
01000000
00000000
00310000
00100000
,  // measure 28
01000000
10000000
00010000
10000000
00100000
01000000
00010000
00100000
,  // measure 29
00002000
00000000
00003020
00000000
00000100
00000000
00000031
00000010
,  // measure 30
00000100
00010000
00001000
00010000
00100000
00010000
00002000
00000000
,  // measure 31
00023000
00000000
00030020
00000000
00000100
00000000
00001030
00000100
,  // measure 32
00010000
00001000
00010000
00100000
01000000
00010000
00010000
00100000
,  // measure 33
02000000
00000000
00100000
00000000
13000000
01000000
00100000
00001000
,  // measure 34
00010000
00001000
00010000
00100000
01000000
00010000
00100000
00001000
,  // measure 35
00020000
00000000
00030200
00000000
00000010
00000000
00001300
00000100
,  // measure 36
00000010
00000001
00001000
00000001
00000100
00000010
00001000
00000100
,  // measure 37
00020000
00000000
02030000
00000000
10000000
00000000
03100000
00001000
,  // measure 38
00010000
00001000
00010000
00100000
00010000
00001000
00200000
00000000
,  // measure 39
00320000
00000000
02030000
00000000
00100000
00000000
03010000
00100000
,  // measure 40
00001000
00010000
00001000
00000100
00000010
00001000
00001000
00000100
,  // measure 41
00000020
00000000
00000100
00000000
00000032
00000000
00000103
00000010
,  // measure 42
00020000
00000000
00000000
00000000
00001000
00001000
00001000
00031000
,  // measure 43
00010000
00010000
01000000
00100000
00010000
00010000
01000000
00100000
,  // measure 44
00000000
00000000
00100000
01000000
00010000
00000000
01000000
00000000
00001000
00000000
00000000
00000000
00010000
00001000
00010000
00000000
,  // measure 45
00001000
00001000
00000010
00000100
00001000
00001000
00000010
00000100
,  // measure 46
00000000
00000000
00000100
00000010
00001000
00000000
00000010
00000000
00010000
00000000
00000000
00000000
00010000
00000000
00001000
00000000
,  // measure 47
00010000
00010000
00100000
01000000
00010000
00010000
00100000
01000000
,  // measure 48
00000000
00000000
01000000
00100000
00010000
00000000
00100000
00000000
00001000
00000000
00000000
00000000
00010000
00001000
00010000
00000000
,  // measure 49
00001000
00001000
00000100
00000010
00001000
00001000
00000100
00000010
,  // measure 50
00000200
00000000
00000000
00000000
00000310
00000001
00001001
00000000
,  // measure 51
00001000
00000010
00000100
00000010
00001000
00000100
00000010
00000100
,  // measure 52
00010000
00001000
00000100
00001000
01000000
00010000
00100000
00010000
,  // measure 53
10000000
00100000
01000000
00100000
10000000
00010000
00100000
00010000
,  // measure 54
01000000
00000000
00001000
00000000
00010000
00000000
00001000
00000000
00200000
00000000
00000000
00000000
01300000
00000000
00100000
01000000
,  // measure 55
10000000
00010000
01000000
00010000
10000000
00001000
00100000
00001000
,  // measure 56
00010000
00001000
00000100
00001000
00010000
00000100
00000010
00000100
,  // measure 57
00001000
00000000
00000001
00000000
00000100
00000000
00000001
00000000
00001000
00000100
00001000
00000100
00010000
00000000
00001000
00000000
,  // measure 58
00200000
00000000
00000000
00000000
02000000
00000000
00000000
03300000
,  // measure 59
20010000
00000000
30200000
00000000
,  // measure 60
01300000
00100000
10000000
00100000
01000000
00100000
10000000
00010000
,  // measure 61
00200000
00000000
00302000
00000000
,  // measure 62
00023000
00000000
00000000
00000000
00031000
00001000
00010000
00010000
,  // measure 63
00000020
00000000
00000000
00000100
00000000
00000100
00000100
00000000
,  // measure 64
00001000
00001000
00000000
00001030
00000010
00010000
00001000
00000000
,  // measure 65
00100000
00010000
00100000
01000000
10000000
00100000
01000000
00010000
,  // measure 66
00200000
00000000
00302000
00000000
,  // measure 67
00013000
00001000
00010000
00100000
00010000
00001000
00000100
00000010
,  // measure 68
00002000
00000000
00003200
00000000
00000010
00000000
00001300
00000100
,  // measure 69
00000010
00000001
00001000
00000100
00000010
00001000
00010000
00001000
,  // measure 70
00200000
00000000
02300000
00000000
10000000
00000000
03100000
00001000
,  // measure 71
00010000
00001000
00000010
00000100
00010000
00001000
00200000
00000000
,  // measure 72
00320000
00000000
02030000
00000000
00100000
00000000
03010000
00100000
,  // measure 73
00001000
00010000
00001000
00000100
00000010
00001000
00001000
00000100
,  // measure 74
00000020
00000000
00000100
00000000
00000031
00000010
00000100
00010000
,  // measure 75
00001000
00010000
00001000
00000100
00001000
00010000
00100000
01000000
,  // measure 76
00020000
00000000
00230000
00000000
01000000
00000000
00310000
00100000
,  // measure 77
01000000
10000000
00010000
00100000
01000000
00010000
00001000
00010000
,  // measure 78
00000200
00000000
00000320
00000000
00000001
00000000
00000130
00010000
,  // measure 79
00001000
00010000
01000000
00100000
00001000
00010000
00000200
00000000
,  // measure 80
00002300
00000000
00003020
00000000
00000100
00000000
00001030
00000100
,  // measure 81
00010000
00001000
00010000
00100000
01000000
00010000
00010000
00100000
,  // measure 82
02000000
00000000
00100000
00000000
23000000
00000000
30100000
01000000
,  // measure 83
00001000
00001000
00010000
00010000
00000100
00000100
00000010
00000010
,  // measure 84
00000001
00000100
00001000
00010000
00100000
10000000
02000000
00000000
,  // measure 85
00000000
00000000
03000000
00000000
;
