#TITLE:Iris;
#ARTIST:BEMANI Sound Team "HuΣeR" feat.紫村 花澄;
#ARTISTTRANSLIT:HuΣeR feat.Kasumi Shimura;
#BANNER:Iris.png;
#BACKGROUND:Iris-bg.png;
#JACKET:Iris-jacket.png;
#CDTITLE:./CDTITLES/BEATMANIA IIDX.PNG;
#MUSIC:Iris.ogg;
#SAMPLESTART:45.852;
#SAMPLELENGTH:15;
#BPMS:0=176,232=88,240=176;

//---------------dance-single - t7r----------------
#NOTES:
     dance-single:
     t7r:
     Beginner:
     2:
     :
0000
0000
0000
0000
,
0000
0000
0000
0000
,
0000
0000
0000
0000
,
0000
0000
0000
0000
,
0000
0000
0000
0000
,
0000
0000
0000
0000
,
1000
0000
0000
0000
,
0000
0000
0000
0000
,
0010
0000
0000
0000
,
0000
0000
0000
0000
,
0100
0000
0000
0000
,
0000
0000
0000
0000
,
0010
0000
0000
0000
,
0000
0000
0000
0000
,
1000
0000
0000
0000
,
0000
0000
0000
0000
,
0100
0000
0000
0000
,
0000
0000
0000
0000
,
0010
0000
0000
0000
,
0000
0000
0000
0000
,
0001
0000
0000
0000
,
0000
0000
0000
0000
,
0100
0000
0000
0000
,
0000
0000
0000
0000
,
0100
0000
0000
0000
,
0000
0000
0000
0000
,
0010
0000
0000
0000
,
0000
0000
0000
0000
,
1000
0000
0000
0000
,
0000
0000
0000
0000
,
0001
0000
0000
0000
,
0000
0000
0000
0000
,
0010
0000
0000
0010
,
0000
0000
0000
0000
,
0100
0000
0000
0000
,
0000
0000
0000
0000
,
1000
0000
0000
0000
,
0000
0000
0000
0000
,
0001
0000
0000
0000
,
0000
0000
0000
0000
,
0100
0000
0000
0000
,
0100
0000
0000
0000
,
0010
0000
0000
0000
,
0010
0000
0000
0000
,
1000
0000
0000
0000
,
1000
0000
0000
0000
,
0001
0000
0000
0000
,
0001
0000
0000
0000
,
0010
0000
0000
0000
,
0010
0000
0000
0000
,
0001
0000
0000
0000
,
0000
0000
0000
0000
,
0100
0000
0000
0000
,
0000
0000
0000
0000
,
1000
0000
0000
0000
,
0000
0000
0000
0000
,
0010
0000
0000
0000
,
0000
0000
0000
0000
,
0100
0000
0000
0000
,
0000
0000
0000
0000
,
0010
0000
0000
0000
,
0000
0000
0000
0000
,
1000
0000
0000
0000
,
0000
0000
0000
0000
,
0001
0000
0000
0000
,
0000
0000
0000
0000
,
0010
0000
0000
0000
,
0010
0000
0000
0000
,
0100
0000
0000
0000
,
0100
0000
0000
0000
,
1000
0000
0000
0000
,
1000
0000
0000
0000
,
0001
0000
0000
0000
,
0000
0000
0000
0001
,
0001
0000
0000
0000
,
0000
0000
0000
0000
,
1000
0000
0000
0000
,
0010
0000
0100
0000
,
0001
0000
1000
0000
,
0100
0000
0100
0000
;

//---------------dance-single - t7r----------------
#NOTES:
     dance-single:
     t7r:
     Easy:
     5:
     :
0000
0000
0000
0000
,
0000
0000
0000
0000
,
0000
0000
0000
0000
,
0000
0000
0000
0000
,
0000
0000
0000
0000
,
0000
0000
0000
0000
,
1000
0000
0000
0000
,
1000
0000
0000
0000
,
0001
0000
0100
0000
,
0010
0000
0000
0000
,
1000
0000
0100
0000
,
0010
0000
0100
0000
,
1000
0000
0001
0000
,
0100
0100
0100
0000
,
0001
0000
0010
0000
,
0100
0000
0010
0000
,
0001
0000
1000
0000
,
0010
0100
0100
0000
,
2002
0000
0000
0000
,
0000
0000
0000
0000
,
3003
0000
0000
0000
,
0000
0000
0000
0000
,
1000
0000
0000
0000
,
1000
0000
0000
0000
,
0001
0000
0000
0000
,
0100
0000
0000
0000
,
0010
0000
0010
0010
,
0010
0000
1000
1000
,
1000
0000
0001
0000
,
0010
0010
0010
0000
,
0002
0000
0000
0003
,
1000
0000
0010
0000
,
0100
0000
0000
0100
0000
0000
0010
0000
,
0000
0010
0000
0000
0000
0000
0000
0000
,
1000
0000
0100
0000
,
1000
0001
0100
0000
,
0001
0000
0010
0000
,
0001
1000
0010
0000
,
0100
0000
0010
0000
,
1000
0001
0010
0000
,
0001
0000
0100
0000
,
0010
0010
1000
0000
,
0100
0010
0100
1000
,
0100
0000
0010
0000
,
0001
0100
0001
1000
,
0010
0000
0100
0000
,
0010
1000
0001
0010
,
0001
1000
0100
0000
,
0010
0100
1000
0000
,
0010
0100
0001
0000
,
2000
0000
0010
0000
,
3001
0000
0100
0000
,
0002
0000
0010
0000
,
1003
0000
0100
0000
,
1000
0000
0010
0100
,
0001
0000
0010
0100
,
1000
0000
0000
1000
0000
0000
0001
0000
,
0000
0001
0000
0000
0000
0000
0000
0000
,
0100
0000
0000
0000
,
0020
0030
2000
3001
,
0010
0000
0010
0000
,
0100
1000
0001
0000
,
0100
0000
0100
0010
,
0200
0000
0000
0300
,
0010
0000
0000
0010
0000
0000
0000
1000
,
0000
0000
0001
0000
,
1000
0100
1000
0000
,
0001
0100
0010
1000
,
0001
0010
0001
0000
,
1000
0010
0100
0001
,
1000
0000
0000
0100
0000
0000
0000
0010
,
0000
0000
0001
0000
,
1000
0000
1001
0000
,
0001
0000
0100
0000
,
0001
0000
1001
0000
,
1000
0000
0010
0000
,
1000
0100
1100
0000
,
0001
0100
0101
0000
,
2000
0000
3020
0000
,
0130
0000
0001
0000
1000
0000
0001
0001
;

//---------------dance-single - t7r----------------
#NOTES:
     dance-single:
     t7r:
     Medium:
     10:
     :
0000
0000
0000
0000
,
0000
0000
0000
0000
,
0000
0000
0000
0000
,
0000
0000
0000
0000
,
0000
0000
0000
0000
,
0000
0000
0000
0000
,
0001
0000
0010
0100
0000
0000
1000
0000
,
0001
0100
0000
0010
1000
0000
0001
0000
,
1001
0000
1000
0100
0100
0000
0010
0001
,
0001
0000
0100
0010
2000
0000
3001
0000
,
1000
0000
0010
0200
0000
0310
1000
0000
,
0001
0000
0010
0000
0100
1000
0002
0000
,
1003
0000
0100
0020
0000
0130
1000
0000
,
0002
0000
0103
0010
1000
0000
0110
0000
,
1001
0000
0001
0020
0000
0130
1000
0000
,
0002
0000
0103
0000
0010
1000
0002
0000
,
1003
0000
0100
0010
0100
0000
1000
0001
,
0000
0100
0100
0100
0000
0010
0010
0000
,
2002
0000
0000
0000
,
0000
0000
0000
0000
,
3003
0000
0000
0000
,
0000
0000
0000
0000
,
1000
0000
0100
2000
0000
0000
3001
0000
,
1000
0000
0100
1000
0000
0001
0000
1000
,
0001
0000
0100
0010
0000
0100
0001
2000
,
0000
0000
0000
3001
,
1001
1000
0100
1100
,
1001
0001
0100
0101
,
1001
0010
1001
0010
,
1001
0101
1001
1100
,
2001
0000
0000
3100
,
0110
0000
0100
2000
0000
3010
1000
0000
,
0001
0100
0100
0001
0000
0000
1000
0100
,
0100
1000
0000
0000
0000
0001
1000
0000
,
0001
0000
0010
0100
0000
0010
0001
0010
,
0000
0002
0000
1003
0001
0000
1000
0000
,
0001
0000
0100
0001
0000
0100
0010
0200
,
0000
0301
1000
0100
1000
0000
0001
0000
,
1000
0000
0010
0100
0000
0010
1000
0010
,
0000
2000
0000
3001
1000
0000
0001
0000
,
1000
0000
0100
1000
0000
0100
0010
0200
,
0000
1300
0001
0100
0001
0000
1000
0000
,
0010
0000
0001
0010
0000
1000
0010
1000
,
0000
0001
0000
0010
1000
0000
0010
0000
,
0001
0000
0100
2000
0000
3100
0001
0200
,
0000
0301
1000
0100
0010
0000
1001
0000
,
1000
0000
0100
0001
0000
0100
1000
0000
,
0001
0100
0010
0100
0002
0000
1003
0000
,
0001
0000
0010
2000
0000
3010
0001
2000
,
0000
3010
0001
0000
0010
0000
0110
0000
,
1001
1000
0100
1100
,
1001
0001
0100
0101
,
1001
0010
1001
0100
,
1002
0010
2003
0100
,
3001
0000
0000
0100
0010
0100
0001
0000
,
0101
0000
0000
1000
0100
0010
0100
0000
,
1000
0010
0010
1000
0000
0000
0001
0010
,
0010
0001
0000
0000
0000
1000
0001
0000
,
0100
0000
0010
0000
,
2000
0000
0000
3001
0000
0100
0010
0200
0000
0000
0310
0000
1000
0000
0001
0000
,
1000
0000
0100
1000
0100
0000
1000
0000
,
0001
0000
0100
0001
0100
0000
0001
0000
,
1000
0000
0001
0010
0010
0000
0100
1000
,
1000
0000
0010
0100
0010
1000
0002
0000
,
1003
0000
0000
1001
0000
0010
0000
0110
,
0000
1000
0001
0000
0100
0000
1001
0000
,
0001
0000
0010
0100
0000
0001
0100
0020
,
0000
0031
1000
0000
0010
0100
0001
0000
,
1000
0000
0010
0100
0000
1000
0100
0010
,
0000
2000
0000
3001
0010
0000
0001
0000
,
1000
0000
0100
0001
0100
0000
1000
0002
,
0000
0103
1000
0100
0001
0000
0100
0000
,
0110
0010
1010
1000
,
1001
0001
0011
0001
,
1001
1000
1010
1000
,
0002
0100
2003
0100
,
3002
0013
0011
0001
,
2001
0010
3002
0100
,
1003
0010
0100
0000
0001
0010
0100
0000
,
1000
0001
0100
0010
1000
0100
0100
0001
;

//---------------dance-single - t7r----------------
#NOTES:
     dance-single:
     t7r:
     Hard:
     13:
     :
0000
0000
0000
0000
,
0000
0000
0000
0000
,
0000
0000
0000
0000
,
0000
0000
0000
0000
,
0000
0000
0000
0000
,
0000
0000
0000
0000
,
1000
0000
0100
0010
0000
0001
1000
0010
,
0000
1000
0001
0010
0001
0000
1000
0000
,
1001
0000
0001
1000
0100
0100
0010
0010
,
0001
0001
1000
1000
0020
0000
1030
0000
,
0001
0000
0010
0200
0000
1300
0001
0010
,
0000
0010
0002
0000
1003
0010
0200
0000
,
0310
1000
0001
0200
0000
0301
1000
0020
,
0000
1030
0100
0010
0001
0000
1001
0000
,
0001
0010
0100
2000
0000
3010
0100
0002
,
0000
0103
0020
0000
1030
0100
0020
0000
,
1030
0010
0001
0100
1000
0100
0001
0010
,
0000
0100
0100
0100
0000
0010
0010
0000
,
2002
0000
0000
0000
,
0000
0000
0000
0000
,
3003
0000
0000
0000
,
0000
0000
0000
0000
,
1000
0010
1000
0001
0010
0001
0000
1000
,
0010
0100
0010
1000
0000
0002
0000
0013
,
0100
0000
0010
0001
0000
1000
0010
0200
,
0000
0000
0000
0310
,
1001
0000
0001
0100
1000
0000
0110
0000
,
1001
0000
1000
0100
0001
0000
0110
0000
,
1001
0011
1001
1010
,
1001
0000
0001
0100
1000
0000
0110
0000
,
2001
0000
0000
0000
0000
0000
3001
1000
,
0001
0100
0100
0020
0000
1030
0001
0000
,
1000
0100
0100
0010
0000
0000
0001
0100
,
0100
0010
0000
0000
0000
1000
0001
0000
,
1000
0100
0010
0100
0000
1000
0001
0100
,
0000
2000
0000
3100
0010
0100
0002
0000
,
0013
0100
0010
2000
0000
3010
0001
0200
,
0000
1300
0100
0001
1000
0000
1001
0000
,
0001
0010
0100
0010
0000
0001
1000
0010
,
0000
0002
0000
0013
0100
0010
2000
0000
,
3100
0010
0100
0001
0100
0100
0010
0002
,
0000
1003
0010
0100
0010
0000
1000
0001
,
1000
0100
0010
0002
0000
0103
0010
0002
,
0000
1003
0100
0001
0010
1000
0010
0100
,
1000
0010
0100
0002
0000
0013
0100
0002
,
0000
1003
0010
0100
0010
0000
1001
0000
,
0001
0010
0100
2000
0000
3010
0100
1000
,
0100
0010
0100
0001
1000
0000
0001
1000
,
0001
0100
0010
2000
0000
3100
0010
2000
,
0000
3001
0100
1000
0010
0000
0110
0000
,
1010
0000
0010
1000
0100
1000
0001
1000
,
0010
0000
0100
0001
0010
0001
1000
0001
,
0100
0000
0010
1000
0100
1000
0010
0100
,
0002
0010
2003
0100
,
3001
0000
1000
0100
0001
0000
0110
0000
,
1001
0000
0001
0100
1000
0000
0110
0000
,
1000
0100
0100
0001
0000
0000
0100
0100
,
1000
0001
0000
0000
0000
0100
0010
0000
,
1000
0000
0000
0010
0000
0000
0000
0000
0100
0000
0000
0001
0000
0000
0000
0000
,
0020
0000
0000
0230
0000
1300
0001
0200
0000
0310
1000
0001
1000
0000
0010
0000
,
1010
0000
1000
0100
0010
0100
1000
0000
,
0011
0000
0001
0100
0010
0100
0001
0000
,
1001
0000
1000
0001
0100
0100
0010
0010
,
1000
1000
0001
0001
0010
0100
1000
0000
,
1001
0000
0000
1010
0000
0010
0100
0001
,
0000
0010
0100
0100
1000
0001
1000
0000
,
0001
0100
0010
2000
0000
3100
0010
2000
,
0000
3010
0001
1000
0010
0001
0010
0000
,
1000
0100
0010
0002
0000
0103
0010
0002
,
0000
2003
0000
3100
0001
0010
1000
0010
,
0100
1000
0001
0010
0100
0001
1000
0020
,
0000
0130
0100
1000
0001
0100
0010
0000
,
1001
0000
0000
1000
0000
1000
0100
0000
0000
1000
0000
1000
,
0001
0000
0000
0100
0000
0100
0010
0000
0010
1000
0000
1000
,
0002
0010
2003
0010
,
3001
0000
0001
0100
0000
0100
0010
0000
0010
1000
0000
1000
,
0002
0000
0000
0100
0000
0000
1003
0000
0000
0100
0000
0100
,
2000
0010
3002
0010
,
1003
0100
0020
0000
0031
0100
0020
0000
,
1030
0100
0001
1000
0010
1000
1000
0001
;

//---------------dance-double - t7r----------------
#NOTES:
     dance-double:
     t7r:
     Easy:
     6:
     :
00000000
00000000
00000000
00000000
,
00000000
00000000
00000000
00000000
,
00000000
00000000
00000000
00000000
,
00000000
00000000
00000000
00000000
,
00000000
00000000
00000000
00000000
,
00000000
00000000
00000000
00000000
,
00001000
00000000
00000000
00000000
,
01000000
00000000
00000000
00000000
,
00010000
00000000
00100000
00000000
,
01000000
10000000
00010000
00000000
,
10000000
00000000
00100000
00000000
,
01000000
00010000
10000000
00000000
,
01000000
00000000
00100000
00000000
,
00001000
00010000
00000100
00000000
,
00001000
00000000
00000010
00000000
,
00000100
00000001
00001000
00000000
,
00000001
00000000
00000010
00000000
,
00000100
00010000
00010000
00001000
,
00022000
00000000
00000000
00000000
,
00000000
00000000
00000000
00000000
,
00033000
00000000
00000000
00000000
,
00000000
00000000
00000000
00000000
,
00100000
00000000
00000000
00000000
,
00010000
00000000
00000000
00000000
,
10000000
00000000
00100000
00000000
,
01000000
00000000
00000000
00000000
,
00001000
00000000
00010000
00001000
,
00010000
00000000
00000100
00001000
,
00000100
00000000
00000010
00000000
,
00000001
00001000
00000100
00000000
,
00020000
00000000
00000000
00030000
,
00001000
00000000
01000000
00000000
,
00010000
00000000
00000000
00010000
00000000
00000000
10000000
00000000
,
00000000
10000000
00000000
00000000
00000000
00000000
00000000
00000000
,
01000000
00000000
10000000
00000000
,
00100000
01000000
00010000
00000000
,
00001000
00000000
00000100
00000000
,
00000010
00000001
00001000
00000000
,
00000001
00000000
00000100
00000000
,
00001000
00010000
00001000
00000000
,
00010000
00000000
01000000
00000000
,
10000000
00100000
01000000
00000000
,
00010000
00100000
00001000
00000000
,
00010000
00001000
00010000
00000000
,
00000010
00001000
00000001
00000000
,
00000100
00001000
00010000
00000000
,
00001000
00100000
00010000
00000000
,
00100000
01000000
10000000
00000000
,
00100000
00000000
00000000
00100000
00000000
00000000
00000000
00010000
,
00000000
00000000
00001000
00010000
,
00011000
00000000
00000000
00000020
,
00002030
00003002
00000203
00000302
,
00000013
00000000
00000100
00000000
,
00020000
00032000
02003000
03020000
,
00130000
00000000
01000000
10000000
,
00100000
00000000
01000000
00001000
,
00010000
00000000
00000000
00010000
00000000
00000000
00001000
00000000
,
00000000
00011000
00000000
00000000
00000000
00000000
00000000
00000000
,
00000100
00000000
00000000
00000000
,
00000010
00000000
00000001
00000000
,
00001000
00000000
00000100
00000000
,
00010000
00001000
01000000
00000000
,
00100000
10000000
00010000
00100000
,
00020000
00000000
00000000
00030000
,
00100000
00000000
00000000
00100000
00000000
00000000
00000000
00001000
,
00000000
00000000
00000000
00000000
,
00010000
00000010
00001000
00000000
,
00000001
00000010
00000100
00001000
,
00000001
00000100
00000001
00000000
,
00001000
00000100
00010000
00000000
,
00001000
00010000
01000000
10000000
,
00100000
01000000
00010000
10000000
,
00100000
00000000
00011000
00000000
,
00000010
00000000
00011000
00000000
,
01000000
00000000
00011000
00000000
,
00000100
00000000
00011000
00000000
,
00020000
00001000
00030100
00010000
,
00002000
00010000
00023000
00001000
,
00030200
00000000
00000320
00000000
,
00000031
00000000
00000100
00000000
00001000
00000000
00010000
00010000
;

//---------------dance-double - t7r----------------
#NOTES:
     dance-double:
     t7r:
     Medium:
     10:
     :
00000000
00000000
00000000
00000000
,
00000000
00000000
00000000
00000000
,
00000000
00000000
00000000
00000000
,
00000000
00000000
00000000
00000000
,
00000000
00000000
00000000
00000000
,
00000000
00000000
00000000
00000000
,
00001000
00000000
00100000
00010000
00000000
00000000
10000000
00000000
,
00010000
00000000
01000000
00100000
00000000
10000000
00010000
00000000
,
10000000
01000000
00010000
00001000
,
00000100
00000000
00000001
00001000
00000200
00000000
00000300
00000000
,
00010000
00000000
00001000
00020000
00000000
00000000
00031000
00000000
,
01000000
00000000
00010000
00000000
10000000
01000000
00200000
00000000
,
01300000
00000000
10000000
00020000
00000000
00000000
00130000
00000000
,
00001000
00010000
00000010
00001000
,
00000001
00000000
00000010
00000200
00000000
00000000
00001300
00000000
,
00000001
00000100
00000010
00001000
,
00010000
00000000
00100000
01000000
10000000
00000000
00100000
01000000
,
00000000
00001000
00001000
00010000
00000000
00001000
00010000
00000000
,
00022000
00000000
00000000
00000000
,
00000000
00000000
00000000
00000000
,
00033000
00000000
00000000
00000000
,
00000000
00000000
00000000
00000000
,
00000010
00000000
00001000
00000000
00000001
00000010
00000000
00000100
,
00001000
00000001
00000100
00001000
,
00010000
00000000
00001000
01000000
00000000
00000000
00010000
20000000
,
00000000
00000000
00000000
30000000
,
01000000
10000000
11000000
00000000
,
00010000
01000000
01010000
00000000
,
00010000
00100000
00001000
00011000
,
00010000
00000010
00001000
00001001
,
00000102
00000000
00000000
00001003
,
00001100
00000000
00000100
00010000
00000000
00001000
00010000
00000000
,
00001000
01000000
01000000
00010000
00000000
00000000
00100000
00001000
,
00001000
00010000
00000000
00000000
00000000
00000010
00000100
00000000
,
00000001
00000000
00000010
00000100
00000000
00001000
00000100
00001000
,
00000000
00000200
00000000
00010300
00001000
00000000
01000000
00000000
,
00010000
00000000
00100000
00010000
00000000
10000000
00010000
20000000
,
00000000
30100000
10000000
00000000
00010000
00000000
01000000
00000000
,
00001000
00000000
00010000
00000010
00000000
00001000
00000001
00001000
,
00000000
00000002
00000000
00000013
00000100
00000000
00001000
00000000
,
00000001
00000000
00000100
00002000
00000000
00013000
00001000
00020000
,
00000000
01030000
10000000
00000000
00010000
00000000
10010000
00000000
,
10000000
00000000
01000000
00010000
00000000
01000000
00100000
01000000
,
00000000
00010000
00001000
00000000
00000100
00000001
00001000
00000000
,
00000001
00000000
00000100
00000020
00000000
00000130
00001000
00000000
,
00010000
00000000
01000000
10000000
00200000
00000000
10300000
00000000
,
00010000
00000000
10000000
00100000
00000000
00010000
00100000
00000000
,
01000000
00001000
00011000
00000000
,
00001000
00000000
00000010
00000002
00000000
00000103
00000010
00002000
,
00000000
00003100
00010000
00000000
00001000
00000000
00010000
00000000
,
00100000
10000000
10100000
00000000
,
10000000
01000000
00010000
00011000
,
00001000
00000100
00000010
00001010
,
00000002
00000010
00002003
00000100
,
00003002
00000000
00000000
00000000
00000103
00001000
00010000
00000000
,
00021000
00000000
00000000
00000000
01030000
00010000
00001000
00000000
,
00010000
00000100
00000100
00001000
00000000
00000000
00000010
00001000
,
00001000
00000001
00000000
00000000
00000000
00000010
00000100
00000000
,
00001000
00000000
00000001
00000000
,
00000200
00000000
00000000
00000310
00000000
00000000
00000000
00000000
00001000
00000000
00000100
00010000
00001000
00000000
00010000
00000000
,
00001000
00000000
00010000
00000000
01000000
10000000
01000000
00000000
,
00010000
00000000
00001000
00000000
00000100
00000001
00000100
00000000
,
00001000
00000000
00010000
00010000
00001000
00000000
01000000
00000000
,
00010000
00100000
00100000
00000000
01000000
10000000
00010000
00000000
,
10010000
00000000
00000000
10100000
00000000
00000000
00000000
10010000
,
00000000
10000000
00000000
01000000
00100000
00000000
00010000
00000000
,
00001000
00000000
00000010
00000200
00000000
00000310
00001000
00000002
,
00000000
00000013
00001000
00000000
00010000
00001000
00010000
00000000
,
00001000
00000000
00100000
00020000
00000000
10030000
00100000
10000000
,
00000000
00020000
00000000
00130000
00001000
00000000
00010000
00000000
,
00001000
00000000
00000010
00000001
00000200
00000000
00001300
00020000
,
00000000
00130000
10000000
00000000
01000000
00000000
00100000
00000000
,
00011000
00010000
00000100
00010000
,
00011000
00001000
01000000
00001000
,
00012000
00100000
00023000
00000010
,
00032000
00003200
00000302
00002003
,
00003200
00001000
00010300
00011000
,
00002000
00010000
02003000
00100000
,
03010000
10000000
00100000
00000000
01000000
00000000
00001000
00000000
,
00010000
00001000
00000100
00000000
00000001
00000001
00001000
00000001
;

//---------------dance-double - t7r----------------
#NOTES:
     dance-double:
     t7r:
     Hard:
     13:
     :
00000000
00000000
00000000
00000000
,
00000000
00000000
00000000
00000000
,
00000000
00000000
00000000
00000000
,
00000000
00000000
00000000
00000000
,
00000000
00000000
00000000
00000000
,
00000000
00000000
00000000
00000000
,
00010000
00000000
00000100
00001000
00000000
00000001
00000100
00000001
,
00000000
00001000
00000100
00010000
00001000
00000000
00010000
00000000
,
00011000
00000000
00001000
00000000
01000000
01000000
00010000
00010000
,
10000000
10000000
00010000
00010000
00200000
00000000
01300000
00000000
,
10000000
00000000
00100000
02000000
00000000
03010000
01000000
00001000
,
00000000
00001000
00020000
00000000
00030100
00001000
00000020
00000000
,
00000130
00000001
00001000
00000002
00000000
00000103
00001000
00020000
,
00000000
00030100
00001000
00000100
00010000
00000000
00011000
00000000
,
00001000
01000000
00010000
20000000
00000000
31000000
10000000
00200000
,
00000000
01300000
00020000
00000000
00130000
00001000
00020000
00000000
,
00031000
00000100
00000010
00001000
00000100
00000010
00000001
00001000
,
00000000
00000001
00000001
00000001
00000100
00001000
00020000
00000000
,
00002000
00000000
00000000
00000000
,
00000000
00000000
00000000
00000000
,
00033000
00000000
00000000
00000000
,
00000000
00000000
00000000
00000000
,
01000000
00010000
10000000
00010000
00100000
00010000
00000000
10000000
,
01000000
01000000
00100000
00010000
00000000
00001000
00000010
00000100
,
00000001
00000000
00000010
00000100
00000000
00001000
00000001
00000200
,
00000000
00001300
00010000
00002000
00000000
01003000
00010000
00000000
,
10010000
00000000
10000000
01000000
00100000
00000000
00010000
00000000
,
00110000
00000000
00100000
00001000
00010000
00000000
00001000
00000000
,
00011000
00010000
00001000
00000010
,
00000001
00000000
00000100
00000010
00001000
00000000
00000100
00000000
,
00020100
00000000
00000000
00000000
00000000
00000000
00031000
00010000
,
00001000
01000000
01000000
00010000
00000000
10000000
00010000
00100000
,
00001000
00001000
00010000
00001000
00000000
00000000
00010000
00010000
,
00001000
00021000
00000000
00000000
00000000
00030100
00001000
00000001
,
00001000
00000100
00000001
00000100
00000000
00001000
00000001
00000100
,
00000000
00002000
00000000
00013000
01000000
10000000
00010000
00000000
,
10000000
00100000
01000000
00020000
00000000
00130000
01000000
00020000
,
00000000
00031000
00000010
00000100
00000010
00000000
00000011
00000000
,
00000001
00000100
00001000
00000200
00000000
00001300
00010000
00100000
,
00000000
20000000
00000000
31000000
00100000
00010000
00002000
00000000
,
00103000
00010000
00001000
00000020
00000000
00000130
00001000
00000002
,
00000000
00000103
00001000
00010000
00000100
00000000
00001000
00000001
,
00001000
00000010
00000001
00000020
00000000
00001030
00000001
00000020
,
00000000
00001030
00010000
00100000
10000000
00010000
00100000
00010000
,
10000000
01000000
00100000
00020000
00000000
01030000
00100000
00020000
,
00000000
00031000
00000100
00000001
00000010
00000000
00000110
00000000
,
00000100
00010000
00001000
00020000
00000000
01030000
00100000
00010000
,
10000000
00100000
01000000
00010000
20000000
00000000
31000000
00010000
,
00001000
00000100
00000001
00000020
00000000
00001030
00010000
00200000
,
00000000
10300000
01000000
00010000
00001000
00000000
00011000
00000000
,
00020000
00000000
00030100
00001000
00000001
00000000
00001001
00000000
,
00000001
00000101
00001000
00001100
,
00000200
00000000
00001000
00000000
00010300
00001000
00100000
00010000
,
02000000
00100000
03020000
00100000
,
10030000
00000000
01000000
00010000
00001000
01000000
00010000
00000000
,
02010000
00000000
03100000
00010000
00001000
00010000
00000020
00000000
,
00000130
00000100
00000001
00001000
00000000
00000000
00000100
00000100
,
00010000
00011000
00000000
00000000
00000000
00001000
01000000
00000000
,
00010000
00000000
00100000
01000000
00000000
00000000
00000000
00000000
10000000
00000000
00100000
01000000
00000000
00000000
00000000
00000000
,
00002000
00000000
00000000
00023000
00000000
00030100
00001000
00000002
00000000
00000103
00000010
00001000
00000001
00000000
00000010
00000000
,
00001000
00010000
00000100
00001000
00000000
00000001
00000100
00000010
,
00000000
00001000
00000100
00010000
00001000
00000000
00010000
00000000
,
01000000
00000000
10000000
10000000
00100000
00100000
01000000
01000000
,
00010000
00010000
00001000
00001000
00000100
00000010
00000001
00000000
,
00001001
00000000
00000000
00000101
00000000
00000100
00000010
00001000
,
00000000
00000100
00010000
00000000
00001000
00010000
00002000
00000000
,
00013000
01000000
00100000
00020000
00000000
01030000
00100000
00020000
,
00000000
00031000
00000010
00000100
00001000
00000010
00000100
00000000
,
00001000
00000100
00000001
00000020
00000000
00001030
00010000
00200000
,
00000000
20300000
00000000
30010000
00100000
00001000
00010000
00001000
,
00000010
00000001
00000100
00001000
00010000
00100000
10000000
02000000
,
00000000
03010000
00001000
00010000
00011000
00000000
00000100
00000000
,
00001001
00000000
00000000
00000001
00000000
00000001
00000100
00000000
00000000
00000010
00000000
00000010
,
00001000
00000000
00000000
00000001
00000000
00000001
00000010
00000000
00000000
00001000
00000000
00010000
,
00001000
00000000
00000000
00010000
00000000
00010000
00001000
00000000
00000000
00010000
00000000
00010000
,
00200000
20300000
30020000
00230000
,
00302000
00000000
00000000
00010000
00000000
00000000
01003000
00000000
00000000
00001000
00010000
00001000
,
00020000
00000100
00032000
01000000
,
00013000
00001000
00000100
00000000
00000001
00000010
00000200
00000000
,
00000301
00000100
00001000
00000001
00000100
00001000
00010000
00100000
;
