#TITLE:I Want That;
#ARTIST:(G)I-DLE;
#BANNER:I Want That.png;
#BACKGROUND:I Want That-bg.png;
#JACKET:I Want That-jacket.png;
#CDTITLE:./CDTITLES/NONE.PNG;
#MUSIC:I Want That.ogg;
#SAMPLESTART:57.666;
#SAMPLELENGTH:15;
#BPMS:0=120;

//---------------dance-single - t7r----------------
#NOTES:
     dance-single:
     t7r:
     Beginner:
     2:
     :
0000
0000
0000
0000
,
0000
0000
0000
0000
,
0000
0000
0000
0000
,
0000
0000
0000
0000
,
0000
0000
0000
0000
,
1000
0000
0000
0000
,
0100
0000
0000
0000
,
0010
0000
0000
0000
,
0001
0000
0001
0000
,
0001
0000
0000
0000
,
0100
0000
0000
0000
,
0010
0000
0000
0000
,
1000
0000
1000
0000
,
0000
1000
0000
0000
,
0000
0001
0000
0000
,
0000
0100
0000
0000
,
0000
0010
0000
0000
,
1000
1000
0000
0000
,
0001
0001
0000
0000
,
0010
0010
0000
0000
,
0100
0000
0000
0000
,
1000
0000
0000
0000
,
0010
0000
0000
0000
,
0100
0000
0000
0000
,
0001
0000
0000
0000
,
0010
0000
0000
0000
,
0100
0000
0000
0000
,
1000
0000
0000
0000
,
0010
0010
0010
0000
,
1000
0000
0000
0000
,
0001
0000
0000
0000
,
0010
0000
0000
0000
,
0100
0000
0100
0000
,
0010
0000
0000
0000
,
0001
0000
0000
0000
,
1000
0000
0000
0000
,
0010
0000
0010
0000
,
0100
0000
0000
0000
,
0010
0000
0000
0000
,
1000
0000
0000
0000
,
0001
0000
0001
0000
,
0010
0000
0000
0000
,
0100
0000
0000
0000
,
1000
0000
0000
0000
,
0010
0000
0000
0000
,
0100
0000
0000
0000
,
0000
0000
0000
0000
,
0000
0000
0000
0000
,
0001
0000
0001
0000
,
1000
0000
1000
0000
,
0010
0010
0010
0000
,
0100
0000
0100
0000
,
0001
0001
0001
0000
,
1000
0000
1000
0000
,
0000
0100
0000
0000
,
0000
0010
0000
0000
,
0000
0001
0000
0000
,
0000
1000
0000
0000
;

//---------------dance-single - t7r----------------
#NOTES:
     dance-single:
     t7r:
     Easy:
     5:
     :
0000
0000
0000
0000
,
0000
0000
0000
0000
,
0000
0000
0000
0000
,
0000
0000
0000
0000
,
0000
0000
0000
0000
,
0010
1000
0001
0100
,
0010
1000
0001
0001
,
0010
0001
1000
0100
,
1000
0000
1000
0000
,
0010
1000
0001
0010
,
0001
1000
0010
0010
,
1000
0001
0010
0010
,
0001
0000
0001
0000
,
0000
1000
0001
0100
,
0100
0001
1000
0010
,
0010
1000
0001
0010
,
0010
0001
1000
0010
,
1000
0000
1000
0100
,
0010
0000
0001
0100
,
0010
0000
0100
0001
,
1001
0000
1000
0000
,
0020
0000
0000
0000
,
2030
0000
0000
0000
,
3002
0000
0000
0000
,
0203
0000
0302
0000
,
2003
0000
0000
0000
,
3200
0000
0000
0000
,
0320
0000
0000
0000
,
0031
1000
0002
0003
,
1000
0100
1000
1000
,
0001
0100
0001
0001
,
1000
0010
1000
1000
,
0001
0000
0001
0000
,
1000
0010
1000
1000
,
0001
0010
0001
0001
,
1000
0100
0010
0010
,
0001
0000
0001
0000
,
0200
0010
0000
0310
,
2000
0001
0000
3001
,
0020
0030
0200
0300
,
2000
3000
0002
0003
,
1000
0010
2000
3000
,
0001
0010
0002
0003
,
2000
0000
0100
0000
,
3002
0000
0010
0000
,
2003
0000
0000
0000
,
3000
0000
0000
0000
,
0000
0000
0000
0000
,
0001
0100
1000
1000
,
0100
0000
0100
0000
,
0010
1000
0100
0001
,
0100
0010
0001
0001
,
0100
1000
0100
0100
,
0110
0000
0110
0000
,
0000
0001
1000
0100
,
0010
0100
0001
0100
,
1000
0001
0100
0020
,
0130
1000
0100
0001
;

//---------------dance-single - t7r----------------
#NOTES:
     dance-single:
     t7r:
     Medium:
     9:
     :
0000
0000
0000
0000
,
0000
0000
0000
0000
,
0000
0000
0000
0000
,
0000
0000
0000
0000
,
0000
0000
0000
0000
,
1000
0100
1000
0000
0100
0000
1000
0000
,
0001
0100
0010
0000
0100
0000
0001
0000
,
1000
0100
1000
0000
0100
0000
0010
0000
,
0002
0100
2003
0100
,
3001
0010
0001
0000
0010
0000
0001
0000
,
1000
0010
0100
0000
0010
0000
1000
0000
,
0001
0010
0100
0000
0010
0000
0001
0000
,
2000
0100
3002
0100
,
1003
0000
0000
0000
0000
0000
0100
0000
0000
0000
0000
1000
0000
0000
1000
0000
0000
0000
0001
0000
0000
0100
0000
0000
,
0001
0000
0000
0000
0000
0000
0010
0000
0000
0000
0000
0001
0000
0000
0001
0000
0000
0000
1000
0000
0000
0001
0000
0000
,
0100
0000
0000
0000
0000
0000
0010
0000
0000
0000
0000
1000
0000
0000
0001
0000
0000
0000
0020
0000
0000
0000
0000
0000
,
0130
0000
0000
1000
0000
0000
0001
0000
0000
0000
0000
0100
0000
0000
0010
0000
0000
0000
0100
0000
0000
0100
0000
0000
,
0001
0000
0000
0010
0000
0000
1000
0000
0000
0000
0000
0010
0000
0000
0001
0000
0000
0000
1000
0000
0000
0001
0000
0000
,
1000
0000
0000
0010
0000
0000
0001
0000
0000
0000
0000
0010
0000
0000
1000
0000
0000
0000
0002
0000
0000
0010
0000
0000
,
1003
0000
0000
0100
0000
0000
0001
0000
0000
0000
0000
0100
0000
0000
1000
0000
0000
0000
0001
0000
0000
0100
0000
0000
,
0110
0001
0110
1000
,
2001
0000
0000
0000
,
3020
0000
0000
0000
,
0230
0000
0000
0000
,
0301
0020
0000
0230
0000
2300
0000
3001
,
0200
0000
1000
0000
0000
0000
0310
1000
,
0002
0000
0010
0000
0000
0000
1003
0100
,
0020
0000
1000
0000
0000
0130
0010
0000
,
0002
0100
2003
0000
3002
0000
1003
0000
,
0001
0000
0000
0100
0000
0000
0001
0000
0000
0100
0000
0000
0010
0000
0000
0000
0000
0010
0000
0000
0000
1000
0000
0000
,
0000
0000
0000
0001
0000
0000
0010
0000
0000
0100
0000
0000
1000
0000
0000
0000
0000
1000
0000
0000
0000
0001
0000
0000
,
1000
0000
0000
0100
0000
0000
1000
0000
0000
0100
0000
0000
0010
0000
0000
0000
0000
0010
0000
0000
0000
0001
0000
0000
,
1000
0110
0001
0110
,
1000
0000
0000
0010
0000
0000
1000
0000
0000
0010
0000
0000
0100
0000
0000
0000
0000
0100
0000
0000
0000
0001
0000
0000
,
0000
0000
0000
1000
0000
0000
0100
0000
0000
0010
0000
0000
0001
0000
0000
0000
0000
0001
0000
0000
0000
1000
0000
0000
,
0001
0000
0000
0010
0000
0000
0001
0000
0000
0010
0000
0000
0100
0000
0000
0000
0000
0100
0000
0000
0000
1000
0000
0000
,
0001
0110
1000
0110
,
0002
0100
1000
0010
,
2003
0100
0001
0010
,
3002
0203
0320
2030
,
3200
0302
2003
3020
,
0031
0100
0001
0000
1000
0000
0010
0000
,
1000
0100
1000
0000
0001
0000
0010
0000
,
0002
0000
0000
0100
2003
0000
0000
0010
,
3002
0000
0000
0010
1003
0010
0100
0000
,
0220
0000
0000
0000
,
0330
0000
0000
0000
,
0000
0000
0000
0000
,
0001
0000
0000
1000
0000
0000
0100
0000
0000
0001
0000
0000
0100
0000
0000
0000
0000
0100
0000
0000
0000
0010
0000
0000
,
0001
0100
0010
0000
1000
0100
0010
0000
,
0001
0000
0000
0100
0000
0000
1000
0000
0000
0100
0000
0000
0001
0000
0000
0000
0000
0001
0000
0000
0000
1000
0000
0000
,
0000
0000
0000
0001
0000
0000
0010
0000
0000
1000
0000
0000
0010
0000
0000
0000
0000
0010
0000
0000
0000
0001
0000
0000
,
1000
0000
0000
0010
0000
0000
0001
0000
0000
0010
0000
0000
1000
0000
0000
0000
0000
1000
0000
0000
0000
0001
0000
0000
,
0010
0100
1000
0000
0010
0100
0001
0000
,
0100
0000
1010
0000
1000
0001
0100
0000
,
0001
0000
0000
0010
0000
0000
0001
0000
0000
0000
0000
0100
0000
0000
0100
0000
0000
0000
0001
0000
0000
1000
0000
0000
,
0100
0000
0000
0000
0000
0000
0010
0000
0000
0000
0000
0100
0000
0000
0100
0000
0000
0000
2000
0000
0000
0000
0000
0000
,
3010
0000
0000
0100
0000
0000
0001
0000
0000
0000
0000
1000
0000
0000
0010
0000
0000
0000
0001
0000
0000
0010
0000
0000
;

//---------------dance-single - t7r----------------
#NOTES:
     dance-single:
     t7r:
     Hard:
     13:
     :
0000
0000
0000
0000
,
0000
0000
0000
0000
,
0000
0000
0000
0000
,
0000
0000
0000
0000
,
0000
0000
0000
0000
,
0001
0000
0000
0100
0000
0000
0010
0000
0000
1000
0000
0000
0010
0000
0100
0000
0000
0001
0000
0000
1000
0100
0000
1000
,
0000
0000
0000
0100
0000
0000
0010
0000
0000
0001
0000
0000
0100
0000
0010
0000
0000
1000
0000
0000
0001
0100
0000
0001
,
1000
0000
0000
0010
0000
0000
0100
0000
0000
0001
0000
0000
0100
0000
0010
0000
0000
1000
0000
0000
0001
0010
0000
0100
,
0000
0000
0000
0000
0000
0000
0000
0000
0001
0010
0000
1000
0000
0000
0000
0000
0000
0000
0000
0000
0001
0010
0000
0001
,
1000
0000
0000
0010
0000
0000
1000
0000
0000
0001
0000
0000
0100
0000
0010
0000
0000
1000
0000
0000
0001
0010
0000
0001
,
0000
0000
0000
0010
0000
0000
0001
0000
0000
1000
0000
0000
0010
0000
0100
0000
0000
0001
0000
0000
1000
0010
0000
1000
,
0001
0000
0000
0100
0000
0000
0010
0000
0000
1000
0000
0000
0010
0000
0100
0000
0000
0001
0000
0000
1000
0100
0000
0010
,
0000
0000
0000
0000
0000
0000
0000
0000
1000
0100
0000
0001
0000
0000
0000
0000
0000
0000
0000
0000
1000
0100
0000
0010
,
0001
0000
0000
0100
0000
0000
0010
0000
0000
0100
0000
1000
0000
0000
1000
0000
0000
1000
0100
0000
0000
0010
0000
0000
,
1000
0000
0000
0100
0000
0000
0010
0000
0000
0100
0000
0001
0000
0000
0001
0000
0000
0001
0100
0000
0000
0010
0000
0000
,
0100
0000
0000
1000
0000
0000
0010
0000
0000
0001
0000
0010
0000
0000
0010
0000
0000
0010
0100
0000
0000
0001
0000
0000
,
1000
0000
0000
0100
0000
0000
0010
0000
1000
0000
0000
0010
0000
0000
0010
0000
0000
0010
0100
0000
0000
1000
0000
0000
,
0001
0000
1000
0001
0000
1000
0001
0000
0100
0000
0000
0010
0000
0000
0010
0000
0000
0010
0001
0000
0000
0010
0000
0000
,
1000
0000
0001
1000
0000
0001
1000
0000
0100
0000
0000
0010
0000
0000
0010
0000
0000
0010
1000
0000
0000
0010
0000
0000
,
0001
0000
1000
0001
0000
0000
0101
0000
0000
0000
0000
0100
0000
0000
0100
0000
0000
0100
1000
0000
0000
0100
0000
0000
,
0110
0001
1001
0010
,
2000
0100
0000
3001
,
0002
0100
0000
1003
,
2000
0000
0010
0000
0000
0000
3001
0100
,
0001
0020
0000
0130
1000
1000
0001
0100
,
0020
0001
0000
0130
,
0200
1000
0000
0310
,
2000
0100
0000
3001
,
0200
0010
0302
0010
2003
0100
3001
0000
,
1000
0000
0000
0100
0000
0000
0001
0000
0000
0100
0000
0000
0010
0000
0100
0000
0000
1000
0000
0000
0001
0100
0000
0001
,
0000
0000
0000
0100
0000
0000
0010
0000
0000
0100
0000
0000
1000
0000
0100
0000
0000
0001
0000
0000
1000
0100
0000
1000
,
0001
0000
0000
0010
0000
0000
1000
0000
0000
0010
0000
0000
0100
0000
0010
0000
0000
0001
0000
0000
1000
0010
0000
0100
,
0000
0000
0000
0000
0000
0000
0000
0000
1000
0010
0000
0001
0000
0000
0000
0000
0000
0000
0000
0000
1000
0010
0000
1000
,
0001
0000
0000
0010
0000
0000
1000
0000
0000
0010
0000
0000
0100
0000
0010
0000
0000
0001
0000
0000
1000
0010
0000
1000
,
0000
0000
0000
0010
0000
0000
0100
0000
0000
0010
0000
0000
0001
0000
0010
0000
0000
1000
0000
0000
0001
0010
0000
0001
,
1000
0000
0000
0100
0000
0000
0001
0000
0000
0100
0000
0000
0010
0000
0100
0000
0000
1000
0000
0000
0001
0100
0000
0010
,
0000
0000
0000
0000
0000
0000
0000
0000
0001
0100
0000
1000
0000
0000
0000
0000
0000
0000
0000
0000
0001
0010
0000
0100
,
0001
0100
1000
0010
,
0001
0000
0000
0000
0000
0000
0010
0000
0000
0000
0000
0000
0100
0000
0010
0000
0000
0100
0000
0000
0001
0000
0000
0001
,
1000
0000
0010
0100
0020
0000
0130
0001
0200
0000
0301
1000
0002
0000
0103
0001
,
2000
0100
3002
0010
,
1003
0010
0100
0010
0001
0010
1000
0100
,
0001
0000
0000
0100
0000
0000
0010
0000
0000
0100
0000
0000
1000
0000
0010
0000
0100
0000
0000
0001
0000
0000
0001
0000
,
0020
0000
0000
0000
0000
0000
0031
0100
0020
0000
0000
0000
0000
0000
1030
0001
,
0020
0000
0000
0000
0130
1000
0001
0000
0000
1001
0000
0000
,
0220
0000
0000
0000
,
0330
0000
0000
0000
,
0000
0000
0000
0000
,
1000
0000
0000
0010
0000
0000
0001
0000
0000
0010
0000
0000
0100
0000
0010
0000
0000
0100
0000
0000
0001
0010
0000
1000
,
0000
0000
0000
0000
0000
0000
0000
0000
0001
0100
0000
0010
0000
0000
0000
0000
0000
0000
0000
0000
0001
1000
0000
0010
,
1000
0000
0000
0010
0000
0000
0100
0000
0000
1000
0000
0000
0100
0000
0010
0000
0000
0100
0000
0000
1000
0100
0000
0001
,
0000
0000
0000
1000
0000
0000
0100
0000
0000
0010
0000
0000
1000
0000
0001
0000
0000
0100
0000
0000
1000
0010
0000
0100
,
1000
0000
0000
0100
0000
0000
0001
0000
0000
0010
0000
0000
1000
0000
0010
0000
0000
0100
0000
0000
1000
0010
0000
0001
,
0000
0000
0000
0000
0000
0000
0000
0000
0000
0000
0000
0000
0000
0000
0000
0000
1000
0000
0100
0000
0000
0000
0010
0000
0000
0000
0000
0000
0000
0000
2000
0000
0000
0000
0000
0000
3100
0000
0000
0010
0000
0000
0001
0000
0000
1000
0000
0000
,
0001
0000
0000
0000
0000
0000
0011
0000
0000
0010
0000
0001
0000
0000
1000
0000
0000
0010
1000
0000
0000
0001
0000
0000
,
1000
0000
0010
0100
0000
0000
0001
0000
0000
0010
0000
0100
0000
0000
0010
0000
0000
0001
1000
0000
0010
1000
0000
0001
,
1000
0000
0000
0100
0000
0000
0010
0000
0000
0100
0000
0001
0000
0000
0100
0000
0000
0010
0200
0000
0000
0001
0000
0000
,
0310
0000
0001
0100
0000
0000
1000
0000
0000
0100
0000
0010
0000
0000
0010
0000
0000
0010
1000
0000
0001
0010
0000
0100
;

//---------------dance-double - t7r----------------
#NOTES:
     dance-double:
     t7r:
     Easy:
     5:
     :
00000000
00000000
00000000
00000000
,
00000000
00000000
00000000
00000000
,
00000000
00000000
00000000
00000000
,
00000000
00000000
00000000
00000000
,
00000000
00000000
00000000
00000000
,
00010000
00000100
00001000
00000000
,
00000001
00000100
00000010
00000000
,
00001000
00000100
00010000
00000000
,
00001000
00000000
00001000
00000000
,
01000000
00010000
10000000
00000000
,
01000000
00100000
00010000
00000000
,
00001000
00000010
00001000
00000000
,
00000001
00000000
00000001
00000000
,
00000000
00000010
00000001
00000100
,
00000000
00001000
00010000
01000000
,
00000000
00100000
00010000
10000000
,
00000000
00100000
00010000
00001000
,
00010000
00011000
00000000
00000100
,
00001000
00001001
00000000
00000001
,
00000100
00001000
00010000
01000000
,
10000000
00000000
01100000
00000000
,
20000000
00000000
00000000
00000000
,
32000000
00000000
00000000
00000000
,
03200000
00000000
00000000
00000000
,
00302000
00000000
00013000
00010000
,
00000020
00000000
00000000
00000000
,
00000230
00000000
00000000
00000000
,
00000302
00000000
00000000
00000000
,
00001003
00000001
00000100
00000000
,
00001000
01000000
00010000
00010000
,
10000000
01000000
00100000
00100000
,
00001000
00010000
00000100
00000100
,
00001000
00000000
00001000
00000000
,
00000001
00000100
00000010
00000010
,
00001000
00000100
00010000
00010000
,
00001000
00010000
01000000
01000000
,
10000000
00000000
10000000
00000000
,
00200000
00000000
01300000
00000000
,
00002000
00000000
00013000
00000000
,
00000020
00002030
00003002
00000003
,
00000020
00000230
00020300
00032000
,
00013000
00010000
00001000
00000000
,
01000000
01000000
00100000
00000000
,
20000000
00000000
31000000
00000000
,
00020000
00000000
00031000
00000000
,
00000020
00000000
00000000
00000000
,
00000030
00000000
00000000
00000000
,
00000000
00000000
00000000
00000000
,
00000001
00000100
00000001
00000001
,
00001000
00000000
00000100
00000000
,
00010000
00001000
00010000
00010000
,
00100000
10000000
00010000
00010000
,
00100000
00001000
00010000
00010000
,
00001000
00000000
00000010
00000000
,
00000000
00000001
00000100
00000001
,
00001000
00000100
00000010
00000010
,
00000100
00010000
00001000
02000000
,
03010000
01000000
00100000
00100000
;

//---------------dance-double - t7r----------------
#NOTES:
     dance-double:
     t7r:
     Medium:
     9:
     :
00000000
00000000
00000000
00000000
,
00000000
00000000
00000000
00000000
,
00000000
00000000
00000000
00000000
,
00000000
00000000
00000000
00000000
,
00000000
00000000
00000000
00000000
,
00010000
00001000
00010000
00000000
00000100
00000000
00001000
00000000
,
00000001
00000100
00000001
00000000
00001000
00000000
00000100
00000000
,
00010000
00001000
00010000
00000000
00001000
00000000
01000000
00000000
,
00020000
00100000
20030000
00100000
,
30010000
00100000
00010000
00000000
10000000
00000000
00100000
00000000
,
00010000
00001000
00010000
00000000
00001000
00000000
00000010
00000000
,
00000001
00001000
00000001
00000000
00000100
00000000
00001000
00000000
,
00020000
00000100
00032000
01000000
,
00013000
00000000
00000000
00000000
00000000
00000000
00001000
00000000
00000000
00000000
00000000
01000000
00000000
00000000
01000000
00000000
00000000
00000000
00010000
00000000
00000000
10000000
00000000
00000000
,
01000000
00000000
00000000
00000000
00000000
00000000
00100000
00000000
00000000
00000000
00000000
00001000
00000000
00000000
00001000
00000000
00000000
00000000
00010000
00000000
00000000
00001000
00000000
00000000
,
00010000
00000000
00000000
00000000
00000000
00000000
00000010
00000000
00000000
00000000
00000000
00001000
00000000
00000000
00000001
00000000
00000000
00000000
00000200
00000000
00000000
00000000
00000000
00000000
,
00000301
00000000
00000000
00000000
00000000
00000000
00000010
00000000
00000000
00000000
00000000
00000100
00000000
00000000
00001000
00000000
00000000
00000000
00010000
00000000
00000000
00010000
00000000
00000000
,
01000000
00000000
00000000
00000000
00000000
00000000
10100000
00000000
00000000
00000000
00000000
10000000
00000000
00000000
01000000
00000000
00000000
00000000
00010000
00000000
00000000
00001000
00000000
00000000
,
00010000
00000000
00000000
00000000
00000000
00000000
00001100
00000000
00000000
00000000
00000000
00001000
00000000
00000000
00000010
00000000
00000000
00000000
00002000
00000000
00000000
00000100
00000000
00000000
,
00003001
00000000
00000000
00000000
00000000
00000000
00000110
00000000
00000000
00000000
00000000
00000001
00000000
00000000
00000010
00000000
00000000
00000000
00001000
00000000
00000000
00010000
00000000
00000000
,
00000100
00011000
01000000
00011000
,
00002000
00000000
00000000
00000000
,
02003000
00000000
00000000
00000000
,
03020000
00000000
00000000
00000000
,
10030000
00200000
00000000
02300000
00000000
03020000
00000000
10030000
,
02000000
10000000
00000000
00100000
,
03020000
01000000
00000000
00001000
,
00030200
00000010
00000000
00001300
,
00000002
00000203
00002300
00003000
,
00010000
00000000
00000000
00001000
00000000
00000000
00010000
00000000
00000000
00001000
00000000
00000000
01000000
00000000
00000000
00000000
00000000
01000000
00000000
00000000
00000000
00010000
00000000
00000000
,
00000000
10000000
01000000
00000000
00100000
00010000
10000000
00000000
,
00010000
00000000
00000000
00100000
00000000
00000000
00010000
00000000
00000000
00100000
00000000
00000000
00001000
00000000
00000000
00000000
00000000
00001000
00000000
00000000
00000000
00000000
00000000
00000000
,
00000010
00001100
00000010
00000101
,
00000001
00000000
00000000
00000010
00000000
00000000
00000001
00000000
00000000
00000010
00000000
00000000
00000100
00000000
00000000
00000000
00000000
00000100
00000000
00000000
00000000
00001000
00000000
00000000
,
00000000
00000000
00000000
00000001
00000000
00000000
00000100
00000000
00000000
00001000
00000000
00000000
00010000
00000000
00000000
00000000
00000000
00010000
00000000
00000000
00000000
00001000
00000000
00000000
,
01000000
00000000
00000000
00010000
00000000
00000000
01000000
00000000
00000000
00010000
00000000
00000000
00100000
00000000
00000000
00000000
00000000
00100000
00000000
00000000
00000000
00000000
00000000
00000000
,
00010000
01100000
10000000
01100000
,
20000000
01000000
30010000
00100000
,
00002000
00010000
01003000
00001000
,
00020000
00030020
00002030
00003002
,
00000203
00002300
00023000
00230000
,
10300000
01000000
10000000
00000000
00010000
00000000
00100000
00000000
,
00001000
00010000
00001000
00000000
00010000
00000000
00000010
00000000
,
00002000
00000000
00000000
00000100
00003002
00000000
00000000
00000100
,
00002003
00000000
00000000
00000001
00003010
00000000
00010000
00000000
,
00022000
00000000
00000000
00000000
,
00033000
00000000
00000000
00000000
,
00000000
00000000
00000000
00000000
,
01000000
00000000
00000000
00010000
00000000
00000000
10000000
00000000
00000000
00000000
00000000
00000000
01000000
00000000
00000000
00000000
00000000
01000000
00000000
00000000
00000000
00010000
00000000
00000000
,
00002000
00000000
00003100
00001000
00020000
00000000
01030000
00010000
,
00001000
00000000
00000000
00000000
00000000
00000000
00010000
00000000
00000000
00000100
00000000
00000000
00001000
00000000
00000000
00000000
00000000
00001000
00000000
00000000
00000000
00000001
00000000
00000000
,
00000100
00000000
00001000
00000000
00010000
00100000
01000000
00000000
,
00010000
00100000
00010000
00000000
10000000
01000000
00010000
00001000
,
00020000
00000000
00031000
00000100
00000001
00001000
00000001
00000000
,
00000100
00000000
00001010
00000000
00001000
00000001
00000100
00000000
,
00000001
00000000
00000000
00000010
00000000
00000000
00000100
00000000
00000000
00000000
00000000
00010000
00000000
00000000
00010000
00000000
00000000
00000000
00001000
00000000
00000000
00100000
00000000
00000000
,
00010000
00000000
00000000
00000000
00000000
00000000
10000000
00000000
00000000
00000000
00000000
00100000
00000000
00000000
00100000
00000000
00000000
00000000
02000000
00000000
00000000
00000000
00000000
00000000
,
03010000
00000000
00000000
10000000
00000000
00000000
01000000
00000000
00000000
00000000
00000000
00010000
00000000
00000000
00001000
00000000
00000000
00000000
00000100
00000000
00000000
00000001
00000000
00000000
;

//---------------dance-double - t7r----------------
#NOTES:
     dance-double:
     t7r:
     Hard:
     13:
     :
00000000
00000000
00000000
00000000
,
00000000
00000000
00000000
00000000
,
00000000
00000000
00000000
00000000
,
00000000
00000000
00000000
00000000
,
00000000
00000000
00000000
00000000
,
00010000
00000000
00000000
00001000
00000000
00000000
01000000
00000000
00000000
00010000
00000000
00000000
10000000
00000000
01000000
00000000
00000000
00100000
00000000
00000000
00010000
10000000
00000000
01000000
,
00000000
00000000
00000000
10000000
00000000
00000000
00100000
00000000
00000000
01000000
00000000
00000000
00010000
00000000
10000000
00000000
00000000
01000000
00000000
00000000
00010000
00001000
00000000
00010000
,
00000100
00000000
00000000
00001000
00000000
00000000
00000010
00000000
00000000
00000100
00000000
00000000
00000001
00000000
00001000
00000000
00000000
00000100
00000000
00000000
00010000
00001000
00000000
00000100
,
00000000
00000000
00000000
00000000
00000000
00000000
00000000
00000000
00001000
00010000
00000000
01000000
00000000
00000000
00000000
00000000
00000000
00000000
00000000
00000000
00010000
00001000
00000000
00010000
,
00001000
00000000
00000000
00010000
00000000
00000000
00000010
00000000
00000000
00001000
00000000
00000000
00000001
00000000
00000010
00000000
00000000
00000100
00000000
00000000
00001000
00000001
00000000
00000010
,
00000000
00000000
00000000
00000001
00000000
00000000
00000100
00000000
00000000
00000010
00000000
00000000
00001000
00000000
00000001
00000000
00000000
00000010
00000000
00000000
00001000
00010000
00000000
00001000
,
00100000
00000000
00000000
00010000
00000000
00000000
01000000
00000000
00000000
00100000
00000000
00000000
10000000
00000000
00010000
00000000
00000000
00100000
00000000
00000000
00001000
00010000
00000000
00100000
,
00000000
00000000
00000000
00000000
00000000
00000000
00000000
00000000
00010000
00001000
00000000
00000010
00000000
00000000
00000000
00000000
00000000
00000000
00000000
00000000
00001000
00010000
00000000
00001000
,
00010000
00000000
00000000
00000000
00000000
00000000
01000000
00000000
00000000
10000000
00000000
00100000
00000000
00000000
00100000
00000000
00000000
00100000
01000000
00000000
00000000
00010000
00000000
00000000
,
10000000
00000000
00000000
01000000
00000000
00000000
00100000
00000000
00000000
00001000
00000000
00010000
00000000
00000000
00010000
00000000
00000000
00010000
00001000
00000000
00000000
00000010
00000000
00000000
,
00000001
00000000
00000000
00000100
00000000
00000000
00000001
00000000
00000000
00001000
00000000
00000100
00000000
00000000
00000100
00000000
00000000
00000100
00001000
00000000
00000000
00000001
00000000
00000000
,
00000000
00000000
00000000
00000100
00000000
00000000
00001000
00000000
00010000
00000000
00000000
00001000
00000000
00000000
00001000
00000000
00000000
00001000
00100000
00000000
00000000
00100000
00000000
00000000
,
00020000
00000000
00000000
01000000
00000000
00000000
10030000
00000000
00010000
00000000
00000000
10000000
00000000
00000000
10000000
00000000
00000000
10000000
01000000
00000000
00000000
00010000
00000000
00000000
,
00002000
00000000
00000000
00010000
00000000
00000000
01003000
00000000
00010000
00000000
00000000
00100000
00000000
00000000
00100000
00000000
00000000
00100000
00002000
00000000
00000000
00000000
00000000
00000000
,
00023000
00000000
00000000
00001000
00000000
00000000
00030010
00000000
00000000
00000000
00001000
00000000
00000000
00001000
00000000
00000000
00001000
00000000
00000010
00000000
00000000
00000100
00000000
00000000
,
00000001
00001100
00010000
00011000
,
00002000
01000000
00000000
00013000
,
00020000
00000000
00000100
00000000
00000000
00000000
00031000
00010000
,
00002000
00000000
00100000
00000000
00000000
00000000
00013000
00001000
,
00000010
00000100
00000000
00001000
00000001
00000001
00000100
00000100
,
00002000
00000000
00100000
00000000
00000000
00000000
00013000
00001000
,
00020000
00000000
00000010
00000000
00000000
00000000
00031000
00010000
,
00002000
01000000
00000000
00013000
,
00200000
01000000
20300000
01000000
30020000
01000000
10030000
00000000
,
01000000
00000000
00000000
00010000
00000000
00000000
00001000
00000000
00000000
01000000
00000000
00000000
00100000
00000000
00010000
00000000
00000000
00001000
00000000
00000000
00010000
00001000
00000000
00010000
,
00000000
00000000
00000000
00001000
00000000
00000000
00000100
00000000
00000000
00000010
00000000
00000000
00001000
00000000
00000100
00000000
00000010
00000000
00000000
00000000
00000001
00001000
00000000
00000001
,
00000100
00000000
00000000
00001000
00000000
00000000
00010000
00000000
00000000
00000100
00000000
00000000
00000010
00000000
00001000
00000000
00000000
00010000
00000000
00000000
00001000
00010000
00000000
01000000
,
00000000
00000000
00000000
00000000
00000000
00000000
00000000
00000000
00010000
00001000
00000000
00000100
00000000
00000000
00000000
00000000
00000000
00000000
00000000
00000000
00000001
00001000
00000000
00000001
,
00000010
00000000
00000000
00001000
00000000
00000000
00010000
00000000
00000000
00000010
00000000
00000000
00000100
00000000
00001000
00000000
00000000
00010000
00000000
00000000
00001000
00010000
00000000
00001000
,
00000000
00000000
00000000
00010000
00000000
00000000
00100000
00000000
00000000
01000000
00000000
00000000
00010000
00000000
00100000
00000000
00000000
01000000
00000000
00000000
10000000
00010000
00000000
10000000
,
00100000
00000000
00000000
00010000
00000000
00000000
00001000
00000000
00000000
00100000
00000000
00000000
01000000
00000000
00010000
00000000
00000000
00001000
00000000
00000000
00010000
00001000
00000000
00000010
,
00000000
00000000
00000000
00000000
00000000
00000000
00000000
00000000
00001000
00010000
00000000
00100000
00000000
00000000
00000000
00000000
00000000
00000000
00000000
00000000
10000000
00010000
00000000
10000000
,
01000000
00010000
00001000
00000100
,
00000001
00000000
00000000
00000000
00000000
00000000
00000010
00000000
00000000
00000000
00000000
00000000
00001000
00000000
00010000
00000000
00000000
00001000
00000000
00000000
00010000
00000000
00000000
00010000
,
00000200
00001000
00020300
00000000
00032000
00010000
02003000
00000000
,
03020000
20030000
30200000
00320000
,
00031000
01000000
00010000
00000000
10000000
01000000
00100000
00000000
,
00001000
00000000
00000000
00010000
00000000
00000000
00000010
00000000
00000000
00000000
00000000
00000000
00001000
00000000
00000100
00000000
00000000
00000010
00000000
00000000
00000001
00000000
00000000
00000001
,
00002000
00000000
00000000
00000000
00003100
00000000
00010000
00001000
00020000
00000000
00000000
00000000
00031000
00000000
00010000
00001000
,
02000000
00000000
00000000
00000000
00000000
00000000
03010000
00000000
00100000
00000000
01000000
00000000
10000000
00000000
00000000
10000000
00000000
00000000
00100000
00000000
00000000
00100000
00000000
00000000
,
00020000
00000000
00000000
00000000
,
00030000
00000000
00000000
00000000
,
00000000
00000000
00000000
00000000
,
00001000
00000000
00000000
00010000
00000000
00000000
00100000
00000000
00000000
10000000
00000000
00000000
00010000
00000000
00100000
00000000
00000000
00001000
00000000
00000000
00010000
00001000
00000000
00000100
,
00000000
00000000
00000000
00000000
00000000
00000000
00000000
00000000
00001000
00010000
00000000
01000000
00000000
00000000
00000000
00000000
00000000
00000000
00000000
00000000
00010000
00001000
00000000
00010000
,
00000010
00000000
00000000
00000100
00000000
00000000
00001000
00000000
00000000
00000100
00000000
00000000
00000001
00000000
00001000
00000000
00000000
00000100
00000000
00000000
00000001
00000100
00000000
00001000
,
00000000
00000000
00000000
00000001
00000000
00000000
00000100
00000000
00000000
00001000
00000000
00000000
00010000
00000000
00100000
00000000
00000000
10000000
00000000
00000000
00010000
00100000
00000000
00001000
,
00010000
00000000
00000000
00001000
00000000
00000000
00000010
00000000
00000000
00000100
00000000
00000000
00001000
00000000
00000100
00000000
00000000
00010000
00000000
00000000
00001000
00010000
00000000
00100000
,
00000000
00000000
00000000
00000000
00000000
00000000
00000000
00000000
00000000
00000000
00000000
00000000
00000000
00000000
00000000
00000000
00010000
00000000
00001000
00000000
00000000
00000000
00000010
00000000
00000000
00000000
00000000
00000000
00000000
00000000
00000002
00000000
00000000
00000000
00000000
00000000
00000103
00000000
00000000
00000010
00000000
00000000
00001000
00000000
00000000
00000000
00000000
00000000
,
00000001
00000000
00000000
00000000
00000000
00000000
00000100
00000000
00000000
00001000
00000000
00000100
00000000
00000000
00000100
00000000
00000000
00000100
00000001
00000000
00000000
00000000
00000000
00000000
,
00000010
00000000
00001000
00010000
00000000
00000000
00001000
00000000
00000000
01000000
00000000
00010000
00000000
00000000
00010000
00000000
00000000
00010000
00000000
00000000
10000000
01000000
00000000
00100000
,
00010000
00000000
00000000
01000000
00000000
00000000
10000000
00000000
00000000
01000000
00000000
00010000
00000000
00000000
00010000
00000000
00000000
00010000
20000000
00000000
00000000
00000000
00000000
00000000
,
31000000
00000000
00010000
00001000
00000000
00000000
00000100
00000000
00000000
00000010
00000000
00001000
00000000
00000000
00001000
00000000
00000000
00001000
00000100
00000000
00010000
00001000
00000000
00100000
;
