#VERSION:0.83;
#TITLE:Howling;
#SUBTITLE:;
#ARTIST:PON;
#TITLETRANSLIT:;
#SUBTITLETRANSLIT:;
#ARTISTTRANSLIT:;
#GENRE:NU RAVE;
#CREDIT:;
#MUSIC:Howling.ogg;
#BANNER:Howling.png;
#BACKGROUND:Howling-bg.png;
#CDTITLE:;
#SAMPLESTART:17.253;
#SAMPLELENGTH:15.000;
#SELECTABLE:YES;
#OFFSET:1.328;
#BPMS:0.000=155.000;
#STOPS:;
#TIMESIGNATURES:0.000=4=4;
#BGCHANGES:-4.000=Howling.mp4=1.000=0=0=0=StretchNoLoop====,
99999.000=-nosongbg-=1.000=0=0=0=StretchNoLoop====
;
#FGCHANGES:;

//--------------- dance-single - Extraordiberry ----------------
#NOTEDATA:;
#STEPSTYPE:dance-single;
#DESCRIPTION:Extraordiberry;
#DIFFICULTY:Beginner;
#METER:4;
#RADARVALUES:0,0,0,0,0;
#CREDIT:Extraordiberry;
#NOTES:
0000
0000
0000
0000
,
0000
0000
0000
0000
,
0000
0000
0000
0000
,
0000
0000
0000
0000
,
0000
0000
0000
0000
,
1000
0000
0000
0000
,
0001
0000
0001
0000
,
0010
0000
0010
0000
,
0200
0000
0000
0000
,
0000
0000
0300
0000
,
1000
0000
1000
0000
,
0001
0000
1001
0000
,
1000
0000
1000
0000
,
0001
0000
0001
0000
,
0100
0000
0010
0000
,
1000
1000
1000
0000
,
0001
0000
1000
0000
,
0100
0000
0100
0000
,
0010
0000
0001
0000
,
1000
0000
1001
0000
,
0001
0000
0001
0000
,
0100
0000
0100
0000
,
0010
0000
0010
0000
,
1000
1000
1000
0000
,
0001
0000
0010
0000
,
0100
0000
1000
0000
,
0001
0000
0100
0000
,
0001
0000
1001
0000
,
1000
0000
0000
0000
,
0100
0000
0000
0000
,
0010
0000
0000
0000
,
0001
0000
0000
0000
,
1000
0000
0000
0000
,
0010
0000
0000
0000
,
0100
0000
0000
0000
,
0001
0000
1000
0000
,
0001
0000
0001
0000
,
0001
0000
0001
0000
,
1000
0000
1000
0000
,
1000
0000
0001
0000
,
0100
0000
0100
0000
,
0100
0000
0100
0000
,
0001
0000
0001
0000
,
0001
0000
0001
0000
,
1000
0000
1000
0000
,
1000
1000
1000
1000
,
0002
0000
0000
0000
,
0000
0000
0003
0000
,
1000
0000
1000
0000
,
0001
0001
0001
0000
,
1000
0000
0100
0000
,
0010
0000
0010
0000
,
0001
0000
0100
0000
,
0020
0000
1030
0000
,
1000
0000
0100
0000
,
0010
0000
0010
0000
,
0001
0000
1000
0000
,
0010
0010
0010
0000
,
1000
0000
0100
0000
,
0010
0000
0010
0000
,
0001
0000
0100
0000
,
0001
0000
1001
0000
,
1000
1000
1000
0000
,
0001
0001
0001
0000
,
0010
0000
0100
0000
,
1001
0000
1001
0000
,
0001
0001
0001
0000
,
1000
1000
1000
0000
,
0010
0000
0100
0000
,
0001
0001
0001
0000
,
2002
0000
0000
0000
,
3003
0000
0000
0000
;

//--------------- dance-single - Extraordiberry ----------------
#NOTEDATA:;
#STEPSTYPE:dance-single;
#DESCRIPTION:Extraordiberry;
#DIFFICULTY:Easy;
#METER:7;
#RADARVALUES:0,0,0,0,0;
#CREDIT:Extraordiberry;
#NOTES:
0000
0000
0000
0000
,
0000
0000
0000
0000
,
0000
0000
0000
0000
,
0000
0000
0000
0000
,
0000
0000
0000
0000
,
1000
0001
1001
0000
,
0100
0010
0110
0000
,
1000
0100
0010
0001
,
0200
0000
0000
0300
,
0020
0000
0000
0030
,
1000
1000
0100
0100
,
0010
0010
0002
0000
,
1003
0001
1001
0000
,
0100
0010
0110
0000
,
0001
0100
0010
1000
,
0100
0010
1001
0000
,
0001
1000
1001
0000
,
0100
0010
0110
0000
,
1000
0100
0010
0001
,
0100
0100
0020
0000
,
1030
1000
0100
0100
,
0001
0100
1000
1000
,
0001
0100
0010
0010
,
1000
0100
1001
0000
,
0001
0001
0100
0100
,
1000
0100
0001
0001
,
1000
0100
0010
0010
,
0001
0100
1000
0100
,
0001
0010
0100
0010
,
0001
1000
0010
0100
,
0001
0001
0001
0000
,
1000
1000
1000
0000
,
1000
0010
0100
0010
,
1000
0001
0010
0100
,
1000
0100
0010
0010
,
0100
1000
0001
0001
,
2000
3000
0002
0003
,
0200
0300
0020
0030
,
2000
3000
0200
0300
,
0020
0030
0001
0001
,
2000
3000
0020
0030
,
0200
0300
0002
0003
,
1000
1000
0001
0001
,
0010
0010
0100
0100
,
1000
1000
1000
1000
,
0001
0000
0001
0000
1000
0001
1000
0000
,
0002
0000
0000
0003
,
0200
0000
0000
0300
,
0002
0000
0000
0003
,
0100
0100
0110
0000
,
1000
0001
1001
0000
,
0100
0010
0110
0000
,
1000
0100
0010
0001
,
0200
0000
0001
0301
,
1000
0001
1001
0000
,
0100
0010
0110
0000
,
0001
0100
0010
1000
,
1001
0010
1001
0000
,
0001
1000
1001
0000
,
0100
0010
0110
0000
,
1000
0100
0010
0001
,
0100
0100
0020
0000
,
1030
1000
0100
0100
,
0010
0010
0001
0001
,
1000
0010
0001
0010
,
1000
0001
1001
1001
,
0001
0001
0100
0100
,
0010
0010
1000
1000
,
0001
0010
0100
1000
,
1001
0010
0110
1000
,
2002
0000
0000
0000
,
3003
0000
0000
0000
;

//--------------- dance-single - Extraordiberry ----------------
#NOTEDATA:;
#STEPSTYPE:dance-single;
#DESCRIPTION:Extraordiberry;
#DIFFICULTY:Medium;
#METER:11;
#RADARVALUES:0,0,0,0,0;
#CREDIT:Extraordiberry;
#NOTES:
0000
0000
0000
0000
,
0000
0000
0000
0000
,
0000
0000
0000
0000
,
0000
0000
0000
0000
,
0000
0000
0000
0000
,
0001
0010
0100
0000
1100
0000
0000
1000
,
0010
0010
0100
0000
0101
0000
0000
0001
,
0020
0000
0000
0130
0020
0000
0000
0031
,
2000
0000
0000
0000
,
3020
0000
0000
0000
,
0130
0000
0000
0100
0000
0000
0001
0000
1000
0000
0000
1000
0000
0000
0100
0000
,
0010
0000
0000
0010
0000
0000
0001
0000
1000
0000
1000
0000
0010
0000
0010
0000
,
0100
0001
1000
0000
1100
0000
0100
1000
,
0001
0100
0010
0000
0101
0000
0001
0010
,
0200
0000
1300
0010
0200
0000
0301
0001
,
1000
0100
0001
0100
1000
0000
1001
0000
,
1000
0010
0100
0000
1010
0000
0010
1000
,
0001
0010
0100
0000
0011
0000
0001
0100
,
0020
0000
1030
0100
0020
0000
0031
0100
,
1000
1000
0100
0100
0002
0000
0000
0000
,
1003
0000
0000
0100
0000
0000
1000
0000
0001
0000
0000
0100
0000
0000
0001
0000
,
0010
0000
0000
0010
0000
0000
0001
0000
0100
0000
0000
0100
0000
0000
0001
0000
,
1000
0100
0010
0000
0001
0100
0010
0000
,
1000
0100
0001
0100
1000
0000
1001
0000
,
0001
0000
0000
0100
0000
0000
0001
0000
1000
0000
0000
0100
0000
0000
1000
0000
,
0010
0000
0000
0010
0000
0000
1000
0000
0100
0000
0000
0100
0000
0000
1000
0000
,
0001
0100
0010
0000
1000
0100
0010
0000
,
0001
0100
1000
0001
0010
1000
0001
0000
,
1000
0000
0100
0000
0010
0000
0001
0000
1000
0000
0000
1000
0000
0000
1000
0000
,
0001
0000
0100
0000
0010
0000
1000
0000
0001
0000
0000
0001
0000
0000
0001
0000
,
2000
0000
0000
0000
0100
0000
0000
0000
0001
0000
0000
0001
0000
0000
3001
0000
,
0002
0000
0000
0000
0100
0000
0000
0000
1000
0000
0000
1000
0000
0000
1003
0000
,
0001
0000
0010
0000
0100
0000
0010
0000
0001
0000
0000
0001
0000
0000
0001
0000
,
1000
0000
0010
0000
0100
0000
0010
0000
1000
0000
0000
1000
0000
0000
1000
0000
,
0001
0000
0010
0000
0100
0000
1000
0000
0001
0000
0000
1000
0000
0000
1001
0000
,
0000
0001
0100
1000
0001
0010
1000
0000
,
0001
0002
0000
0000
0013
0020
0000
0000
,
0130
0200
0000
0000
0310
0020
0000
0000
,
0031
0002
0000
0000
0103
0200
0000
0000
,
0310
0000
0000
0020
0000
0000
0000
0000
0000
0000
0000
0000
0130
0000
0000
0000
0001
0000
0200
0000
0000
0000
0000
0000
,
0301
0002
0000
0010
0013
0020
0000
0100
,
0130
0200
0000
0010
0310
0020
0000
0001
,
0031
0000
1000
0002
0000
0000
0103
0000
0010
0200
0000
0000
,
0301
0000
1000
0002
0000
0000
0013
0000
0100
0020
0000
0000
,
0031
0000
1000
0001
0000
1000
0001
0000
1000
0001
0000
1000
,
0010
0100
0010
0100
0010
0010
0110
0000
,
2001
0000
0200
3300
,
1002
1000
0200
0303
,
2000
0100
0001
3010
,
2000
3000
0020
0030
0002
0003
0020
0030
2000
0000
0000
0000
3000
0000
0000
0000
,
0001
0100
0010
0000
1010
0000
0000
1000
,
0100
0100
0010
0000
0011
0000
0001
0100
,
0020
0000
1030
0100
0020
0000
0031
1000
,
0002
0000
0000
0000
0000
0000
0000
0000
0100
0000
0000
1000
0000
0000
0013
0000
,
0001
1000
0010
0000
1010
0000
0010
1000
,
0001
0010
0100
0000
0011
0000
0001
0100
,
0020
0000
1030
0100
0020
0000
0031
0001
,
1000
0010
0001
0010
1000
0000
1001
0000
,
1000
0100
0010
0000
1100
0000
0100
1000
,
0001
0100
0010
0000
0101
0000
0001
0010
,
0200
0000
1300
0010
0200
0000
0301
0010
,
1000
1000
0010
0010
0002
0000
0100
0000
,
1003
0000
0000
0001
0000
1000
0010
0000
0010
0000
0000
1000
0000
0001
0010
0000
,
0010
0000
0000
0100
0000
1000
0001
0000
0001
0000
0000
0100
0000
0000
0010
0000
,
1000
0100
0010
0001
0100
0010
1000
0000
,
0001
0010
1000
0010
0001
0000
1001
0000
,
0001
0000
0000
1000
0000
0001
0010
0000
0010
0000
0000
0001
0000
1000
0010
0000
,
0010
0000
0000
0100
0000
0001
1000
0000
1000
0000
0000
0100
0000
0000
0010
0000
,
0000
0001
0000
0000
1000
0000
0000
0010
0000
0000
0100
0000
0000
0001
0000
0000
,
1000
0100
0001
1000
0010
0001
1000
0000
,
2002
0000
0000
0000
,
3003
0000
0000
0000
;

//--------------- dance-single - Extraordiberry ----------------
#NOTEDATA:;
#STEPSTYPE:dance-single;
#DESCRIPTION:Extraordiberry;
#DIFFICULTY:Hard;
#METER:15;
#RADARVALUES:0,0,0,0,0;
#CREDIT:Extraordiberry;
#NOTES:
0000
0000
0000
0000
,
0000
0000
0000
0000
,
0000
0000
0000
0000
,
0000
0000
0000
0000
,
0000
0000
0000
0000
,
1000
0000
0100
0000
0010
0000
0001
0010
0001
0000
0000
0000
1000
0000
0010
0000
,
1010
0000
0000
0000
0011
0000
0010
0001
0010
0000
0000
0000
0001
0000
1000
0000
,
0010
0000
0000
0000
0100
0000
0001
1000
0001
0000
0000
0000
0010
0000
0100
0010
,
0200
0000
0000
0000
,
2300
0000
0000
0000
,
3001
0100
0000
0001
0000
0100
0001
0000
1000
0100
0000
1000
0000
0100
1000
0000
,
0010
0100
0010
0100
0000
0001
1000
0000
1100
0000
1100
0000
1001
0000
1001
0000
,
0001
0000
0100
0000
1000
0000
0100
0010
0100
0000
0001
0000
1000
0000
0000
0000
,
2100
0000
0000
0000
3001
0000
0100
0010
0100
0000
0001
0000
1000
0000
0000
0000
,
0001
0010
0100
0001
0100
0010
0001
1000
,
1010
0010
0110
0100
0101
0000
0001
0001
,
1000
0000
0100
0000
0001
0000
0100
0010
0001
0000
1000
0000
0010
0000
0000
0000
,
0102
0000
0000
0000
1003
0000
0100
0010
0001
0000
1000
0000
0010
0000
0000
0000
,
1000
0001
0100
1000
0100
0010
1000
0001
,
0022
0000
0000
0000
0033
0000
0000
0000
1001
0000
0100
0010
0100
0000
0000
0000
,
1001
0011
1001
1010
,
1001
0101
1001
1100
,
1000
0000
0001
0100
0001
0000
0100
0000
0100
0000
0010
1000
0010
0000
1000
0000
,
1001
0100
0110
0010
2002
0000
3003
0000
,
1000
0000
0001
0100
0001
0000
1000
0000
1000
0000
0100
1000
0100
0000
0010
0000
,
0010
0000
0001
0100
0001
0000
0100
0010
0100
0000
0010
1000
0010
0000
1000
0000
,
0001
0010
0100
0001
0100
0010
0001
1000
,
0010
0000
0000
0000
1001
0000
0000
0000
0100
0010
0100
0000
0010
0100
0010
0000
,
1001
0000
1000
0000
0100
0000
0010
0000
0010
0000
0001
1000
0000
1000
0010
0000
,
0100
0000
0001
0000
1000
0000
0100
0000
0100
0000
0010
0001
0000
0001
1000
0000
,
0010
0000
0100
0000
0010
0000
1000
0000
1000
0000
0000
0001
0000
1000
0001
0000
,
0010
0000
0100
0000
0010
0000
0000
0000
0001
0000
0000
1000
0000
0001
1000
0000
,
0010
0000
0100
0000
1000
0000
0100
0000
0100
0000
0010
1000
0000
1000
0001
0000
,
0010
0000
0100
0000
0001
0000
0100
0000
0100
0000
0010
0001
0000
0001
1000
0000
,
0001
0100
0001
0000
0100
0000
0010
0000
1000
0000
0001
0010
0000
0010
0100
0000
,
1000
0001
1000
0000
0010
0000
0100
0000
0001
0000
0010
0000
0110
0000
0000
0000
,
1000
0020
0000
0031
0010
2000
0000
3001
,
0010
2000
0000
3010
0010
0002
0000
1003
,
0010
0002
0000
1003
0100
0002
0000
1003
,
0100
0000
0000
0002
0000
0000
0000
0000
0000
0103
0000
0000
0100
0000
0010
0000
0001
0000
1000
0000
0000
0010
0000
0000
,
1000
0200
0000
0301
0100
1000
1000
0001
,
0100
0000
0000
2000
0000
0000
0000
0000
0000
3001
0000
0000
0010
0000
0000
1000
0000
0000
1000
0000
0000
0001
0000
0100
,
0001
1000
0001
0020
0000
0000
0130
1000
0001
0200
0000
0000
,
0301
0010
0100
2000
0000
0000
3001
0100
0010
2000
0000
0000
,
3001
0010
0001
1000
0010
1000
0001
0100
0001
1000
0100
1000
,
0100
0000
0000
0000
0010
0000
0100
0000
0000
0000
0010
0000
0100
0000
0000
0000
0010
0000
0100
0000
0000
0000
0010
0000
0001
0000
0000
1000
0000
0000
0001
0000
0000
1000
0000
0000
0010
0000
0000
0000
0000
0000
0000
0000
0000
0000
0000
0000
,
1002
0000
0000
0000
0000
0000
0013
0001
0200
0000
0000
0000
0300
0000
0010
0000
,
1000
0000
0001
0000
1000
0000
0002
0000
0000
0000
0000
0000
0023
0000
0000
0000
0000
0000
0030
0000
0000
0001
0000
0000
,
0200
0000
0000
1300
0200
0000
0300
0000
,
0022
0033
0220
0330
2200
3300
0220
0330
0022
0000
0000
0000
0033
0000
0000
0000
,
1000
0000
0010
0000
0100
0000
0001
0100
0001
0000
1000
0000
0100
0000
1000
0000
,
1100
0000
0000
0000
0101
0000
0100
0001
0100
0000
0000
0000
1001
0000
1000
0100
,
0010
0000
0001
0000
1000
0000
0001
0100
0010
0000
1000
0000
0100
0000
0010
0001
,
0020
0000
0000
0000
0000
0000
0030
0000
0011
0000
0000
1001
0000
0000
0011
0000
,
0001
0000
0010
0000
1000
0000
0010
0100
1000
0000
0001
0000
0100
0000
0010
0000
,
2010
0000
0000
0000
3001
0000
0010
0100
1000
0000
0001
0000
0100
0000
0000
0000
,
0001
0100
0010
0001
0010
0100
0001
1000
,
1100
0000
0100
0000
0110
0000
0010
0000
0011
0000
0000
0000
0001
1000
0001
0000
,
1000
0000
0010
0000
0001
0000
0010
0100
0001
0000
1000
0000
0100
0000
0010
0000
,
0012
0000
0000
0000
1003
0000
0010
0100
0001
0000
1000
0000
0100
0000
0000
0000
,
1000
0001
0010
1000
0010
0100
1000
0001
,
0202
0000
0000
0000
0303
0000
0000
0000
1001
0000
0010
0100
0010
0100
0010
0000
,
1001
0000
1000
0100
0000
0010
0001
0000
0100
0000
0001
1000
0000
0001
0100
0000
,
0010
0000
1000
0100
1000
0000
0100
0010
0100
0000
0010
0001
0010
0000
0001
0000
,
1000
0010
0001
1000
0100
0010
1000
0001
,
1001
0000
0010
0000
0110
0000
0100
0000
1001
0000
1000
0100
1000
0001
0010
0000
,
1001
0000
0001
0100
0000
0010
1000
0000
0100
0000
1000
0001
0000
1000
0100
0000
,
0010
0000
0001
0100
0001
0000
0100
0010
0100
0000
0010
1000
0010
0000
1000
0000
,
0100
0010
0000
0010
0001
0000
1000
0010
0000
0010
0100
0000
0001
0000
0001
0000
,
1000
0100
0010
0000
0100
0010
0001
0000
1000
0001
1000
0001
0100
0010
0100
0000
,
2002
0000
0000
0000
,
3003
0000
0000
0000
;

//--------------- dance-double - Extraordiberry ----------------
#NOTEDATA:;
#STEPSTYPE:dance-double;
#DESCRIPTION:Extraordiberry;
#DIFFICULTY:Easy;
#METER:8;
#RADARVALUES:0,0,0,0,0;
#CREDIT:Extraordiberry;
#NOTES:
00000000
00000000
00000000
00000000
,
00000000
00000000
00000000
00000000
,
00000000
00000000
00000000
00000000
,
00000000
00000000
00000000
00000000
,
00000000
00000000
00000000
00000000
,
00010000
00001000
00001000
00010000
,
00000100
00000010
00000110
00000000
,
00000001
00000100
00000010
00010000
,
00002000
00000000
00000000
00003000
,
00020000
00000000
00000000
00030000
,
00001000
00001000
00100000
00100000
,
01000000
01000000
00010000
00010000
,
00001000
00010000
00010000
00001000
,
01000000
00100000
01100000
00000000
,
10000000
01000000
00100000
00001000
,
00010000
00010000
00011000
00000000
,
00010000
00000010
00000010
00001000
,
00000001
00000010
00001001
00000000
,
00000001
00000100
00000010
00010000
,
00011000
00001000
00020000
00000000
,
00130000
00100000
10000000
10000000
,
00010000
00100000
00001000
00001000
,
00010000
00000010
00001000
00001000
,
00000001
00000010
00000110
00000000
,
00000010
00000010
00000001
00000001
,
00001000
00000010
00010000
00010000
,
00001000
00100000
00010000
00010000
,
10000000
00100000
00010000
00001000
,
00010000
00000100
00001000
00000100
,
00000010
00000001
00000100
00000010
,
00010000
00010000
00010000
00000000
,
00001000
00001000
00001000
00000000
,
00001000
01000000
00010000
01000000
,
00100000
10000000
01000000
00100000
,
00001000
00010000
00001000
00001000
,
00010000
00001000
00000010
00000001
,
00000200
00000300
00000020
00000030
,
00020000
00030000
00002000
00003000
,
00200000
00300000
02000000
03000000
,
00020000
00030000
00001000
00001000
,
02000000
03000000
00200000
00300000
,
20000000
30000000
00020000
00030000
,
00100000
00100000
00001000
00001000
,
00010000
00010000
00000100
00000100
,
00001000
00001000
00001000
00001000
,
00000001
00000100
00001000
00010000
,
00002000
00000000
00000000
00003000
,
00200000
00000000
00000000
00300000
,
00020000
00000000
00000000
00030000
,
00100000
01000000
01100000
00000000
,
00100000
00001000
00001000
00010000
,
00000100
00000010
00000110
00000000
,
00000001
00000100
00000010
00010000
,
00002000
00000000
00010000
00013000
,
00001000
00010000
00010000
00001000
,
01000000
00100000
01100000
00010000
,
10000000
01000000
00100000
00001000
,
00011000
00010000
00011000
00000000
,
00010000
00000010
00000010
00001000
,
00000001
00000010
00000110
00000000
,
00000001
00000100
00000010
00010000
,
00020000
00000000
00100000
00130000
,
10000000
10000000
01000000
01000000
,
00100000
00100000
00001000
00001000
,
00010000
00001000
00000010
00000001
,
00001001
00000010
00001001
00000000
,
00000001
00000001
00000100
00000100
,
00000010
00000010
00010000
00010000
,
00001000
00010000
00100000
10000000
,
00010000
00100000
00001000
00010000
,
00022000
00000000
00000000
00000000
,
00033000
00000000
00000000
00000000
;

//--------------- dance-double - Extraordiberry ----------------
#NOTEDATA:;
#STEPSTYPE:dance-double;
#DESCRIPTION:Extraordiberry;
#DIFFICULTY:Medium;
#METER:12;
#RADARVALUES:0,0,0,0,0;
#CREDIT:Extraordiberry;
#NOTES:
00000000
00000000
00000000
00000000
,
00000000
00000000
00000000
00000000
,
00000000
00000000
00000000
00000000
,
00000000
00000000
00000000
00000000
,
00000000
00000000
00000000
00000000
,
00010000
00000010
00001000
00000000
00001010
00000000
00000000
00010000
,
00001000
00001000
00100000
00000000
00110000
00000000
00000000
00100000
,
00002000
00000000
00000000
00013000
00002000
00000000
00000000
00013000
,
02000000
00000000
00000000
00000000
,
23000000
00000000
00000000
00000000
,
30100000
00000000
00000000
01000000
00000000
00000000
00001000
00000000
00010000
00000000
00000000
00000010
00000000
00000000
00001000
00000000
,
00000100
00000000
00000000
00000010
00000000
00000000
00000001
00000000
00000100
00000000
00001000
00000000
00010000
00000000
00001000
00000000
,
00100000
00010000
01000000
00000000
01100000
00000000
00100000
10000000
,
00010000
00100000
01000000
00000000
01100000
00000000
00100000
00001000
,
00020000
00000000
00030010
00010000
00002000
00000000
00013000
00010000
,
00001000
00000010
00000001
00000000
00001001
00000000
00001000
00001000
,
00000010
00001000
00000100
00000000
00000110
00000000
00000010
00000001
,
00001000
00000010
00000100
00000000
00000110
00000000
00000010
00010000
,
00002000
00000000
00103000
00001000
00020000
00000000
00031000
00001000
,
00010000
00100000
20000000
00000000
00020000
00000000
30030000
00000000
,
10000000
00000000
00000000
01000000
00000000
00000000
00010000
00000000
00001000
00000000
00000000
00100000
00000000
00000000
00001000
00000000
,
00010000
00000000
00000000
00000010
00000000
00000000
00001000
00000000
00000100
00000000
00000000
00000010
00000000
00000000
00000001
00000000
,
00001000
00000010
00010000
00000000
00001000
00100000
00010000
00000000
,
10000000
01000000
00010000
00001000
00010000
00000000
00011000
00000000
,
00010000
00000000
00000000
00000010
00000000
00000000
00000100
00000000
00001000
00000000
00000000
00010000
00000000
00000000
00001000
00000000
,
00100000
00000000
00000000
01000000
00000000
00000000
10000000
00000000
00100000
00000000
00000000
01000000
00000000
00000000
00010000
00000000
,
00100000
00001000
00010000
00000000
00000010
00010000
00001000
00000000
,
00000010
00000001
00001000
00000001
00000100
00001000
00010000
00010000
,
00100000
00000000
10000000
00000000
00010000
00000000
00100000
00000000
00001000
00000000
00000000
00001000
00000000
00000000
00001000
00000000
,
00010000
00000000
00000010
00000000
00001000
00000000
00000010
00000000
00010000
00000000
00000000
00010000
00000000
00000000
00010000
00000000
,
00002000
00000000
00010000
00000000
00100000
00000000
00013000
00001000
,
00020000
00001000
00000010
00031000
,
00010000
00000000
00000010
00000000
00001000
00000000
00000100
00000000
00010000
00000000
00000000
00010000
00000000
00000000
00010000
00000000
,
00001000
00000000
00100000
00000000
00010000
00000000
01000000
00000000
00001000
00000000
00000000
00001000
00000000
00000000
00001000
00000000
,
00010000
00000000
00000100
00000000
00001000
00000000
00000001
00000000
00000100
00000000
00000000
00000100
00000000
00000000
00000100
00000000
,
00000010
00010000
00001000
00010000
00100000
10000000
00010000
00000000
,
00100000
00200000
00000000
00000000
00301000
00002000
00000000
00000000
,
00013000
00020000
00000000
00000000
00130000
00200000
00000000
00000000
,
10300000
20000000
00000000
00000000
31000000
02000000
00000000
00000000
,
03100000
00000000
00000000
00200000
00000000
00000000
00000000
00000000
00000000
00000000
00000000
00000000
00301000
00000000
00000000
00000000
00010000
00000000
00001000
00000000
00000000
00010000
00000000
00000000
,
00000010
00000020
00000000
00010000
00010030
00020000
00000000
00001000
,
00031000
00002000
00000000
00000010
00003010
00000020
00000000
00000001
,
00000031
00000000
00000100
00000020
00000000
00000000
00001030
00000000
00000010
00020000
00000000
00000000
,
00031000
00000000
01000000
00020000
00000000
00000000
10030000
00000000
00010000
00200000
00000000
00000000
,
00301000
00000000
00010000
00001000
00000000
00010000
00001000
00000000
00010000
00001000
00000000
00010000
,
00000100
00001000
00000100
00001000
00000100
00000100
00010100
00000000
,
00021000
00000000
00200000
00330000
,
20100000
00010000
02000000
33000000
,
20000000
01000000
00010000
30100000
,
20000000
30000000
00200000
00300000
00020000
00030000
00002000
00003000
00020000
00000000
00000000
00000000
00030000
00000000
00000000
00000000
,
00010000
00000010
00001000
00000000
00001010
00000000
00000010
00010000
,
00001000
00001000
00100000
00000000
00110000
00000000
00100000
00001000
,
00020000
00000000
00030010
00010000
00002000
00000000
00013000
00001000
,
00020000
00000000
00000000
00000000
00000000
00000000
00000000
00000000
00100000
00000000
00000000
00100000
00000000
00000000
00130000
00000000
,
01000000
00010000
00100000
00000000
00110000
00000000
00010000
00100000
,
00001000
01000000
00100000
00000000
01010000
00000000
01000000
00001000
,
00020000
00000000
00030100
00010000
00002000
00000000
00013000
00010000
,
00001000
00000100
00000001
00000000
00001001
00000000
00001000
00001000
,
00000100
00001000
00000010
00000000
00000101
00000000
00001000
00000010
,
00010000
00000100
00000010
00000000
00001100
00000000
00000100
00010000
,
00002000
00000000
01003000
00001000
00020000
00000000
00031000
00001000
,
00010000
01000000
20000000
00000000
00100000
00000000
00010000
30010000
,
10000000
00000000
00000000
01000000
00000000
00000000
00010000
00000000
00001000
00000000
00000000
00000010
00000000
00000000
00000001
00000000
,
00000001
00000000
00000000
00000100
00000000
00000000
00001000
00000000
00010000
00000000
00000000
00100000
00000000
00000000
10000000
00000000
,
00010000
00100000
00001000
00010000
00000010
00001000
00000010
00010000
,
00001000
00000010
00000001
00000100
00000010
00000000
00000110
00000000
,
00000001
00000000
00000000
00000100
00000000
00000000
00001000
00000000
00010000
00000000
00000000
00100000
00000000
00000000
10000000
00000000
,
10000000
00000000
00000000
01000000
00000000
00000000
00010000
00000000
00001000
00000000
00000000
00000010
00000000
00000000
00000001
00000000
,
00000000
00000100
00000000
00000000
00000010
00000000
00000000
00010000
00000000
00000000
00001000
00000000
00000000
00100000
00000000
00000000
,
00010000
10000000
00100000
00010000
00001000
00000100
00000001
00000000
,
00002002
00000000
00000000
00000000
,
00003003
00000000
00000000
00000000
;

//--------------- dance-double - Extraordiberry ----------------
#NOTEDATA:;
#STEPSTYPE:dance-double;
#DESCRIPTION:Extraordiberry;
#DIFFICULTY:Hard;
#METER:15;
#RADARVALUES:0,0,0,0,0;
#CREDIT:Extraordiberry;
#NOTES:
00000000
00000000
00000000
00000000
,
00000000
00000000
00000000
00000000
,
00000000
00000000
00000000
00000000
,
00000000
00000000
00000000
00000000
,
00000000
00000000
00000000
00000000
,
00001000
00000010
00000100
00010000
00001000
00000000
00010000
00001000
,
01001000
00000000
00011000
00000000
00010100
00000000
00010000
00000100
,
00001000
00000000
00000001
00001000
00000010
00000000
00000100
00001000
,
00020000
00000000
00000000
00000000
,
00230000
00000000
00000000
00000000
,
10300000
00000000
01000000
00100000
00000000
00100000
00010000
00000000
00100000
00000000
00001000
00010000
00000000
00010000
00001000
00000000
,
00010000
00000000
00000010
00001000
00000000
00001000
00000001
00000000
00000010
00000000
00001000
00000000
00010000
00000000
01000000
00000000
,
00100000
00000000
00001000
00000000
00010000
00000000
00100000
01000000
00100000
00000000
10000000
00000000
01000000
00000000
00100000
00000000
,
00001000
00000000
00010000
00000000
00100000
00000000
01000000
00100000
01000000
00000000
00010000
00000000
10000000
00000000
00000000
00000000
,
01000000
10000000
00100000
00010000
00001000
00100000
00010000
10000000
,
01000000
00010000
00001000
00000010
00000011
00000000
00001000
00001000
,
00000010
00000000
00010000
00000000
00001000
00000000
00000010
00000100
00000010
00000000
00000001
00000000
00001000
00000000
00000010
00000000
,
00010000
00000000
00001000
00000000
00000010
00000000
00000100
00000010
00000100
00000000
00001000
00000000
00000001
00000000
00000000
00000000
,
00000100
00000001
00000010
00001000
00010000
00000010
00001000
00000001
,
00000200
00000000
00000000
00000000
00002300
00000000
00000000
00000000
00013000
00000000
00100000
00000000
10000000
00010000
00100000
00000000
,
00110000
00101000
00011000
00010100
,
00010010
00011000
01001000
01010000
,
10000000
00000000
01000000
00000000
00010000
00001000
00010000
00000000
00001000
00000000
00010000
00000000
00100000
01000000
00100000
00000000
,
10000000
01000000
00010000
00001000
00000020
00000000
00000031
00000001
,
00001000
00000000
00000001
00000000
00000100
00001000
00000100
00000000
00001000
00000000
00010000
00000000
00000100
00001000
00000100
00000000
,
00000010
00000000
00000001
00000000
00000100
00000000
00001000
00000000
00010000
00001000
00010000
00000000
01000000
00100000
01000000
00000000
,
10000000
10000000
00100000
00010000
00001000
00100000
00010000
10000000
,
01000000
00000000
00010000
00000000
00001000
00000000
00000010
00000000
00000001
00001000
00000001
00000000
00001000
00000001
00001000
00000000
,
00001001
00000000
00000001
00000000
00000001
00000000
00000100
00000000
00000010
00000000
00010000
00001000
00000000
00001000
00010000
00000000
,
00001000
00000000
01000000
00000000
01000000
00000000
00100000
00000000
10000000
00000000
00010000
00100000
00000000
00100000
00010000
00000000
,
10000000
00000000
01000000
00000000
01000000
00000000
00010000
00000000
00001000
00000000
00000000
00010000
00000000
00000000
00001000
00000000
,
00000010
00000000
00000100
00000000
00000100
00000000
00000000
00000000
00010000
00000000
00000000
00001000
00000000
00000000
00010000
00000000
,
00100000
00000000
10000000
00000000
10000000
00000000
01000000
00000000
00010000
00000000
00001000
00010000
00000000
00010000
00001000
00000000
,
00000010
00000000
00000001
00000000
00000001
00000000
00000100
00000000
00001000
00000000
00010000
00001000
00000000
00001000
00010000
00000000
,
00100000
00000000
10000000
00100000
10000000
00000000
01000000
00000000
00010000
00000000
00001000
00010000
00000000
00010000
00000100
00000000
,
00000010
00000001
00000100
00001000
00010000
00000100
00000010
00000001
,
00000100
00002000
00000000
00013000
01000000
20000000
00000000
30100000
,
00010000
00002000
00000000
00013000
00010000
00002000
00000000
00003010
,
00000001
00000200
00000000
00001300
00010000
02000000
00000000
03010000
,
00001000
00000000
00000000
02000000
00000000
00000000
00000000
00000000
00000000
03100000
00000000
00000000
01000000
00000000
00010000
00000000
01000000
00000000
00001000
00000000
00000000
00010000
00000000
00000000
,
00001000
00000020
00000000
00000031
00000100
00001000
00001000
00010000
,
01000000
00000000
00000000
00200000
00000000
00000000
00000000
00000000
00000000
00301000
00000000
00000000
00010000
00000000
00000000
00100000
00000000
00000000
00100000
00000000
00000000
10000000
00000000
00100000
,
10000000
00010000
00100000
00002000
00000000
00000000
00013000
00000100
00001000
00000200
00000000
00000000
,
00000310
00000001
00001000
00000020
00000000
00000000
00001030
00000010
00010000
00002000
00000000
00000000
,
00013000
00001000
00100000
00010000
00100000
00010000
10000000
00100000
10000000
00010000
00100000
00010000
,
00100000
00000000
00000000
00000000
01000000
00000000
00100000
00000000
00000000
00000000
01000000
00000000
00100000
00000000
00000000
00000000
01000000
00000000
00100000
00000000
00000000
00000000
01000000
00000000
00100000
00000000
00000000
00001000
00000000
00000000
00010000
00000000
00000000
00001000
00000000
00000000
00010000
00000000
00000000
00000000
00000000
00000000
00000000
00000000
00000000
00000000
00000000
00000000
,
00012000
00000000
00000000
00000000
00000000
00000000
00003010
00000100
00000020
00000000
00000000
00000000
00000030
00000000
00000001
00000000
,
00000100
00000000
00001000
00000000
00010000
00000000
00002000
00000000
00000000
00000000
00000000
00000000
00003020
00000000
00000000
00000000
00000000
00000000
00000030
00000000
00000000
00000001
00000000
00000000
,
00000200
00000000
00000000
00001300
00020000
00000000
00030000
00000000
,
02000000
03000000
00020000
00030000
00002000
00003000
00000020
00000030
00000022
00000000
00000000
00000000
00000033
00000000
00000000
00000000
,
00000001
00000000
00000100
00000000
00001000
00000000
00010000
00001000
00010000
00000000
00000100
00000000
00000010
00000000
00000001
00000000
,
00000101
00000100
00001100
00000000
00011000
00000000
00001000
01000000
,
00100000
10000000
00010000
00100000
00001000
00010000
00100000
10000000
,
02000000
00000000
00000000
00000000
00000000
00000000
00000000
00000000
03010000
00001000
00000000
00010000
00000010
00000000
00010000
00001000
,
00100000
00000000
00001000
00000000
00010000
00000000
01000000
00100000
00010000
00000000
10000000
00000000
00100000
00000000
01000000
00000000
,
00001000
00000000
00010000
00000000
01000000
00000000
00100000
01000000
10000000
00000000
00010000
00000000
01000000
00000000
00010000
00000000
,
00010000
10000000
01000000
00010000
00001000
01000000
00010000
10000000
,
00100000
00000000
00010000
00000000
00001000
00000000
00000100
00000000
00000101
00000000
00000000
00000000
00001000
00000100
00001000
00000000
,
00000010
00000000
00010000
00000000
00001000
00000000
00000100
00000010
00001000
00000000
00000001
00000000
00000010
00000000
00000100
00000000
,
00010000
00000000
00001000
00000000
00000100
00000000
00000010
00000100
00000001
00000000
00001000
00000000
00000100
00000000
00001000
00000000
,
00001000
00000001
00000100
00001000
00010000
00000100
00001000
00000001
,
00000020
00000000
00000000
00000000
00002030
00000000
00000000
00000000
00013000
00000000
01000000
00000000
10000000
00100000
01000000
00000000
,
00010000
00000000
00100000
00000000
01000000
00010000
01000000
00000000
00010000
00000000
00001000
00000000
01000000
00010000
01000000
00000000
,
00100000
00000000
00010000
00000000
00001000
00010000
00001000
00000000
00000010
00000100
00000010
00000000
00000001
00001000
00000001
00000000
,
00000100
00000100
00001000
00010000
01000000
00100000
00010000
10000000
,
00100000
00000000
00010000
00000000
00001000
00000000
00000100
00000000
00000101
00000000
00000001
00001000
00000001
00000010
00000100
00000000
,
00001000
00000000
00000010
00000000
00000100
00001000
00000100
00000000
00001000
00000000
00010000
00000000
00000100
00001000
00000100
00000000
,
00000010
00000000
00001000
00000000
00010000
00001000
00010000
00000000
00100000
01000000
00100000
00000000
10000000
00010000
10000000
00000000
,
01000000
00100000
00000000
00100000
00001000
00000000
00010000
00000100
00000000
00000100
00000010
00000000
00000001
00000000
00000001
00000000
,
00000100
00000010
00000100
00000000
00001000
00010000
00001000
00000000
01000000
00010000
10000000
01000000
00100000
00001000
00010000
00000000
,
00022000
00000000
00000000
00000000
,
00033000
00000000
00000000
00000000
;
