#VERSION:0.83;
#TITLE:ハードベース・フェスタ;
#SUBTITLE:;
#ARTIST:かめりあ feat. ななひら;
#TITLETRANSLIT:Hardbass festa;
#SUBTITLETRANSLIT:;
#ARTISTTRANSLIT:Camellia feat. Nanahira;
#GENRE:A-STYLE RUSSIAN HARDBASS;
#CREDIT:;
#MUSIC:Hardbass festa.ogg;
#BANNER:Hardbass festa.png;
#BACKGROUND:Hardbass festa-bg.png;
#CDTITLE:./CDTitles/bm IIDX 26 Rootage.png;
#SAMPLESTART:59.705;
#SAMPLELENGTH:15.071;
#SELECTABLE:YES;
#OFFSET:1.031;
#BPMS:0.000=158.000;
#STOPS:;
#BGCHANGES:0.500=Hardbass festa.mp4=1.000=0=0=0=StretchNoLoop====,
99999.000=-nosongbg-=1.000=0=0=0=StretchNoLoop====
;
#FGCHANGES:;

//--------------- dance-single - forcednature ----------------
#NOTEDATA:;
#STEPSTYPE:dance-single;
#DESCRIPTION:forcednature;
#DIFFICULTY:Beginner;
#METER:4;
#RADARVALUES:0,0,0,0,0;
#CREDIT:forcednature;
#NOTES:
0000
0000
0000
0000
,
0000
0000
0000
0000
,
0000
0000
0000
0000
,
0000
0000
0000
0000
,
0000
0000
0000
0000
,
0000
0000
0000
0000
,
1000
0000
0000
0000
,
0001
0000
0000
0000
,
0100
0000
0000
0000
,
0010
0000
0010
0000
,
1000
0000
0000
0000
,
1000
0000
0000
0000
,
0001
0000
0001
0000
,
0010
0000
0100
0000
,
1001
0000
0110
0000
,
1001
0000
0000
0000
,
1000
0000
0000
0000
,
1000
0000
0100
0000
,
0010
0000
0000
0000
,
0001
0000
1000
0000
,
0001
0000
0000
0000
,
0001
0000
0100
0000
,
0010
0000
0000
0000
,
1000
0000
0001
0000
,
0000
1001
0000
0000
,
0100
0000
0010
0000
,
1001
0000
0000
0000
,
0010
0000
0100
0000
,
0000
1001
0000
0000
,
1000
0000
0001
0000
,
0000
1001
0000
0000
,
0010
0000
0100
0000
,
0110
0000
0000
0000
,
0001
0000
0000
0000
,
0110
0000
0000
0000
,
1000
0000
0000
0000
,
0100
0000
0100
0000
,
0010
0000
0010
0000
,
0001
0000
0001
0000
,
0100
0000
0000
0000
,
1001
0000
0110
0000
,
1000
0001
1000
0000
,
0010
0000
0000
0000
,
0100
0000
0001
0000
,
0100
0000
0000
0000
,
0010
0000
1000
0000
,
0010
0000
0000
0000
,
1000
0000
0100
0000
,
1000
0000
0000
0000
,
1001
0000
0000
0000
,
0001
0000
0001
0000
,
0001
0000
0001
0000
,
0100
0000
0000
0000
,
0010
0000
0000
0000
,
1000
0000
1000
0000
,
1000
0000
1000
0000
,
0100
0000
0000
0000
,
0010
0000
0000
0000
,
1001
0000
0000
0000
,
0100
0000
0010
0000
,
1001
0000
0000
0000
,
0010
0000
0100
0000
,
1001
0000
0000
0000
,
0110
0000
0000
0000
,
1000
0000
0001
0000
,
0100
0100
0100
0000
,
0001
0000
1000
0000
,
0010
0010
0010
0000
,
1000
0000
0000
0000
,
0001
0000
0010
0000
,
0100
0000
0000
0000
,
0010
0000
0100
0000
,
1000
0000
0000
0001
,
0001
0000
0000
0100
,
0100
0000
0000
0010
,
0010
0000
0000
0000
,
1001
0000
0000
0000
,
1000
0000
0000
0000
,
0100
0000
0000
0000
,
0010
0000
0000
0000
;

//--------------- dance-single - forcednature ----------------
#NOTEDATA:;
#STEPSTYPE:dance-single;
#DESCRIPTION:forcednature;
#DIFFICULTY:Easy;
#METER:8;
#RADARVALUES:0,0,0,0,0;
#CREDIT:forcednature;
#NOTES:
0000
0000
0000
0000
,
0000
0000
0000
0000
,
0000
0000
0000
0000
,
0000
0000
0000
0000
,
0000
0000
0000
0000
,
0000
0000
0000
0000
,
0000
1000
0100
1000
,
0000
0010
0000
1000
,
0000
0000
0001
0000
0100
0000
0000
0010
,
0000
1000
1000
0000
,
1001
0000
0001
0000
,
0100
0000
0001
0000
,
1000
1000
0100
0100
,
0010
0001
0200
0300
,
1001
0000
0110
0000
,
1001
0100
1001
0010
,
0000
0001
0010
0100
,
0010
0001
0010
0100
,
0000
1000
0010
0100
,
0001
0001
1000
1000
,
0000
0001
0100
0010
,
0100
0001
0100
0010
,
0000
1000
0100
0010
,
0210
0000
1300
1000
,
0000
1001
0001
0100
,
0110
0110
2002
3003
,
1000
0010
0100
0001
,
1001
1001
0220
0330
,
1001
1000
0100
0010
,
0110
0110
1001
0220
,
0330
1001
0001
0100
,
1001
1001
0110
1001
,
0002
0000
0100
0103
,
0001
0010
0010
0001
,
2000
0000
0100
3100
,
1000
0010
0010
0100
,
1001
0000
0110
0000
,
1001
0000
0110
0000
,
1000
0100
1000
0100
,
0010
0010
0001
0001
,
1001
0000
0110
0000
,
1001
0100
1001
0010
,
1001
1000
0100
0010
,
0100
0000
0010
0000
0001
0010
0001
0000
,
1000
0010
0100
0001
,
0100
0000
0010
0000
1000
0001
1000
0000
,
0001
0010
0100
0010
,
0100
0000
1000
0000
0001
0000
0010
0001
,
0000
0001
0100
0000
0010
0000
0010
1000
,
0000
1000
0100
0000
0010
0000
0001
0000
,
1001
1000
1001
0001
,
0110
0100
0110
0010
,
1001
1000
0100
0001
,
0100
1000
0001
0000
,
1001
1000
1001
0001
,
0110
0100
0110
0010
,
1001
0000
0001
0000
0100
0000
0000
0010
,
0000
0110
1001
0000
,
1000
0001
1000
0000
0001
1000
0001
0000
,
0200
0010
0010
0300
,
0001
1000
0001
0000
1000
0001
1000
0000
,
0200
0010
0010
0300
,
1000
0001
1000
0000
0001
0000
0020
0000
,
0031
1000
0001
0000
1000
0000
0020
0000
,
1030
0001
1000
0000
0001
1000
0001
0000
,
0100
0010
0100
0000
0020
0000
0030
0000
,
1001
0000
0110
0000
,
1001
0100
1001
0010
,
0000
0001
0100
0001
,
0010
0010
0001
1000
,
0010
0000
0010
0100
0000
0100
0010
0000
,
2000
3200
0320
0032
,
0003
1001
0100
0020
,
0030
1001
0010
0100
,
0110
0001
1000
0010
,
2002
0000
0000
3003
,
2000
0000
3200
0000
,
0320
0000
0032
0000
,
2003
0000
3020
0000
,
0230
0000
0000
0000
,
0300
0000
0000
0000
;

//--------------- dance-single - forcednature ----------------
#NOTEDATA:;
#STEPSTYPE:dance-single;
#DESCRIPTION:forcednature;
#DIFFICULTY:Medium;
#METER:12;
#RADARVALUES:0,0,0,0,0;
#CREDIT:forcednature;
#NOTES:
0000
0000
0000
0000
,
0000
0000
0000
0000
,
0000
0000
0000
0000
,
0000
0000
0000
0000
,
0000
0000
0000
0000
,
0000
0000
0000
0000
,
0000
0000
0001
0000
0100
0000
0001
0000
0100
0000
0000
0010
0000
0000
1000
0000
,
0000
0001
0010
0100
0000
0010
0001
1000
,
0000
0010
1000
0010
1000
0001
0000
0011
,
0000
0010
0100
0010
0100
0000
0110
0000
,
1000
0000
0000
1000
0000
0000
1000
0000
0100
0000
0000
0100
0000
0000
0100
0000
,
0010
0000
0000
0010
0000
0000
0010
0000
0001
0000
0000
0001
0000
0000
0001
0000
,
1000
0100
1000
0000
0100
0010
0100
0000
,
0010
0001
0010
0001
1000
0010
1000
0000
,
2002
3003
0220
0330
,
1001
0101
0011
1100
,
1000
0010
0001
0010
1000
0001
0100
0000
,
0001
0010
0100
1000
0010
0000
1001
0000
,
0001
0100
1000
0100
0001
1000
0010
0000
,
0100
0000
0010
0100
0000
0000
0100
0000
0001
0000
1000
0001
0000
0001
1000
0000
,
0100
0001
0100
1000
0001
0010
0100
0000
,
0010
0000
0001
0000
1000
0000
0000
0010
0000
0010
0000
0000
1000
0000
0100
0000
,
0000
0000
0010
0000
1001
0000
0000
0000
1000
0000
0000
1000
0000
0000
0001
0000
,
0100
0000
0100
0010
0000
0010
2000
0000
0000
3002
0000
0000
,
0103
0000
0001
0010
1000
0010
0001
0000
,
1000
0000
0000
0000
0000
0000
0000
0000
0010
0000
0000
0000
0000
0000
0000
0000
0100
0000
0000
0000
0000
0000
0200
0000
0000
0000
0000
0300
0000
0000
0000
0000
,
1001
0000
1000
0010
0001
0010
1000
0000
,
0001
0000
0000
0000
0000
0000
0000
0000
0010
0000
0000
0000
0000
0000
0000
0000
0100
0000
0000
0000
0000
0000
0200
0000
0000
0000
0000
0300
0000
0000
0000
0000
,
0010
0010
0001
0100
1000
0100
0001
0000
,
1010
0000
0000
0000
1010
0000
0000
0000
0001
0000
0000
0202
0000
0000
0000
0000
,
0303
0010
1001
0000
1000
0100
0001
0000
,
0100
0000
1000
0000
1000
0000
0100
0000
1000
0000
0010
1000
0000
0010
0100
0000
,
0002
0203
2300
3200
,
0301
0001
0010
0100
0000
0010
0001
0000
,
2001
3200
0302
0203
,
0300
1000
1000
0010
1000
0000
0110
0000
,
0001
0000
0000
0001
0000
0000
0001
0000
0100
0000
0000
0100
0000
0000
0100
0000
,
0010
0000
0000
0010
0000
0000
0010
0000
1000
0000
0000
1000
0000
0000
1000
0000
,
0001
0010
0001
0000
0010
0100
0010
0000
,
0100
1000
0100
1000
0001
0100
0001
0000
,
2002
3003
0220
0330
,
1001
1100
1010
0101
,
0001
0000
0010
0000
0100
0010
0100
0000
1000
0000
0001
0000
0010
0000
0002
0000
,
0000
0103
0010
2000
0000
3001
0010
0110
,
0000
0000
0100
0000
1000
0000
0001
1000
0001
0000
0100
0000
0010
0000
2000
0000
,
0000
3100
0001
0100
1000
0000
0012
0000
,
1003
0000
0010
0000
0100
0000
0010
0000
0100
0000
0001
1000
0001
0000
2000
0000
,
0000
3100
0010
0002
0000
1003
0010
0110
,
0000
0000
0100
0000
1001
0000
0000
0000
1000
0000
0100
1000
0000
0100
0020
0000
,
0000
0031
1000
0010
0100
0000
1001
0000
,
0201
1000
0001
1000
,
0302
0023
2030
3020
,
0031
0000
1000
0000
0010
1000
0010
0000
0100
0000
0001
0000
0010
0000
0200
0000
,
0000
0310
0001
1000
0010
0000
1001
0000
,
1200
0001
1000
0001
,
2300
3020
0032
0023
,
1030
0001
1000
0000
0001
0000
0100
0000
0010
0000
0000
0010
1000
0000
0200
0000
,
0000
1300
1000
0001
0012
0000
0103
0000
,
0001
0010
1000
0010
0001
0010
1000
0010
,
0001
0000
0000
0000
0000
0000
0000
0000
1000
0000
0000
0000
0000
0000
0000
0000
0100
0000
0000
0000
0000
0000
0220
0000
0000
0000
0000
0330
0000
0000
0000
0000
,
1000
0010
0001
0010
1000
0010
0001
0010
,
1000
0000
0000
0000
0000
0000
0000
0000
0001
0000
0000
0000
0000
0000
0000
0000
0100
0000
0000
0000
0000
0000
0220
0000
0000
0000
0000
0330
0000
0000
0000
0000
,
0010
1000
0100
0001
0100
1000
0020
0030
,
0100
0001
0010
1000
0010
0001
0200
0300
,
0010
1000
1200
0300
0010
0001
0201
0300
,
0010
0000
1000
0000
0010
0100
0000
0010
0100
0000
0001
0100
0000
0001
1000
0000
,
0020
0030
2002
3003
,
1100
1010
0101
0011
,
0001
0100
1000
0100
0001
1000
1010
0000
,
1000
0100
0001
0100
1000
0001
0011
0000
,
0110
0000
0000
0100
1000
0000
0100
0000
0000
0010
0001
0000
2000
0000
0000
0000
,
3001
0100
0000
0010
0100
0000
0010
1000
0000
0000
0001
0000
0001
0000
0010
0000
,
0002
0000
0000
0000
0103
0000
1000
0000
0100
0000
0000
0001
0100
0000
0001
0000
,
2000
0000
3100
0001
0100
1000
2100
0000
,
3001
0000
0000
0000
0010
0000
0000
0000
0001
0000
0000
0000
0010
0000
0000
0000
0000
0000
0100
0000
0000
0000
0000
0000
0010
0000
0000
0000
0000
0000
0100
0000
0000
1000
0000
0000
0000
0000
0000
0001
0000
0000
1000
0000
0000
0000
0000
0000
,
0020
0000
0100
0100
0100
0000
1030
0000
,
1002
0000
0203
0000
,
0320
0000
2030
0000
,
3002
0000
0023
0000
,
0230
0000
0000
0000
,
0300
0000
0000
0000
;

//--------------- dance-single - forcednature ----------------
#NOTEDATA:;
#STEPSTYPE:dance-single;
#DESCRIPTION:forcednature;
#DIFFICULTY:Hard;
#METER:16;
#RADARVALUES:0,0,0,0,0;
#CREDIT:forcednature;
#NOTES:
0000
0000
0000
0000
,
0000
0000
0000
0000
,
0000
0000
0000
0000
,
0000
0000
0000
0000
,
0000
0000
0000
0000
,
0000
0000
0000
0000
,
0000
0000
1000
0000
1000
0000
0100
0000
1000
0000
0000
0001
0000
0000
0021
0000
,
0000
0031
0100
2000
0000
3100
0001
2000
,
0000
3001
0001
0100
0001
1000
0010
1001
,
0000
0100
0100
0010
0110
0000
1001
0000
,
0002
0000
0000
0100
0000
0000
0100
0000
0203
0000
0000
0010
0000
0000
0010
0000
,
0320
0000
0000
1000
0000
0000
1000
0000
2030
0000
0000
0001
0000
0000
0001
0000
,
3002
0010
0023
0100
0230
1000
2300
0001
,
3001
0010
0001
0000
1000
0010
1000
0000
0100
0010
0100
0010
0001
0000
0000
0000
,
0202
0303
2200
3300
,
1010
0011
0110
1001
,
1000
0000
0001
0000
0100
0001
0100
0000
0010
0100
0000
0010
1000
0000
0001
0000
,
1000
0000
0100
0000
0010
0001
0010
0001
0010
0000
0100
0000
1000
0000
0000
0000
,
0001
0000
1000
0000
0100
1000
0100
0000
0010
0100
0000
0010
0001
0000
1000
0000
,
0010
0000
0100
0001
0100
0010
1000
0000
0001
0000
0001
0010
0000
0001
2000
0000
,
3001
0000
0100
0000
0010
0100
0010
0000
1000
0001
0000
0100
0001
0000
1000
0000
,
0100
0000
1000
0000
0001
0000
0100
0010
0000
0110
0000
0100
0010
0000
2000
0000
,
0000
0000
3100
0010
0001
0000
0010
0000
0001
1000
0000
1000
0001
0000
0100
0000
,
0120
0000
1030
0001
0100
0001
2000
0000
0000
3010
0000
0000
,
1002
0000
0000
0000
1003
0100
1000
0000
0100
0010
0100
0000
0010
0001
0010
0000
,
0002
0000
0000
0000
0000
0003
0000
0000
0200
0000
0000
0000
0000
0300
0000
0000
0010
0000
0000
0000
0000
0000
2002
0000
0000
0000
0000
3003
0000
0000
0000
0000
,
0110
0000
0000
0000
0001
0100
0001
0000
0100
0010
0100
0000
0010
1000
0010
0000
,
2000
0000
0000
0000
0000
3000
0000
0000
0200
0000
0000
0000
0000
0300
0000
0000
0220
0000
0000
0330
0000
0000
2002
0000
0000
0000
0000
3003
0000
0000
0000
0000
,
1010
0000
0010
0000
1000
0001
0010
0000
0100
0010
0001
0000
1000
0001
0010
0000
,
0001
0000
0100
0000
0010
0000
0100
0000
0001
1000
0000
0010
2000
0000
0001
0000
,
0000
3000
0100
0000
1001
0000
0001
1000
0010
0000
1000
0001
0010
0000
0000
0000
,
0110
0000
0100
1000
0100
0000
0010
0001
0010
0000
0001
0100
0000
0010
0100
0000
,
2001
0000
0000
0000
0100
0000
0000
0000
0001
0000
0000
0001
0000
0000
3010
0000
,
1000
0100
0001
0200
0300
0010
0001
0000
,
1002
0000
0000
0000
0100
0000
0000
0000
1000
0000
0000
1000
0000
0000
0013
0000
,
0001
0000
0100
0001
0100
0000
0010
0100
0010
0000
0000
0000
1010
0000
0000
0000
,
1000
0000
0100
0020
0000
0000
0031
0000
0001
0000
0100
0020
0000
0000
1030
0000
,
1000
0000
0001
0200
0000
0000
0301
0000
0001
0000
1000
0200
0000
0000
1300
0000
,
2000
0000
0010
0000
3020
0000
0100
0000
0230
0000
0001
0000
0302
0000
1000
0003
,
1000
0100
1000
0100
0010
0100
0010
0100
0010
0001
0010
0001
1000
0000
0000
0000
,
2020
3030
0022
0033
,
0101
1100
0110
1001
,
0001
0000
0100
0010
1000
0000
0100
1000
0100
0010
0000
0001
0010
0000
0012
0000
,
0000
0003
0100
0010
1000
0000
2010
0000
0000
3000
0100
0010
0001
0000
1001
0000
,
0000
0000
1000
0001
0010
0000
0001
0100
0010
0100
0000
0010
1000
0000
1200
0000
,
0000
0000
1300
0001
0010
0000
0001
1000
0100
1000
0001
0010
0002
0000
0000
0000
,
1003
0000
0010
0100
0001
0000
0010
0001
0010
0100
0000
1000
0100
0000
0120
0000
,
0000
0030
0001
1000
0010
0000
0120
0000
0000
0030
1000
0001
0010
0000
0011
0000
,
0000
0000
0100
0000
1001
0000
1000
0001
0100
0000
0100
0010
0000
0100
0001
1000
,
0002
1000
1000
0010
0013
0000
0110
0000
,
2000
0100
3002
0100
2003
0100
3002
0100
,
1003
0010
0001
0010
0100
0000
1001
0000
,
1000
0000
0001
0100
0010
0000
1000
0010
0100
0010
0100
0001
1000
0000
0200
0000
,
0000
0300
0010
0001
1000
0000
0001
0010
0100
0000
0100
0000
1001
0000
0000
0000
,
0002
0100
2003
0100
3002
0100
2003
0100
,
3001
0010
1000
0010
0100
0000
1001
0000
,
1000
0100
0001
0000
0100
0000
1000
0000
0001
0010
0000
0001
0100
0000
0110
0000
,
0000
0000
0010
0000
1001
0000
0100
0000
1001
0000
0001
0100
0010
0000
0000
0000
,
1000
0100
1000
0100
0010
0001
0010
0001
1000
0100
1000
0100
0010
0001
0010
0001
,
2000
0000
0000
0000
0000
3000
0000
0000
0020
0000
0000
0000
0000
0030
0000
0000
0100
0000
0000
0000
0000
0000
2002
0000
0000
0000
0000
3003
0000
0000
0000
0000
,
0001
0100
0001
0100
0010
1000
0010
1000
0001
0100
0001
0100
0010
1000
0010
1000
,
0002
0000
0000
0000
0000
0003
0000
0000
0020
0000
0000
0000
0000
0030
0000
0000
0110
0000
0000
0000
0000
0000
2002
0000
0000
0000
0000
3003
0000
0000
0000
0000
,
1000
0100
0010
0001
1000
0100
0010
0001
1000
0100
0010
0001
2000
0000
3000
0000
,
0001
0100
0010
1000
0001
0100
0010
1000
0001
0100
0010
1000
0002
0000
0003
0000
,
1000
0100
0010
0001
2000
0000
3000
0000
0001
0100
0010
1000
0002
0000
0003
0000
,
0010
0100
0010
0100
1000
0100
0000
0010
0001
0000
0100
0010
0000
1000
0010
0100
,
0002
0000
0013
0100
2100
0000
3010
0100
,
0101
0011
1010
1100
,
1000
0000
0010
0100
0001
0000
0100
0010
0000
1000
0001
0100
0001
0000
1000
0010
,
1000
0000
0001
0010
0100
0000
0010
0001
0000
1000
0100
1000
0001
0000
0100
0000
,
0110
0000
0000
0010
1000
0000
0110
0000
0000
0100
0001
0000
2001
0000
0000
3100
,
0010
0100
0000
1000
0010
0000
0100
0001
0100
0010
2000
0000
3200
0000
0320
0000
,
0032
0000
0000
0000
0103
0000
0010
1000
0001
0100
0001
0000
0100
0000
0010
0000
,
2010
0000
0000
0000
3100
0000
0010
0001
1000
0100
1000
0001
0020
0000
0000
0000
,
0031
0000
0000
0000
0100
0000
0000
0000
0010
0000
0000
0000
1000
0000
0000
0000
0000
0000
0001
0000
0000
0100
0000
0000
0001
0000
0000
0000
0000
0000
1000
0000
0000
0100
0000
0000
0000
0000
0000
0010
0000
0000
0100
0000
0000
0010
0000
0000
,
0001
0000
0100
0001
0100
0000
0010
0100
0010
0000
1000
0001
0100
0000
0000
0000
,
2001
0000
0000
0100
3200
0000
0000
0010
,
0320
0000
0000
0001
0032
0000
0000
1000
,
2003
0000
0000
0010
3020
0000
0000
0100
,
0230
0000
0000
0000
,
0300
0000
0000
0000
;

//--------------- dance-double - forcednature ----------------
#NOTEDATA:;
#STEPSTYPE:dance-double;
#DESCRIPTION:forcednature;
#DIFFICULTY:Easy;
#METER:8;
#RADARVALUES:0,0,0,0,0;
#CREDIT:forcednature;
#NOTES:
00000000
00000000
00000000
00000000
,
00000000
00000000
00000000
00000000
,
00000000
00000000
00000000
00000000
,
00000000
00000000
00000000
00000000
,
00000000
00000000
00000000
00000000
,
00000000
00000000
00000000
00000000
,
00000000
00001000
00010000
00001000
,
00000000
01000000
00000000
00010000
,
00000000
00000000
10000000
00000000
01000000
00000000
00000000
00100000
,
00000000
01000000
01000000
00000000
,
10010000
00000000
00010000
00000000
,
01000000
00000000
00010000
00000000
,
00100000
00100000
00001000
00001000
,
00010000
00000100
00002000
00003000
,
00001001
00000000
00000110
00000000
,
00011000
00010000
00011000
00001000
,
00000000
01000000
00010000
01000000
,
00100000
10000000
00010000
01000000
,
00000000
00001000
00010000
00000100
,
00001000
00001000
00000001
00001000
,
00000000
00000100
00010000
00001000
,
00100000
00001000
01000000
00010000
,
00000000
10000000
01000000
00100000
,
02100000
00000000
13000000
10000000
,
00000000
10010000
00010000
01000000
,
00001000
00010000
00022000
00033000
,
00001000
00010000
00000100
00001000
,
00000010
00000100
00000220
00000330
,
00001001
00001000
00000100
00010000
,
00001000
00010000
00022000
00033000
,
01000000
10010000
00010000
00100000
,
01000000
00100000
01100000
10010000
,
00020000
00000000
01000000
01030000
,
00010000
00100000
00100000
00001000
,
00020000
00000000
00000100
00030100
,
00010000
00001000
00001000
00010000
,
00011000
00000000
00010100
00000000
,
00011000
00000000
01001000
00000000
,
00001000
00010000
00000100
00001000
,
00000010
00000010
00000100
00000100
,
00000110
00000000
00011000
00000000
,
01100000
10000000
01100000
00010000
,
00000000
10000000
01000000
00100000
,
00010000
00000000
00100000
00000000
00001000
00010000
00001000
00000000
,
00000000
00010000
00000100
00001000
,
00000100
00000000
00000010
00000000
00000001
00001000
00000001
00000000
,
00000000
00000100
00000010
00001000
,
00000010
00000000
00010000
00000000
00001000
00010000
00001000
00000000
,
00000000
00100000
00010000
00000000
00100000
00000000
00100000
01000000
,
00000000
10000000
01000000
00000000
00010000
00000000
00001000
00000000
,
00022000
00033000
00001000
00010000
,
00000100
00010000
00001000
00000000
,
00011000
00000000
00010000
00001000
,
01000000
00001000
00010000
00000000
,
00022000
00033000
00001000
00010000
,
00000010
00010000
00001000
00000000
,
00022000
00000000
00033000
00000000
00010000
00000000
00000000
00001000
,
00000000
01000000
10010000
00000000
,
10000000
00010000
10000000
00000000
00010000
10000000
00010000
00000000
,
00200000
00000000
00300000
00000000
,
00001000
00010000
00001000
00000000
00010000
00001000
00010000
00000000
,
00000020
00000000
00000030
00000000
,
00001000
00000001
00001000
00000000
00000100
00000000
00020000
00000000
,
00031000
00010000
00001000
00000000
01000000
00000000
00020000
00000000
,
10030000
00010000
10000000
00000000
00010000
10000000
00010000
00000000
,
01000000
00100000
02000000
03100000
,
10010000
00000000
01100000
00000000
,
00011000
00010000
00011000
00001000
,
00000000
00010000
00000100
00001000
,
00000001
00000001
00001000
00000001
,
00000100
00000000
00000100
00000010
00000000
00000010
00000100
00000000
,
00000002
00000023
00000230
00002300
,
00003000
00001001
00010000
00002000
,
00003000
00011000
01000000
00010000
,
10010000
10000000
01000000
00100000
,
20020000
00000000
00000000
30030000
,
00020000
00000000
02030000
00000000
,
03002000
00000000
00023000
00000000
,
00030020
00000000
00002030
00000000
,
00003200
00000000
00000000
00000000
,
00000300
00000000
00000000
00000000
;

//--------------- dance-double - forcednature ----------------
#NOTEDATA:;
#STEPSTYPE:dance-double;
#DESCRIPTION:forcednature;
#DIFFICULTY:Medium;
#METER:12;
#RADARVALUES:0,0,0,0,0;
#CREDIT:forcednature;
#NOTES:
00000000
00000000
00000000
00000000
,
00000000
00000000
00000000
00000000
,
00000000
00000000
00000000
00000000
,
00000000
00000000
00000000
00000000
,
00000000
00000000
00000000
00000000
,
00000000
00000000
00000000
00000000
,
00000000
00000000
00001000
00000000
00010000
00000000
00001000
00000000
01000000
00000000
00000000
00010000
00000000
00000000
00100000
00000000
,
00000000
01000000
00010000
00001000
00000000
00010000
01000000
10000000
,
00000000
01000000
00010000
01000000
00010000
00001000
00000000
00011000
,
00000000
00010000
00000010
00001000
00000010
00000000
00000110
00000000
,
00000001
00000000
00000000
00000100
00000000
00000000
00000001
00000000
00000100
00000000
00000000
00001000
00000000
00000000
00000100
00000000
,
00001000
00000000
00000000
00010000
00000000
00000000
00001000
00000000
00010000
00000000
00000000
00100000
00000000
00000000
00010000
00000000
,
00100000
10000000
00100000
00000000
10000000
01000000
10000000
00000000
,
01000000
00010000
01000000
00010000
00001000
00010000
00001000
00000000
,
00020200
00030300
02002000
03003000
,
10010000
01001000
00010100
00001001
,
00000001
00000010
00001000
00000000
00000010
00000001
00000100
00000000
,
00000001
00000010
00001000
00010000
00001000
00000000
00011000
00000000
,
00010000
01000000
10000000
00000000
00100000
10000000
01000000
00000000
,
00010000
00000000
00000000
00010000
00000000
00000000
00001000
00000000
00100000
00000000
00010000
00100000
00000000
00010000
10000000
00000000
,
01000000
00010000
00001000
00000000
00100000
00001000
00010000
00000000
,
00000100
00000000
00001000
00000000
00000010
00000000
00000000
00000100
00000000
00000100
00000000
00000000
00000001
00000000
00000010
00000000
,
00000000
00000000
00000100
00000000
00001001
00000000
00000000
00000000
00001000
00000000
00000000
00001000
00000000
00000000
00000100
00000000
,
00010000
00000000
00010000
00001000
00000000
00001000
02000000
00000000
00000000
03020000
00000000
00000000
,
10030000
00000000
01000000
00010000
00001000
00100000
00010000
00000000
,
10000000
00000000
00000000
00000000
00000000
00000000
00000000
00000000
00100000
00000000
00000000
00000000
00000000
00000000
00000000
00000000
00010000
00000000
00000000
00000000
00000000
00000000
00002000
00000000
00000000
00000000
00000000
00003000
00000000
00000000
00000000
00000000
,
00011000
00000000
00010000
00001000
00000010
00001000
00010000
00000000
,
00000100
00000000
00000000
00000000
00000000
00000000
00000000
00000000
00001000
00000000
00000000
00000000
00000000
00000000
00000000
00000000
00000010
00000000
00000000
00000000
00000000
00000000
00000020
00000000
00000000
00000000
00000000
00000030
00000000
00000000
00000000
00000000
,
00000100
00000100
00000001
00000010
00001000
00000010
00000001
00000000
,
00000101
00000000
00000000
00000000
00000101
00000000
00000000
00000000
00001000
00000000
00000000
00002020
00000000
00000000
00000000
00000000
,
00003030
00000100
00001001
00000000
00000001
00000100
00001000
00000000
,
00010000
00000000
00100000
00000000
00100000
00000000
10000000
00000000
00100000
00000000
01000000
00100000
00000000
01000000
00010000
00000000
,
20000000
32000000
03020000
00032000
,
00103000
00010000
00100000
00001000
00000000
00000010
00000100
00000000
,
00001002
00000203
00002300
00023000
,
00030000
00000010
00000010
00001000
00000010
00000000
00011000
00000000
,
00010000
00000000
00000000
00010000
00000000
00000000
00010000
00000000
00001000
00000000
00000000
00001000
00000000
00000000
00001000
00000000
,
01000000
00000000
00000000
01000000
00000000
00000000
01000000
00000000
00010000
00000000
00000000
00010000
00000000
00000000
00010000
00000000
,
10000000
01000000
10000000
00000000
01000000
00100000
01000000
00000000
,
00100000
00010000
00100000
00001000
00010000
00000100
00001000
00000000
,
00002002
00003003
00000220
00000330
,
00011000
01001000
01100000
10010000
,
10000000
00000000
01000000
00000000
00100000
01000000
00100000
00000000
00001000
00000000
00010000
00000000
00000100
00000000
00002000
00000000
,
00000000
00003010
00000100
00000002
00000000
00000013
00001000
00010000
,
00000000
00000000
00001000
00000000
00000010
00000000
00000001
00000010
00000001
00000000
00000100
00000000
00000001
00000000
00002000
00000000
,
00000000
00003010
00000100
00001000
00010000
00000000
00022000
00000000
,
00033000
00000000
00010000
00000000
00001000
00000000
01000000
00000000
00010000
00000000
10000000
00100000
10000000
00000000
02000000
00000000
,
00000000
03100000
00001000
00020000
00000000
00030100
00001000
00001010
,
00000000
00000000
00000100
00000000
00001001
00000000
00000000
00000000
00000001
00000000
00000010
00000100
00000000
00001000
00000200
00000000
,
00000000
00010300
00001000
00100000
00010000
00000000
01100000
00000000
,
10020000
01000000
10000000
00100000
,
00032000
00000100
00000001
00000010
,
00013000
01000000
00010000
10000000
01000000
00010000
00001000
00020000
,
00000000
00000000
00031000
00000000
00000010
00000000
00000000
00000001
00000100
00000000
00000100
00000000
00000000
00000000
00000000
00000000
,
00002001
00000100
00000001
00000010
,
00023000
01000000
10000000
00100000
,
00031000
00000000
00000100
00000000
00001000
00000000
00000010
00000000
00000100
00000000
00000000
00000100
00000001
00000000
00000020
00000000
,
00000000
00001030
00010000
00001000
00021000
00000000
01030000
00000000
,
00010000
00001000
00000010
00001000
00010000
00001000
00000010
00001000
,
00010000
00000000
00000000
00000000
00000000
00000000
00000000
00000000
01000000
00000000
00000000
00000000
00000000
00000000
00000000
00000000
00100000
00000000
00000000
00000000
00000000
00000000
02200000
00000000
00000000
00000000
00000000
03300000
00000000
00000000
00000000
00000000
,
00001000
00010000
00100000
00010000
00001000
00010000
00100000
00010000
,
00001000
00000000
00000000
00000000
00000000
00000000
00000000
00000000
00000100
00000000
00000000
00000000
00000000
00000000
00000000
00000000
00000010
00000000
00000000
00000000
00000000
00000000
00000220
00000000
00000000
00000000
00000000
00000330
00000000
00000000
00000000
00000000
,
00000001
00000100
00001000
00010000
01000000
10000000
00200000
00300000
,
10000000
01000000
00010000
00001000
00000100
00000001
00000020
00000030
,
00000001
00000100
00002000
00003000
00010000
00100000
20000000
30000000
,
01000000
00000000
10000000
00000000
01000000
00100000
00000000
00010000
00100000
00000000
00001000
00010000
00000000
00000100
00001000
00000000
,
00000020
00000030
00022000
00033000
,
01010000
00101000
00010010
00001100
,
00000001
00000100
00001000
00000000
00000100
00000001
00000010
00000000
,
00000001
00000100
00001000
00010000
00100000
10000000
00010000
00000000
,
00100000
00000000
00000000
01000000
10000000
00000000
01000000
00000000
00000000
00100000
00010000
00000000
20000000
00000000
00000000
00000000
,
30010000
01000000
00000000
00001000
00010000
00000000
00000010
00001000
00000000
00000000
00000001
00000000
00000001
00000000
00000010
00000000
,
00000002
00000000
00000103
00001000
00010000
00000000
00011000
00000000
,
02000000
00000000
03010000
00100000
01000000
00000000
10010000
00000000
,
10000000
00000000
00000000
00000000
01000000
00000000
00000000
00000000
10000000
00000000
00000000
00000000
01000000
00000000
00000000
00000000
00000000
00000000
00000000
00000000
00000000
00000000
00000000
00000000
00100000
00000000
00000000
00000000
00000000
00000000
00010000
00000000
00000000
00100000
00000000
00000000
00000000
00000000
00000000
00001000
00000000
00000000
00010000
00000000
00000000
00000000
00000000
00000000
,
00000200
00000000
00001000
00001000
00001000
00000000
00000310
00000000
,
00002001
00000000
00003200
00000000
,
00020300
00000000
00032000
00000000
,
02003000
00000000
03020000
00000000
,
20030000
00000000
00000000
00000000
,
30000000
00000000
00000000
00000000
;

//--------------- dance-double - forcednature ----------------
#NOTEDATA:;
#STEPSTYPE:dance-double;
#DESCRIPTION:forcednature;
#DIFFICULTY:Hard;
#METER:16;
#RADARVALUES:0,0,0,0,0;
#CREDIT:forcednature;
#NOTES:
00000000
00000000
00000000
00000000
,
00000000
00000000
00000000
00000000
,
00000000
00000000
00000000
00000000
,
00000000
00000000
00000000
00000000
,
00000000
00000000
00000000
00000000
,
00000000
00000000
00000000
00000000
,
00000000
00000000
00001000
00000000
00010000
00000000
00001000
00000000
01000000
00000000
00000000
00010000
00000000
00000000
00200000
00000000
,
00000000
01300000
00010000
00002000
00000000
00013000
01000000
20000000
,
00000000
30100000
10000000
00010000
01000000
00001000
00010000
00011000
,
00000000
00000100
00000100
00001000
00001010
00000000
00000101
00000000
,
00000002
00000000
00000000
00000100
00000000
00000000
00000100
00000000
00000203
00000000
00000000
00001000
00000000
00000000
00001000
00000000
,
00002300
00000000
00000000
00010000
00000000
00000000
00010000
00000000
00023000
00000000
00000000
00100000
00000000
00000000
00100000
00000000
,
00230000
10000000
20300000
01000000
32000000
00010000
03020000
00001000
,
00031000
00010000
00001000
00000000
00010000
00000100
00010000
00000000
00000100
00001000
00000100
00001000
00000001
00000000
00000000
00000000
,
00000022
00000033
00002200
00003300
,
00001010
00010100
01001000
00110000
,
00010000
00000000
10000000
00000000
01000000
10000000
01000000
00000000
00100000
01000000
00000000
00100000
00010000
00000000
00100000
00000000
,
00001000
00000000
00010000
00000000
00000010
00001000
00000010
00001000
00000010
00000000
00000100
00000000
00000001
00000000
00000000
00000000
,
00001000
00000000
00000100
00000000
00010000
00001000
00010000
00000000
00001000
00100000
00000000
00010000
00100000
00000000
01000000
00000000
,
10000000
00000000
00100000
01000000
00100000
01000000
00010000
00000000
10000000
00000000
10000000
01000000
00000000
00100000
02000000
00000000
,
03100000
00000000
00010000
00000000
00100000
00001000
00010000
00000000
00001000
00010000
00000000
00000100
00001000
00000000
00000001
00000000
,
00000010
00000000
00000001
00000000
00000100
00000000
00000010
00001000
00000000
00001100
00000000
00000100
00010000
00000000
00002000
00000000
,
00000000
00000000
01003000
00010000
01000000
00000000
00100000
00000000
10000000
00010000
00000000
00010000
00100000
00000000
01000000
00000000
,
00100000
00010000
00100000
00001000
00010000
00000100
00002000
00000000
00000000
00003010
00000000
00000000
,
00001002
00000000
00000000
00000000
00000103
00001000
00000100
00000000
00001000
00010000
00001000
00000000
00010000
00100000
00010000
00000000
,
00200000
00000000
00000000
00000000
00000000
00300000
00000000
00000000
20000000
00000000
00000000
00000000
00000000
30000000
00000000
00000000
01000000
00000000
00000000
00000000
00000000
00000000
02200000
00000000
00000000
00000000
00000000
03300000
00000000
00000000
00000000
00000000
,
20010000
00000000
00000000
00000000
31000000
00010000
01000000
00000000
00010000
00001000
00010000
00000000
00001000
00000010
00001000
00000000
,
00000020
00000000
00000000
00000000
00000000
00000030
00000000
00000000
00000002
00000000
00000000
00000000
00000000
00000003
00000000
00000000
00000100
00000000
00000000
00000000
00000000
00000000
00000220
00000000
00000000
00000000
00000000
00000330
00000000
00000000
00000000
00000000
,
00001001
00000000
00001000
00000000
00000001
00000100
00001000
00000000
00000100
00001000
00010000
00000000
00001000
00010000
00100000
00000000
,
10000000
00000000
01000000
00000000
00010000
00000000
01000000
00000000
10000000
00000000
00100000
01000000
00000000
00010000
01000000
00000000
,
00100000
00000000
01100000
00000000
10010000
00000000
10000000
01000000
00010000
00000000
01000000
00010000
00001000
00000000
00010000
00000000
,
00011000
00000000
00010000
00000100
00001000
00000000
00000100
00010000
00001000
00000000
01000000
00010000
00000000
01000000
00100000
00000000
,
10020000
00000000
00000000
00000000
01000000
00000000
00000000
00000000
10000000
00000000
00000000
10000000
00000000
00000000
00130000
00000000
,
00010000
00001000
00000100
00000020
00000030
00000100
00001000
00000000
,
00002001
00000000
00000000
00000000
00000100
00000000
00000000
00000000
00000001
00000000
00000000
00000001
00000000
00000000
00003010
00000000
,
00001000
00000000
00010000
01000000
00010000
00000000
01000000
00100000
01000000
00000000
00000000
00000000
10010000
00000000
00000000
00000000
,
10000000
00000000
01000000
00020000
00000000
00000000
00031000
00000000
00010000
00000000
00001000
00000020
00000000
00000000
00000031
00000000
,
00000010
00000000
00000001
00000200
00000000
00000000
00001300
00000000
00000100
00000000
00001000
00020000
00000000
00000000
00130000
00000000
,
20000000
01000000
32000000
00010000
03020000
00001000
00032000
00000010
,
00003010
00000001
00000010
00000001
00000100
00000001
00000100
00000001
00000100
00001000
00000100
00001000
00010000
00000000
00000000
00000000
,
00020200
00030300
02002000
03003000
,
00110000
01001000
00010100
00001010
,
00000001
00000000
00000010
00000100
00001000
00000000
00000100
00001000
00000100
00010000
00000000
00001000
00100000
00000000
00120000
00000000
,
00000000
00030000
01000000
00100000
10000000
00000000
20100000
00000000
00000000
30000000
01000000
00100000
00010000
00000000
10010000
00000000
,
00000000
00000000
00010000
00100000
01000000
00000000
00100000
00010000
00100000
00001000
00000000
00010000
00001000
00000000
00010200
00000000
,
00000000
00000000
00001300
00000001
00000010
00000000
00000001
00001000
00000010
00001000
00000001
00000100
00000002
00000000
00000000
00000000
,
00000013
00000000
00000001
00001000
00000100
00000000
00001000
00000100
00010000
00000000
00001000
00100000
00010000
00000000
02010000
00000000
,
00000000
03000000
00100000
10000000
00010000
00000000
00210000
00000000
00000000
00300000
01000000
10000000
00010000
00000000
10010000
00000000
,
00000000
00000000
00001000
00000000
00011000
00000000
00010000
00000100
00001000
00000000
00001000
00000010
00000000
00000100
00000001
00001000
,
00000002
00000010
00000010
00001000
00001003
00000000
00001001
00000000
,
00010000
00000010
00001000
00100000
00010000
00000010
00001000
00100000
,
01000000
00010000
00100000
01000000
00010000
00000000
00011000
00000000
,
00100000
00000000
00010000
10000000
01000000
00000000
10000000
00100000
01000000
00100000
01000000
00010000
10000000
00000000
02000000
00000000
,
00000000
03000000
00100000
00010000
00100000
00000000
00001000
00010000
00001000
00000000
00010000
00000000
00011000
00000000
00000000
00000000
,
00001000
00100000
00010000
00000010
00001000
00100000
00010000
00000010
,
00000100
00001000
00000010
00000100
00001000
00000000
00011000
00000000
,
00010000
01000000
10000000
00000000
00010000
00000000
00100000
00000000
01000000
00010000
00000000
00001000
00010000
00000000
00011000
00000000
,
00000000
00000000
00010100
00000000
00001100
00000000
00001010
00000000
00000110
00000000
00000100
00000001
00001000
00000000
00000000
00000000
,
00000001
00000100
00000001
00000100
00000010
00001000
00000010
00001000
00010000
01000000
00010000
01000000
00100000
10000000
00100000
10000000
,
00020000
00000000
00000000
00000000
00000000
00030000
00000000
00000000
00200000
00000000
00000000
00000000
00000000
00300000
00000000
00000000
01000000
00000000
00000000
00000000
00000000
00000000
20020000
00000000
00000000
00000000
00000000
30030000
00000000
00000000
00000000
00000000
,
10000000
01000000
10000000
01000000
00100000
00010000
00100000
00010000
00001000
00000100
00001000
00000100
00000010
00000001
00000010
00000001
,
00002000
00000000
00000000
00000000
00000000
00003000
00000000
00000000
00000020
00000000
00000000
00000000
00000000
00000030
00000000
00000000
00000100
00000000
00000000
00000000
00000000
00000000
00002002
00000000
00000000
00000000
00000000
00003003
00000000
00000000
00000000
00000000
,
00000001
00000100
00000001
00000100
00000010
00001000
00000010
00001000
00010000
01000000
00010000
01000000
00200000
00000000
00300000
00000000
,
10000000
01000000
10000000
01000000
00100000
00010000
00100000
00010000
00001000
00000100
00001000
00000100
00000020
00000000
00000030
00000000
,
00000001
00000100
00001000
00010000
00200000
00000000
00300000
00000000
10000000
01000000
00010000
00001000
00000020
00000000
00000030
00000000
,
00000100
00001000
00000100
00001000
00000100
00010000
00000000
00001000
00100000
00000000
00010000
01000000
00000000
00100000
01000000
00100000
,
20000000
00000000
31000000
00010000
00002000
00000000
00013000
01000000
,
01100000
00011000
00000110
00011000
,
01000000
00000000
00010000
10000000
00100000
00000000
10000000
01000000
00000000
00100000
01000000
00100000
00010000
00000000
00100000
00001000
,
00010000
00000000
00000100
00001000
00000100
00000000
00000010
00000001
00000000
00001000
00000010
00001000
00000001
00000000
00000100
00000000
,
00000110
00000000
00000000
00000010
00001000
00000000
00001100
00000000
00000000
00000100
00010000
00000000
00012000
00000000
00000000
01003000
,
00010000
01000000
00000000
00100000
10000000
00000000
00010000
00100000
00000000
01000000
20000000
00000000
32000000
00000000
03020000
00000000
,
00032000
00000000
00000000
00000000
00103000
00000000
00010000
00100000
00001000
00010000
00001000
00000000
01000000
00000000
00010000
00000000
,
00200000
00000000
00000000
00000000
00301000
00000000
00010000
00001000
00010000
00000100
00001000
00000100
00000020
00000000
00000000
00000000
,
00000031
00000000
00000000
00000000
00000100
00000000
00000000
00000000
00001000
00000000
00000000
00000000
00010000
00000000
00000000
00000000
00000000
00000000
00001000
00000000
00000000
00010000
00000000
00000000
00001000
00000000
00000000
00000000
00000000
00000000
01000000
00000000
00000000
00010000
00000000
00000000
00000000
00000000
00000000
01000000
00000000
00000000
00100000
00000000
00000000
10000000
00000000
00000000
,
00100000
00000000
10000000
01000000
10000000
00000000
01000000
00100000
01000000
00000000
00100000
00001000
00010000
00000000
00000000
00000000
,
00021000
00000000
00000000
00000100
00030200
00000000
00000000
00001000
,
00002300
00000000
00000000
00000001
00003002
00000000
00000000
00000100
,
00000203
00000000
00000000
00001000
00002300
00000000
00000000
00010000
,
00023000
00000000
00000000
00000000
,
00030000
00000000
00000000
00000000
;
