#VERSION:0.83;
#TITLE:Hard to Forget;
#SUBTITLE:;
#ARTIST:Sharda;
#TITLETRANSLIT:;
#SUBTITLETRANSLIT:;
#ARTISTTRANSLIT:;
#GENRE:2-Step;
#ORIGIN:;
#CREDIT:;
#BANNER:Hard to Forget-bn.png;
#BACKGROUND:Hard to Forget-bg.png;
#PREVIEWVID:;
#JACKET:Hard to Forget-jk.png;
#CDIMAGE:;
#DISCIMAGE:;
#LYRICSPATH:;
#CDTITLE:;
#MUSIC:Hard to Forget.ogg;
#OFFSET:0.000000;
#SAMPLESTART:59.533001;
#SAMPLELENGTH:14.436000;
#SELECTABLE:YES;
#BPMS:0.000=133.000;
#STOPS:;
#DELAYS:;
#WARPS:;
#TIMESIGNATURES:0.000=4=4;
#TICKCOUNTS:0.000=4;
#COMBOS:0.000=1;
#SPEEDS:0.000=1.000=0.000=0;
#SCROLLS:0.000=1.000;
#FAKES:;
#LABELS:0.000=Song Start;
#BGCHANGES:0.000=Hard to Forget.mp4=1.000=0=0=0=StretchNoLoop====,
99999=-nosongbg-=1.000=0=0=0 // don't automatically add -songbackground-
;
#KEYSOUNDS:;
#ATTACKS:
;

//---------------dance-single - ----------------
#NOTEDATA:;
#CHARTNAME:;
#STEPSTYPE:dance-single;
#DESCRIPTION:;
#CHARTSTYLE:;
#DIFFICULTY:Hard;
#METER:11;
#RADARVALUES:0.458685,0.478563,0.073343,0.334118,0.317820,394.000000,385.000000,9.000000,41.000000,0.000000,0.000000,0.000000,0.000000,0.000000,0.458685,0.478563,0.073343,0.334118,0.317820,394.000000,385.000000,9.000000,41.000000,0.000000,0.000000,0.000000,0.000000,0.000000;
#CREDIT:Embrace;
#NOTES:
// measure 0
0000
0000
0000
0000
,  // measure 1
0000
0000
0000
0000
,  // measure 2
0000
0000
0000
0000
,  // measure 3
0000
0000
0000
0000
,  // measure 4
0000
0000
0000
0000
,  // measure 5
0001
0000
1000
0000
0010
0100
0010
0000
,  // measure 6
1000
0000
0001
0000
0010
0000
0001
1000
,  // measure 7
0100
0000
1000
0000
0010
0100
0010
0000
,  // measure 8
2000
0000
0001
0000
3100
0000
0010
0001
,  // measure 9
0100
0001
0001
1000
1000
0100
0100
1000
,  // measure 10
1000
0010
0010
0000
0100
0000
0001
0010
,  // measure 11
0001
1000
1000
0010
0010
0100
0100
0010
,  // measure 12
0010
1000
1000
0000
0001
0000
0100
0001
,  // measure 13
1000
0100
0100
0010
0010
0001
0001
0100
,  // measure 14
0100
0001
0001
0000
1000
0000
0100
0010
,  // measure 15
0100
1000
0001
0010
0100
0010
0001
1000
,  // measure 16
0010
0010
1000
1000
0001
0001
0010
0010
,  // measure 17
0002
0000
0000
1000
0000
1000
0000
1003
0000
0000
0000
0000
0001
0000
0000
0000
,  // measure 18
2000
0000
0000
0010
0000
0010
0000
3010
0000
0000
0000
0000
0100
0000
0000
0000
,  // measure 19
0020
0000
0000
1000
0000
1000
0000
1030
0000
0000
0000
0000
0001
0000
0000
0000
,  // measure 20
0020
0031
2000
3010
,  // measure 21
2000
0000
0000
0100
0000
0100
0000
3100
0000
0000
0000
0000
0010
0000
0000
0000
,  // measure 22
0002
0000
0000
0100
0000
0100
0000
0103
0000
0000
0000
0000
0010
0000
0000
0000
,  // measure 23
2000
0000
0000
0100
0000
0100
0000
3100
0000
0000
0000
0000
0010
0000
0000
0000
,  // measure 24
0002
0000
0103
0000
0001
0010
0001
0010
,  // measure 25
0200
0000
0000
0310
0000
0001
0000
2000
0000
0000
0000
0000
3010
0000
1000
0000
,  // measure 26
0200
0000
0000
0310
0000
0001
0000
2000
0000
0000
0000
0000
3010
0000
1000
0000
,  // measure 27
0200
0000
0000
0310
0000
0001
0000
2000
0000
0000
0000
0000
3010
0000
1000
0000
,  // measure 28
0100
0000
0000
0100
0010
0000
0000
0000
0001
0000
0000
0001
1000
0000
0000
0000
,  // measure 29
0110
0000
0110
0000
0000
1000
0000
0200
0000
0000
0000
0000
1300
0000
0010
0000
,  // measure 30
0200
0000
0000
0301
0000
1000
0000
0200
0000
0000
0000
0000
1300
0000
0010
0000
,  // measure 31
0200
0000
0000
0301
0000
1000
0000
0200
0000
0000
0000
0000
0310
0000
0001
0000
,  // measure 32
2000
0000
0010
0000
3100
0010
0100
0010
,  // measure 33
0001
0100
1000
0100
0001
0100
1000
0100
,  // measure 34
0001
0000
1000
0000
0000
0010
1000
0000
0001
0000
1000
0000
0000
0010
1000
0000
,  // measure 35
0001
0010
1000
0010
0001
0010
1000
0010
,  // measure 36
0001
0000
1000
0000
0000
0001
1000
0000
1000
0000
0010
0000
0000
1000
0010
0000
,  // measure 37
1000
0100
0001
0100
1000
0100
0001
0100
,  // measure 38
0010
0000
0001
0000
0000
0010
0100
0000
0010
0000
0001
0000
0000
0010
0100
0000
,  // measure 39
1000
0010
0001
0010
1000
0010
0001
0010
,  // measure 40
1000
0000
1000
0000
1000
0100
1000
0001
,  // measure 41
0200
0300
0010
0000
1000
0100
0010
0000
,  // measure 42
0001
0000
0000
0000
0100
0000
0000
0000
0010
0000
0000
0000
1000
0000
0001
1000
,  // measure 43
0000
0000
0100
0000
1000
0010
0100
0000
,  // measure 44
0002
0000
0000
0000
0100
0000
0000
0000
0013
0000
0001
0000
1000
0000
0100
0010
,  // measure 45
0000
0001
0001
1000
1000
0010
0010
1000
,  // measure 46
1000
0000
0100
0000
0100
0000
0000
0000
0010
0000
0000
0000
0001
0000
1000
0001
,  // measure 47
0000
0100
0100
0001
0001
0010
0010
0001
,  // measure 48
0001
1000
1000
0000
0002
0103
0020
1030
,  // measure 49
1001
0000
0000
0001
0000
0010
0000
0200
0000
0000
0000
2300
0000
0000
3000
0000
,  // measure 50
1001
0000
0000
0001
0000
0100
0000
0020
0000
0000
0000
2030
0000
0000
3000
0000
,  // measure 51
1001
0000
0000
0001
0000
0010
0000
0200
0000
0000
0000
2300
0000
0000
3000
0000
,  // measure 52
0020
0000
0000
0000
0001
0000
0000
0000
1030
0000
0000
0000
0001
1000
0001
0000
,  // measure 53
0011
0000
0000
1000
0000
0100
0000
0020
0000
0000
0000
0032
0000
0000
0003
0000
,  // measure 54
1010
0000
0000
0001
0000
0100
0000
0020
0000
0000
0000
2030
0000
0000
3000
0000
,  // measure 55
0011
0000
0000
1000
0000
0100
0000
0020
0000
0000
0000
0032
0000
0000
0003
0000
,  // measure 56
1000
0000
0000
0000
1000
0000
0000
0000
0001
0000
0001
0000
0100
0001
0100
0000
,  // measure 57
0001
0010
1000
0010
0001
0100
1000
0100
,  // measure 58
0001
0000
1000
0000
0000
0100
0010
0000
0001
0000
1000
0000
0000
0100
0010
0000
,  // measure 59
0001
0100
1000
0100
0001
0010
1000
0010
,  // measure 60
0001
0000
1000
0000
0000
0010
0100
0000
0100
0000
0010
0000
0000
1000
0001
0000
,  // measure 61
1000
0100
0001
0100
1000
0010
0001
0010
,  // measure 62
1000
0000
0001
0000
0000
0010
0100
0000
1000
0000
0001
0000
0000
0010
0100
0000
,  // measure 63
1000
0010
0001
0010
1000
0100
0001
0100
,  // measure 64
1000
0000
0001
0001
1000
1000
0010
0100
,  // measure 65
2020
3030
0000
0000
;

//---------------dance-double - ----------------
#NOTEDATA:;
#CHARTNAME:;
#STEPSTYPE:dance-double;
#DESCRIPTION:;
#CHARTSTYLE:;
#DIFFICULTY:Challenge;
#METER:14;
#RADARVALUES:0.599550,0.611498,0.081492,0.554148,0.570446,515.000000,505.000000,10.000000,68.000000,0.000000,0.000000,0.000000,0.000000,0.000000,0.599550,0.611498,0.081492,0.554148,0.570446,515.000000,505.000000,10.000000,68.000000,0.000000,0.000000,0.000000,0.000000,0.000000;
#CREDIT:Embrace;
#NOTES:
00000000
00000000
00000000
00000000
,
00000000
00000000
00000000
00000000
,
00000000
00000000
00000000
00000000
,
00000000
00000000
00000000
00000000
,
00000000
00000000
00000000
00000000
10000000
01000000
00100000
00001000
,
00000010
00000000
00000001
00000000
00000000
00000000
00000001
00001000
00000000
00000000
00001000
00000000
00000010
00000000
00010000
00000000
,
00000000
00000000
00001000
00000000
01000000
00000000
00001000
00000000
00000000
00000000
00010000
00000000
01000000
00000000
10000000
01000000
,
00000000
00000000
10000000
00000000
00100000
00000000
00010000
00001000
00000000
00000000
00001000
00000000
00000100
00000000
00000001
00000000
,
00000020
00000000
00000000
00000000
00000130
00000000
00001000
00000000
00000001
00000000
00000000
00000000
00000100
00000001
00000100
00000001
,
00000010
00000001
00000001
00001000
00001000
00010000
00010000
10000000
,
10000000
00000000
00010000
00000000
00010000
00000000
01000000
00100000
00000000
00000000
10000000
00000000
01000000
00000000
00100000
00010000
,
00000000
10000000
10000000
00010000
00010000
00001000
00001000
00000001
,
00000001
00000000
00000100
00000000
00000100
00000000
00000000
00000000
00000010
00000000
00000100
00000000
00000001
00000000
00000010
00000100
,
00000000
00010000
00010000
00000100
00000100
00100000
00100000
01000000
,
01000000
00000000
10000000
00000000
10000000
00000000
00100000
00000000
01000000
00000000
00001000
00000000
00010000
00000000
00100000
10000000
,
00000000
00001000
00001000
01000000
01000000
00000010
00000010
00001000
,
00001000
00000000
00000001
00000000
00000001
00000000
00000100
00000000
00001000
00000000
00010000
00000000
00010000
00000000
00001000
01000000
,
00020000
00000000
00000000
10000000
00000000
00100000
00000000
20030000
00000000
00000000
00000000
00000000
31000000
00000000
00000000
00000000
,
00200000
00000000
00000000
00001000
00000000
00010000
00000000
00302000
00000000
00000000
00000000
00000000
00003010
00000000
00000000
00000000
,
00000002
00000000
00000000
00000100
00000000
00001000
00000000
00000203
00000000
00000000
00000000
00000000
00001300
00000000
00010000
00001000
,
00200000
00000000
01300000
10000000
00200000
00000000
01300000
00000000
,
00002000
00000000
00000000
00100000
00000000
00010000
00000000
02003000
00000000
00000000
00000000
00000000
03100000
00000000
00010000
00000000
,
00002000
00000000
00000000
00100000
00000000
00010000
00000000
00003020
00000000
00000000
00000000
00000000
00000031
00000000
00001000
00000000
,
00000200
00000000
00000000
00000001
00000000
00001000
00000000
00020300
00000000
00000000
00000000
00000000
00031000
00000000
00000010
00000100
,
00002000
00000000
00000000
00000000
00003001
00000000
00000000
00000000
00000100
00000000
00000100
00000000
00000010
00000100
00001000
00000000
,
00011000
00000000
00000000
01000000
00000000
00010000
00000000
00100000
00000000
01000000
10000000
00000000
00010000
00000000
00100000
00000000
,
00011000
00000000
00000000
00000010
00000000
00001000
00000000
00000100
00000000
00000010
00000001
00000000
00001000
00000000
00000100
00000000
,
00011000
00000000
00000000
01000000
00000000
00010000
00000000
00100000
00000000
01000000
10000000
00000000
00010000
00000000
00100000
00000000
,
01000000
00010000
00001000
00000000
00000100
00001000
00010000
00000000
,
00001001
00000000
00001001
00000000
00000000
00000001
00000000
00000010
00000000
00000100
00001000
00000000
00010000
00000000
00100000
00000000
,
00110000
00000000
00000000
01000000
00000000
10000000
00000000
00100000
00000000
01000000
00010000
00000000
00001000
00000000
00000010
00000000
,
00001010
00000000
00000000
00000100
00000000
00000001
00000000
00000010
00000000
00000100
00001000
00000000
00010000
00000000
00100000
00000000
,
02000000
00000000
00000000
00000000
10000000
00000000
00000000
00000000
03010000
00001000
00010000
00000000
00000010
00001000
00000001
00000000
,
00000020
00000000
00000000
00000000
00000000
00000000
00000000
00000000
00001030
00000000
00000000
00000000
00020000
00030000
00000000
00000000
00000000
00000000
00000000
00000000
00020000
00030000
00000000
00000000
00100000
00000000
00000000
00000000
00000000
00000000
00000000
00000000
02000000
00000000
00000000
00000000
00000000
00000000
00000000
00000000
03010000
00000000
00000000
00000000
00002000
00003000
00000000
00000000
00000000
00000000
00000000
00000000
00002000
00003000
00000000
00000000
00000100
00000000
00000000
00000000
00000000
00000000
00000000
00000000
,
00000010
00000000
00000001
00000000
00000100
00000010
00001000
00000000
00000010
00000000
00010000
00000000
00001000
01000000
00100000
00000000
,
00020000
00000000
00031000
00010000
00000000
00000100
00000010
00000000
00002000
00000000
00013000
00001000
00000000
00100000
01000000
00000000
,
10000000
00000000
00010000
00000000
00100000
00010000
10000000
00000000
01000000
10000000
10000000
00000000
00000000
00010000
10000000
00000000
,
00200000
00000000
00000000
00000000
00000000
00000000
00000000
00000000
00310000
00000000
00000000
00000000
00002000
00003000
00000000
00000000
00000000
00000000
00000000
00000000
00002000
00003000
00000000
00000000
00000010
00000000
00000000
00000000
00000000
00000000
00000000
00000000
00000200
00000000
00000000
00000000
00000000
00000000
00000000
00000000
00001300
00000000
00000000
00000000
00020000
00030000
00000000
00000000
00000000
00000000
00000000
00000000
00020000
00030000
00000000
00000000
01000000
00000000
00000000
00000000
00000000
00000000
00000000
00000000
,
00100000
00000000
10000000
00000000
01000000
00100000
00010000
00000000
00100000
00000000
00001000
00000000
00010000
00000100
00000010
00000000
,
00002000
00000000
00013000
00001000
00000000
01000000
00100000
00000000
00020000
00000000
00031000
00010000
00000000
00000010
00000100
00000000
,
00000001
00000000
00001000
00000000
00000010
00001000
00000001
00000000
00010000
00000010
00000010
00000000
00010000
00001000
00100000
00000000
,
02200000
00000000
03300000
00000000
10000000
00000000
00010000
01000000
00100000
00000000
10000000
00000000
01000000
00000000
00010000
00000000
,
00000200
00000000
00010300
00000000
00001000
00000000
00000100
00000000
00000001
00000000
00000010
00000000
00000100
00000000
00000001
00000100
,
00002000
00000000
00003001
00000000
00000010
00000000
00000100
00010000
00001000
00000000
01000000
00000000
00100000
00000000
00010000
00000000
,
00002000
00103000
00010000
01000000
10000000
01000000
00001000
00000100
,
00000010
00001000
00001000
00000001
00000001
00010000
00010000
00001000
,
00001000
00000000
00100000
00000000
00100000
00000000
00000000
00000000
01000000
00000000
00100000
00000000
00010000
00000000
01000000
00100000
,
10000000
00010000
00010000
10000000
10000000
00001000
00001000
00010000
,
00010000
00000000
00000010
00000000
00001000
00000000
00000000
00000000
00000100
00000010
00000001
00000000
00000001
00000100
00000010
00000000
,
00001010
00000000
00000000
00000000
00000000
00000000
00000000
00000000
00001000
00000000
00000000
00000000
00000001
00000000
00000000
00000000
00000000
00000000
00000000
00000000
00000100
00000000
00000000
00000000
00000000
00000000
00000000
00000000
00002000
00000000
00000000
00000000
00010000
00000000
00000000
00000000
00000000
00000000
00000000
00003000
00002000
00000000
00000000
00000000
01000000
00000000
00000000
00000000
00000000
00000000
00000000
00000000
00000000
00000000
00000000
00003000
00001000
00000000
00000000
00000000
00000000
00000000
00000000
00000000
,
00010000
00000000
00000000
00000000
00000000
00000000
00000000
00000000
00100000
00000000
00000000
00000000
10000000
00000000
00000000
00000000
00000000
00000000
00000000
00000000
01000000
00000000
00000000
00000000
00000000
00000000
00000000
00000000
00020000
00000000
00000000
00000000
00001000
00000000
00000000
00000000
00000000
00000000
00000000
00030000
00020000
00000000
00000000
00000000
00000100
00000000
00000000
00000000
00000000
00000000
00000000
00000000
00000000
00000000
00000000
00030000
00010000
00000000
00000000
00000000
00000000
00000000
00000000
00000000
,
00001000
00000000
00000000
00000000
00000000
00000000
00000000
00000000
00000010
00000000
00000000
00000000
00000001
00000000
00000000
00000000
00000000
00000000
00000000
00000000
00000100
00000000
00000000
00000000
00000000
00000000
00000000
00000000
00002000
00000000
00000000
00000000
00010000
00000000
00000000
00000000
00000000
00000000
00000000
00003000
00002000
00000000
00000000
00000000
01000000
00000000
00000000
00000000
00000000
00000000
00000000
00000000
00000000
00000000
00000000
00003000
00001000
00000000
00000000
00000000
00000000
00000000
00000000
00000000
,
00010000
00000000
00000000
00000000
00000100
00000000
00000000
00000000
00000001
00000000
00000000
00000000
00000100
00010000
00001000
00000000
,
00100000
00000000
00000000
00000000
00000000
00000000
00000000
00000000
00010000
00000000
00000000
00000000
10000000
00000000
00000000
00000000
00000000
00000000
00000000
00000000
00100000
00000000
00000000
00000000
00000000
00000000
00000000
00000000
00020000
00000000
00000000
00000000
00001000
00000000
00000000
00000000
00000000
00000000
00000000
00030000
00020000
00000000
00000000
00000000
00000010
00000000
00000000
00000000
00000000
00000000
00000000
00000000
00000000
00000000
00000000
00030000
00010000
00000000
00000000
00000000
00000000
00000000
00000000
00000000
,
00001000
00000000
00000000
00000000
00000000
00000000
00000000
00000000
00000100
00000000
00000000
00000000
00000001
00000000
00000000
00000000
00000000
00000000
00000000
00000000
00000010
00000000
00000000
00000000
00000000
00000000
00000000
00000000
00002000
00000000
00000000
00000000
00010000
00000000
00000000
00000000
00000000
00000000
00000000
00003000
00002000
00000000
00000000
00000000
00100000
00000000
00000000
00000000
00000000
00000000
00000000
00000000
00000000
00000000
00000000
00003000
00001000
00000000
00000000
00000000
00000000
00000000
00000000
00000000
,
00010000
00000000
00000000
00000000
00000000
00000000
00000000
00000000
01000000
00000000
00000000
00000000
10000000
00000000
00000000
00000000
00000000
00000000
00000000
00000000
00100000
00000000
00000000
00000000
00000000
00000000
00000000
00000000
00020000
00000000
00000000
00000000
00001000
00000000
00000000
00000000
00000000
00000000
00000000
00030000
00020000
00000000
00000000
00000000
00000010
00000000
00000000
00000000
00000000
00000000
00000000
00000000
00000000
00000000
00000000
00030000
00010000
00000000
00000000
00000000
00000000
00000000
00000000
00000000
,
00100000
00000000
10000000
00000000
01000000
00000000
00000000
00000000
00010000
00000000
01000000
00000000
10000000
00010000
01000000
00000000
,
00200000
00000000
00000000
00000000
00000000
00000000
00000000
00000000
00310000
00000000
00000000
00000000
00002000
00003000
00000000
00000000
00000000
00000000
00000000
00000000
00002000
00003000
00000000
00000000
00000100
00000000
00000000
00000000
00000000
00000000
00000000
00000000
00000020
00000000
00000000
00000000
00000000
00000000
00000000
00000000
00001030
00000000
00000000
00000000
00020000
00030000
00000000
00000000
00000000
00000000
00000000
00000000
00020000
00030000
00000000
00000000
01000000
00000000
00000000
00000000
00000000
00000000
00000000
00000000
,
00001000
00000000
00010000
00000000
00000100
00000010
00000001
00000000
00001000
00000000
00000100
00000000
00001000
00000010
00000100
00000000
,
00002000
00000000
00013000
00001000
00000000
00100000
01000000
00000000
00020000
00000000
00031000
00010000
00000000
00000010
00000100
00000000
,
00000001
00000000
00000100
00000000
00001000
00010000
00001000
00000000
00100000
00001000
00001000
00000000
00000000
00010000
00000010
00000000
,
00000200
00000000
00000000
00000000
00000000
00000000
00000000
00000000
00001300
00000000
00000000
00000000
00020000
00030000
00000000
00000000
00000000
00000000
00000000
00000000
00020000
00030000
00000000
00000000
00100000
00000000
00000000
00000000
00000000
00000000
00000000
00000000
02000000
00000000
00000000
00000000
00000000
00000000
00000000
00000000
03010000
00000000
00000000
00000000
00002000
00003000
00000000
00000000
00000000
00000000
00000000
00000000
00002000
00003000
00000000
00000000
00000010
00000000
00000000
00000000
00000000
00000000
00000000
00000000
,
00010000
00000000
00001000
00000000
01000000
00010000
00100000
00000000
01000000
00000000
00100000
00000000
00010000
10000000
00100000
00000000
,
00020000
00000000
00031000
00010000
00000000
00000100
00000010
00000000
00002000
00000000
00013000
00001000
00000000
01000000
00100000
00000000
,
10000000
00000000
01000000
00000000
00010000
01000000
00100000
00000000
00001000
00010000
00010000
00000000
00000010
00001000
00000001
00000000
,
00000220
00000330
00000000
00000000
;

//---------------dance-single - ----------------
#NOTEDATA:;
#CHARTNAME:;
#STEPSTYPE:dance-single;
#DESCRIPTION:;
#CHARTSTYLE:;
#DIFFICULTY:Beginner;
#METER:2;
#RADARVALUES:0.136209,0.212695,0.146686,0.114089,0.000000,117.000000,99.000000,18.000000,14.000000,0.000000,0.000000,0.000000,0.000000,0.000000,0.136209,0.212695,0.146686,0.114089,0.000000,117.000000,99.000000,18.000000,14.000000,0.000000,0.000000,0.000000,0.000000,0.000000;
#CREDIT:Embrace;
#NOTES:
0000
0000
0000
0000
,
0000
0000
0000
0000
,
0000
0000
0000
0000
,
0000
0000
0000
0000
,
0000
0000
0000
0000
,
1000
0000
0000
0000
,
0010
0000
0000
0000
,
0010
0000
0000
0000
,
0100
0000
0000
0000
,
0001
0000
1000
0000
,
0100
0000
0000
0000
,
0010
0000
0001
0000
,
1000
0000
0000
0000
,
0010
0000
0100
0000
,
0001
0000
0000
0000
,
1000
0000
0100
0000
,
0010
0000
0000
0000
,
0002
0000
0003
0000
,
2000
0000
3000
0000
,
0002
0000
0003
0000
,
0010
0000
0010
0000
,
0002
0000
0003
0000
,
0200
0000
0300
0000
,
0020
0000
0030
0000
,
1000
0000
1000
0000
,
0100
0000
0010
0000
,
0100
0000
0010
0000
,
0100
0000
0010
0000
,
0001
0000
0001
0000
,
1001
0000
0000
0000
,
1000
0000
0010
0000
,
1000
0000
0010
0000
,
0100
0000
0100
0000
,
1001
0000
1001
0000
,
0001
0000
0001
0000
,
1001
0000
1001
0000
,
1000
0000
1000
0000
,
1001
0000
1001
0000
,
0001
0000
0001
0000
,
1001
0000
1001
0000
,
1000
0000
1000
0000
,
0010
0000
0100
0000
,
0001
0000
1000
0000
,
0100
0000
0010
0000
,
0001
0000
0100
0000
,
0010
0000
1000
0000
,
0010
0000
0100
0000
,
0001
0000
0010
0000
,
0001
0000
0000
0000
,
2000
0000
3000
0000
,
0020
0000
0030
0000
,
0200
0000
0300
0000
,
0001
0000
0001
0000
,
0002
0000
0003
0000
,
0020
0000
0030
0000
,
0200
0000
0300
0000
,
1000
0000
1000
0000
,
0110
0000
0110
0000
,
0010
0000
0100
0000
,
0110
0000
0110
0000
,
0100
0000
0010
0000
,
0110
0000
0110
0000
,
0010
0000
0100
0000
,
0110
0000
0110
0000
,
1000
0000
0001
0000
,
2002
3003
0000
0000
;

//---------------dance-single - ----------------
#NOTEDATA:;
#CHARTNAME:;
#STEPSTYPE:dance-single;
#DESCRIPTION:;
#CHARTSTYLE:;
#DIFFICULTY:Easy;
#METER:5;
#RADARVALUES:0.213044,0.265869,0.195581,0.171134,0.000000,183.000000,159.000000,24.000000,21.000000,0.000000,0.000000,0.000000,0.000000,0.000000,0.213044,0.265869,0.195581,0.171134,0.000000,183.000000,159.000000,24.000000,21.000000,0.000000,0.000000,0.000000,0.000000,0.000000;
#CREDIT:Embrace;
#NOTES:
0000
0000
0000
0000
,
0000
0000
0000
0000
,
0000
0000
0000
0000
,
0000
0000
0000
0000
,
0000
0000
0000
0000
,
0001
0000
0100
0100
,
0001
0000
1000
0000
,
0100
0000
0010
0010
,
0100
0000
1000
0000
,
0000
0001
1000
0001
,
0010
0001
0000
1000
,
0000
0010
0100
0010
,
1000
0010
0000
0100
,
0000
0001
0010
0100
,
0010
0001
0000
1000
,
0000
0010
1000
0100
,
1000
0010
0100
0010
,
2000
0000
3000
0000
,
0002
0000
0003
0000
,
0020
0000
0030
0000
,
0100
0000
0100
0000
,
0020
0000
0030
0000
,
0002
0000
0003
0000
,
0200
0000
0300
0000
,
0010
0000
1000
1000
,
0010
0000
2000
0001
,
3001
0000
2000
0100
,
3100
0000
0020
0001
,
0031
0000
0001
0000
,
0001
0001
0000
0000
2000
0000
0010
0000
,
3010
0000
0200
0010
,
0310
0000
2000
0100
,
3100
0000
0020
0030
,
1001
0000
0110
0000
,
0001
0010
0100
1000
,
1001
0000
0110
0000
,
1000
0010
0100
0001
,
1001
0000
0110
0000
,
0001
0100
0010
1000
,
1001
0000
0110
0000
,
0001
0010
0100
0010
,
0110
0000
1000
0001
,
1000
0000
0010
0100
,
0001
0000
0010
0100
,
0010
0000
0001
1000
,
0000
0001
1000
0010
,
1000
0001
0000
0010
,
0000
0100
1000
0001
,
0100
0001
0000
1000
,
2001
0000
3010
0000
,
1002
0000
0013
0000
,
2001
0000
3010
0000
,
0100
0000
0010
0000
,
1002
0000
0013
0000
,
2001
0000
3100
0000
,
1002
0000
0013
0000
,
0100
0000
0010
0001
,
1001
0000
0110
0000
,
1000
0001
0010
0100
,
0110
0000
1001
0000
,
0001
1000
0010
0100
,
0110
0000
1001
0000
,
1000
0001
0100
0010
,
0110
0000
1001
0000
,
0001
0001
1000
1000
,
2002
3003
0000
0000
;

//---------------dance-single - ----------------
#NOTEDATA:;
#CHARTNAME:;
#STEPSTYPE:dance-single;
#DESCRIPTION:;
#CHARTSTYLE:;
#DIFFICULTY:Medium;
#METER:9;
#RADARVALUES:0.362059,0.372216,0.138537,0.228178,0.195581,311.000000,294.000000,17.000000,28.000000,0.000000,0.000000,0.000000,0.000000,0.000000,0.362059,0.372216,0.138537,0.228178,0.195581,311.000000,294.000000,17.000000,28.000000,0.000000,0.000000,0.000000,0.000000,0.000000;
#CREDIT:Embrace;
#NOTES:
0000
0000
0000
0000
,
0000
0000
0000
0000
,
0000
0000
0000
0000
,
0000
0000
0000
0000
,
0000
0000
0000
0000
,
1000
0000
0001
0000
0010
0001
0010
0000
,
0100
1000
0010
0200
,
0310
0000
1000
0000
0001
0100
0001
0000
,
2000
0000
3100
0020
,
0030
0001
1000
0001
1000
0010
0100
0010
,
0100
0000
0001
0000
1000
0000
0000
0000
0100
0000
0000
0000
0010
0000
0000
0001
,
0000
1000
0010
1000
0010
0100
0001
0100
,
0001
0000
1000
0000
0010
0000
0000
0000
0100
0000
0000
0000
0001
0000
0000
1000
,
0000
0100
0010
0100
0010
0001
1000
0001
,
1000
0000
0100
0000
0010
0000
0000
0000
0001
0000
0000
0000
1000
0000
0000
0010
,
0000
1000
0100
1000
0100
0010
0001
0010
,
0001
1000
0100
0000
0010
0000
0001
0000
,
1002
0000
0000
0000
0000
0000
0000
1003
0000
0000
0000
0000
0001
0000
0000
0000
,
0200
0000
0000
0000
0000
0000
0000
0310
0000
0000
0000
0000
1000
0000
0000
0000
,
0200
0000
0000
0000
0000
0000
0000
0310
0000
0000
0000
0000
0001
0000
0000
0000
,
2000
3000
0002
0003
,
0200
0000
0000
0000
0000
0000
0000
0310
0000
0000
0000
0000
1000
0000
0000
0000
,
0200
0000
0000
0000
0000
0000
0000
0310
0000
0000
0000
0000
0100
0000
0000
0000
,
2000
0000
0000
0000
0000
0000
0000
3010
0000
0000
0000
0000
0100
0000
0000
0000
,
0002
0003
0010
0010
,
0011
0000
0000
0001
0000
0000
0000
1000
0000
0000
0000
0000
0010
0000
0100
0000
,
0001
0000
0000
1000
0000
0000
0000
0001
0000
0000
0000
0000
0010
0000
0100
0000
,
1000
0000
0000
0001
0000
0000
0000
1000
0000
0000
0000
0000
0010
0000
0100
0000
,
0002
1003
2000
3001
,
1001
0000
1001
0000
0000
0000
0000
0001
0000
0000
0000
0000
0010
0000
0001
0000
,
0100
0000
0000
0010
0000
0000
0000
0100
0000
0000
0000
0000
0010
0000
1000
0000
,
0100
0000
0000
0010
0000
0000
0000
0100
0000
0000
0000
0000
0010
0000
0001
0000
,
0200
0000
0300
0000
0010
1000
0010
0000
,
1001
0000
0000
0001
0000
0000
0010
0000
0001
0000
0000
1000
0000
0000
0010
0000
,
1000
0000
0001
0000
0000
1000
0000
0000
0001
0000
1000
0000
0000
0001
0000
0000
,
0010
0000
0000
0100
0000
0000
1000
0000
0001
0000
0000
1000
0000
0000
0010
0000
,
1000
0000
0001
0000
0000
1000
0000
0000
0001
0000
0000
0000
0110
0000
0000
0000
,
1000
0000
0000
0010
0000
0000
1000
0000
0001
0000
0000
0010
0000
0000
0001
0000
,
0100
0000
0010
0000
0000
0100
0000
0000
0010
0000
0100
0000
0000
0010
0000
0000
,
1000
0000
0000
0100
0000
0000
1000
0000
0001
0000
0000
0100
0000
0000
0001
0000
,
1000
0000
1000
0000
1000
0001
0100
0010
,
2000
3000
0001
0000
1000
0100
1000
0000
,
0010
0000
1000
0000
0001
0000
0010
0100
,
1000
0000
0001
0000
0100
0001
0100
0000
,
0020
0000
0000
0000
0000
0000
0000
0000
1030
0000
0000
0000
0100
0000
0000
0010
,
0000
0001
0100
0001
0100
0001
0010
0001
,
0010
0000
0001
0000
0100
0000
0000
0000
0010
0000
0000
0000
1000
0000
0000
0001
,
0000
1000
0100
1000
0100
1000
0010
1000
,
0010
1000
0100
0000
0020
0000
0031
0000
,
1001
0000
2000
3001
,
0110
0000
0002
0013
,
1100
0000
0200
0310
,
0002
0100
0010
0103
,
1010
0000
2000
3001
,
0110
0000
2000
3100
,
0011
0000
2000
3010
,
0120
1030
0110
0101
,
1000
0000
0000
0001
0000
0000
0010
0000
0001
0000
0000
1000
0000
0000
0100
0000
,
1000
0000
0001
0000
0000
0100
0000
0000
0001
0000
1000
0000
0000
0100
0000
0000
,
1000
0000
0000
0001
0000
0000
0100
0000
0010
0000
0000
1000
0000
0000
0100
0000
,
0010
0000
0001
0000
0000
0010
0000
0000
0100
0000
0000
0000
1001
0000
0000
0000
,
0001
0000
0000
0100
0000
0000
0010
0000
1000
0000
0000
0100
0000
0000
0010
0000
,
0001
0000
0100
0000
0000
0001
0000
0000
0100
0000
0010
0000
0000
1000
0000
0000
,
0100
0000
0000
0010
0000
0000
0001
0000
0100
0000
0000
0001
0000
0000
0010
0000
,
0100
1000
0100
0000
0010
0001
0100
0000
,
0220
0330
0000
0000
;

//---------------dance-single - ----------------
#NOTEDATA:;
#CHARTNAME:;
#STEPSTYPE:dance-single;
#DESCRIPTION:;
#CHARTSTYLE:;
#DIFFICULTY:Challenge;
#METER:14;
#RADARVALUES:0.610028,0.611498,0.122238,0.708983,0.570446,524.000000,509.000000,15.000000,87.000000,0.000000,0.000000,0.000000,0.000000,0.000000,0.610028,0.611498,0.122238,0.708983,0.570446,524.000000,509.000000,15.000000,87.000000,0.000000,0.000000,0.000000,0.000000,0.000000;
#CREDIT:Embrace;
#NOTES:
0000
0000
0000
0000
,
0000
0000
0000
0000
,
0000
0000
0000
0000
,
0000
0000
0000
0000
,
0000
0000
0000
0000
1000
0010
0001
1000
,
0100
0000
0010
0000
0000
0000
0010
1000
0000
0000
1000
0000
0100
0000
0010
0000
,
0000
0000
0001
0000
0010
0000
0100
0000
0000
0000
1000
0000
0100
0000
0001
0100
,
0000
0000
0010
0000
0001
0000
0100
0010
0000
0000
0010
0000
0001
0000
0010
0000
,
2000
0000
0000
0000
3001
0000
0010
0000
0100
0000
0000
0000
1000
0010
1000
0010
,
0100
1000
1000
0001
0001
0010
0010
1000
,
1000
0000
0001
0000
0001
0000
0010
0100
0000
0000
1000
0000
0010
0000
0100
0010
,
0000
0001
0001
1000
1000
0100
0100
0001
,
0001
0000
1000
0000
1000
0000
0001
0000
0100
0000
0010
0000
1000
0000
0001
0010
,
0000
1000
1000
0001
0001
0100
0100
1000
,
1000
0000
0001
0000
0001
0000
1000
0000
0010
0000
0100
0000
0010
0000
1000
0100
,
0000
0001
0001
1000
1000
0010
0010
0001
,
0001
0000
1000
0000
0010
0000
0100
0000
0010
0000
1000
0000
0100
0000
0010
0001
,
2000
0000
0000
0100
0000
0001
0000
3200
0000
0000
0000
0000
0310
0000
0000
0000
,
0002
0000
0000
0010
0000
1000
0000
0023
0000
0000
0000
0000
0130
0000
0000
0000
,
2000
0000
0000
0010
0000
0001
0000
3020
0000
0000
0000
0000
0031
0000
0010
1000
,
0200
0000
0310
0001
0200
0000
0310
0000
,
2000
0000
0000
0100
0000
0001
0000
3020
0000
0000
0000
0000
0130
0000
0001
0000
,
0020
0000
0000
1000
0000
0100
0000
0032
0000
0000
0000
0000
1003
0000
0010
0000
,
0200
0000
0000
1000
0000
0001
0000
0320
0000
0000
0000
0000
0130
0000
1000
0100
,
0002
0000
0000
0000
0013
0000
0000
0000
0100
0000
0100
0000
0100
1000
0001
0000
,
0011
0000
0000
1000
0000
0010
0000
0100
0000
0010
1000
0000
0100
0000
0010
0000
,
1100
0000
0000
0001
0000
0100
0000
0010
0000
0100
0001
0000
1000
0000
0100
0000
,
0011
0000
0000
1000
0000
0010
0000
0100
0000
0010
1000
0000
0001
0000
0010
0000
,
0002
0100
1003
0000
0002
0010
1003
0000
,
0110
0000
0110
0000
0000
0001
0000
0010
0000
0100
0001
0000
0100
0000
1000
0000
,
0110
0000
0000
1000
0000
0010
0000
0100
0000
1000
0100
0000
0001
0000
1000
0000
,
0110
0000
0000
0001
0000
0010
0000
0100
0000
0001
0100
0000
1000
0000
0010
0000
,
0120
0000
0000
0000
1000
0000
0000
0000
0130
0001
1000
0000
0001
0010
0100
0000
,
0020
0000
0000
0000
0000
0000
0000
0000
0031
0000
0000
0000
0200
0300
0000
0000
0000
0000
0000
0000
0200
0300
0000
0000
1000
0000
0000
0000
0000
0000
0000
0000
0020
0000
0000
0000
0000
0000
0000
0000
1030
0000
0000
0000
0200
0300
0000
0000
0000
0000
0000
0000
0200
0300
0000
0000
0001
0000
0000
0000
0000
0000
0000
0000
,
0010
0000
0100
0000
1000
0010
0100
0000
0010
0000
1000
0000
0100
0010
0001
0000
,
0200
0000
0000
0000
0000
0000
0000
0000
0301
0000
0000
0000
0020
0030
0000
0000
0000
0000
0000
0000
0020
0030
0000
0000
1000
0000
0000
0000
0000
0000
0000
0000
0200
0000
0000
0000
0000
0000
0000
0000
1300
0000
0000
0000
0020
0030
0000
0000
0000
0000
0000
0000
0020
0030
0000
0000
0001
0000
0000
0000
0000
0000
0000
0000
,
0100
0000
0001
0000
0010
0100
1000
0000
0001
1000
1000
0000
0001
0100
0010
0000
,
2000
0000
0000
0000
0000
0000
0000
0000
3100
0000
0000
0000
0020
0030
0000
0000
0000
0000
0000
0000
0020
0030
0000
0000
1000
0000
0000
0000
0000
0000
0000
0000
0002
0000
0000
0000
0000
0000
0000
0000
0103
0000
0000
0000
0020
0030
0000
0000
0000
0000
0000
0000
0020
0030
0000
0000
0001
0000
0000
0000
0000
0000
0000
0000
,
1000
0000
0010
0000
0100
0001
0010
0000
0001
0000
1000
0000
0100
1000
0010
0000
,
2000
0000
0000
0000
0000
0000
0000
0000
3010
0000
0000
0000
0200
0300
0000
0000
0000
0000
0000
0000
0200
0300
0000
0000
1000
0000
0000
0000
0000
0000
0000
0000
0002
0000
0000
0000
0000
0000
0000
0000
0013
0000
0000
0000
0200
0300
0000
0000
0000
0000
0000
0000
0200
0300
0000
0000
0001
0000
0000
0000
0000
0000
0000
0000
,
1000
0000
0010
0000
0100
0001
0010
0000
0100
1000
1000
0000
0010
1000
0001
0000
,
0220
0000
0330
0000
1000
0000
0100
0001
0100
0000
1000
0000
0010
0000
0001
0000
,
2000
0000
3100
0000
0001
0000
1000
0000
0100
0000
0010
0000
0001
0000
0100
0001
,
0020
0000
0130
0000
1000
0000
0010
0001
0010
0000
0100
0000
1000
0000
0100
0000
,
0002
0013
0100
1000
0001
0100
1000
0100
,
0001
0010
0010
1000
1000
0001
0001
0100
,
0100
0000
1000
0000
1000
0000
0001
0000
0100
0000
0010
0000
1000
0000
0001
1000
,
0010
0001
0001
1000
1000
0100
0100
0001
,
0001
0000
1000
0000
1000
0000
0000
0000
0100
1000
0001
0000
0010
0001
0100
0000
,
1010
0000
0000
0000
0000
0000
0000
0000
1000
0000
0000
0000
0100
0000
0000
0000
0000
0000
0000
0000
0001
0000
0000
0000
0000
0000
0000
0000
0200
0000
0000
0000
1000
0000
0000
0000
0000
0000
0000
0300
0200
0000
0000
0000
0010
0000
0000
0000
0000
0000
0000
0000
0000
0000
0000
0300
0100
0000
0000
0000
0000
0000
0000
0000
,
1000
0000
0000
0000
0000
0000
0000
0000
0001
0000
0000
0000
0100
0000
0000
0000
0000
0000
0000
0000
1000
0000
0000
0000
0000
0000
0000
0000
0200
0000
0000
0000
0001
0000
0000
0000
0000
0000
0000
0300
0200
0000
0000
0000
0010
0000
0000
0000
0000
0000
0000
0000
0000
0000
0000
0300
0100
0000
0000
0000
0000
0000
0000
0000
,
0001
0000
0000
0000
0000
0000
0000
0000
1000
0000
0000
0000
0100
0000
0000
0000
0000
0000
0000
0000
0001
0000
0000
0000
0000
0000
0000
0000
0200
0000
0000
0000
1000
0000
0000
0000
0000
0000
0000
0300
0200
0000
0000
0000
0010
0000
0000
0000
0000
0000
0000
0000
0000
0000
0000
0300
0100
0000
0000
0000
0000
0000
0000
0000
,
2000
0000
0000
0000
0010
0000
0000
0000
0100
0000
0000
0000
3010
0100
0001
0000
,
0011
0000
0000
0000
0000
0000
0000
0000
1000
0000
0000
0000
0010
0000
0000
0000
0000
0000
0000
0000
0001
0000
0000
0000
0000
0000
0000
0000
0020
0000
0000
0000
1000
0000
0000
0000
0000
0000
0000
0030
0020
0000
0000
0000
0100
0000
0000
0000
0000
0000
0000
0000
0000
0000
0000
0030
0010
0000
0000
0000
0000
0000
0000
0000
,
1000
0000
0000
0000
0000
0000
0000
0000
0001
0000
0000
0000
0010
0000
0000
0000
0000
0000
0000
0000
1000
0000
0000
0000
0000
0000
0000
0000
0020
0000
0000
0000
0001
0000
0000
0000
0000
0000
0000
0030
0020
0000
0000
0000
0100
0000
0000
0000
0000
0000
0000
0000
0000
0000
0000
0030
0010
0000
0000
0000
0000
0000
0000
0000
,
0001
0000
0000
0000
0000
0000
0000
0000
1000
0000
0000
0000
0010
0000
0000
0000
0000
0000
0000
0000
0001
0000
0000
0000
0000
0000
0000
0000
0020
0000
0000
0000
1000
0000
0000
0000
0000
0000
0000
0030
0020
0000
0000
0000
0100
0000
0000
0000
0000
0000
0000
0000
0000
0000
0000
0030
0010
0000
0000
0000
0000
0000
0000
0000
,
0110
0000
0100
0000
1001
0000
0000
0000
0011
0000
0001
0000
0001
0010
1000
0000
,
0020
0000
0000
0000
0000
0000
0000
0000
0031
0000
0000
0000
0200
0300
0000
0000
0000
0000
0000
0000
0200
0300
0000
0000
0010
0000
0000
0000
0000
0000
0000
0000
0002
0000
0000
0000
0000
0000
0000
0000
0103
0000
0000
0000
0020
0030
0000
0000
0000
0000
0000
0000
0020
0030
0000
0000
0001
0000
0000
0000
0000
0000
0000
0000
,
1000
0000
0100
0000
0010
0001
0100
0000
0001
0000
0010
0000
0100
1000
0010
0000
,
2000
0000
0000
0000
0000
0000
0000
0000
3100
0000
0000
0000
0020
0030
0000
0000
0000
0000
0000
0000
0020
0030
0000
0000
1000
0000
0000
0000
0000
0000
0000
0000
0002
0000
0000
0000
0000
0000
0000
0000
1003
0000
0000
0000
0200
0300
0000
0000
0000
0000
0000
0000
0200
0300
0000
0000
0010
0000
0000
0000
0000
0000
0000
0000
,
1000
0000
0001
0000
0100
0001
0010
0000
0001
1000
1000
0000
0100
1000
0010
0000
,
0200
0000
0000
0000
0000
0000
0000
0000
0301
0000
0000
0000
0020
0030
0000
0000
0000
0000
0000
0000
0020
0030
0000
0000
0100
0000
0000
0000
0000
0000
0000
0000
0002
0000
0000
0000
0000
0000
0000
0000
0013
0000
0000
0000
0200
0300
0000
0000
0000
0000
0000
0000
0200
0300
0000
0000
0010
0000
0000
0000
0000
0000
0000
0000
,
1000
0000
0001
0000
0010
0001
0100
0000
0010
0000
1000
0000
0100
1000
0010
0000
,
2000
0000
0000
0000
0000
0000
0000
0000
3100
0000
0000
0000
0020
0030
0000
0000
0000
0000
0000
0000
0020
0030
0000
0000
0100
0000
0000
0000
0000
0000
0000
0000
0002
0000
0000
0000
0000
0000
0000
0000
0013
0000
0000
0000
0200
0300
0000
0000
0000
0000
0000
0000
0200
0300
0000
0000
0010
0000
0000
0000
0000
0000
0000
0000
,
1000
0000
0001
0000
0010
0100
1000
0000
0010
1000
1000
0000
0100
0010
0001
0000
,
0220
0330
0000
0000
;

//---------------dance-double - ----------------
#NOTEDATA:;
#CHARTNAME:;
#STEPSTYPE:dance-double;
#DESCRIPTION:;
#CHARTSTYLE:;
#DIFFICULTY:Hard;
#METER:11;
#RADARVALUES:0.462178,0.478563,0.081492,0.334118,0.317820,397.000000,387.000000,10.000000,41.000000,0.000000,0.000000,0.000000,0.000000,0.000000,0.462178,0.478563,0.081492,0.334118,0.317820,397.000000,387.000000,10.000000,41.000000,0.000000,0.000000,0.000000,0.000000,0.000000;
#CREDIT:Embrace;
#NOTES:
00000000
00000000
00000000
00000000
,
00000000
00000000
00000000
00000000
,
00000000
00000000
00000000
00000000
,
00000000
00000000
00000000
00000000
,
00000000
00000000
00000000
00000000
,
00001000
00000000
00010000
00000000
00000100
00000010
00000100
00000000
,
00010000
00000000
00001000
00000000
00100000
00000000
00010000
01000000
,
00100000
00000000
10000000
00000000
00010000
01000000
00010000
00000000
,
20000000
00000000
01000000
00000000
30010000
00000000
00100000
00001000
,
00010000
00000100
00000100
00001000
00001000
00000001
00000001
00000010
,
00000010
00000100
00000100
00000000
00010000
00000000
00001000
00010000
,
00000010
00001000
00001000
00000001
00000001
00000100
00000100
00000010
,
00000010
00010000
00010000
00000000
00000010
00000000
00001000
00000100
,
00010000
00001000
00001000
01000000
01000000
00100000
00100000
10000000
,
10000000
01000000
01000000
00000000
00100000
00000000
00001000
00100000
,
00010000
10000000
01000000
00100000
00001000
00010000
00000010
00001000
,
00000001
00000001
00000100
00000100
00000010
00000010
00010000
00010000
,
00002000
00000000
00000000
00010000
00000000
00010000
00000000
00013000
00000000
00000000
00000000
00000000
00001000
00000000
00000000
00000000
,
00200000
00000000
00000000
01000000
00000000
01000000
00000000
01300000
00000000
00000000
00000000
00000000
10000000
00000000
00000000
00000000
,
00020000
00000000
00000000
01000000
00000000
01000000
00000000
01030000
00000000
00000000
00000000
00000000
00001000
00000000
00000000
00000000
,
00020000
00030100
00000020
00000130
,
00002000
00000000
00000000
00000010
00000000
00000010
00000000
00003010
00000000
00000000
00000000
00000000
00000001
00000000
00000000
00000000
,
00000020
00000000
00000000
00001000
00000000
00001000
00000000
00001030
00000000
00000000
00000000
00000000
00000100
00000000
00000000
00000000
,
00020000
00000000
00000000
00001000
00000000
00001000
00000000
00031000
00000000
00000000
00000000
00000000
01000000
00000000
00000000
00000000
,
00200000
00000000
10300000
00000000
00010000
00100000
01000000
00100000
,
00002000
00000000
00000000
00013000
00000000
00000100
00000000
00000020
00000000
00000000
00000000
00000000
00000031
00000000
00000100
00000000
,
00000020
00000000
00000000
00010030
00000000
00001000
00000000
00200000
00000000
00000000
00000000
00000000
01300000
00000000
10000000
00000000
,
00020000
00000000
00000000
01030000
00000000
00100000
00000000
20000000
00000000
00000000
00000000
00000000
30100000
00000000
01000000
00000000
,
00001000
00000000
00000000
00001000
00010000
00000000
00000000
00000000
00000100
00000000
00000000
00000100
00000010
00000000
00000000
00000000
,
00001001
00000000
00001001
00000000
00000000
00000001
00000000
00000200
00000000
00000000
00000000
00000000
00000310
00000000
00010000
00000000
,
00002000
00000000
00000000
00103000
00000000
00010000
00000000
02000000
00000000
00000000
00000000
00000000
03100000
00000000
10000000
00000000
,
02000000
00000000
00000000
03100000
00000000
00001000
00000000
00020000
00000000
00000000
00000000
00000000
00030010
00000000
00000100
00000000
,
00000002
00000000
00000010
00000000
00000103
00000010
00001000
00000010
,
00010000
00001000
00000010
00001000
00010000
00001000
00000010
00001000
,
00010000
00000000
00001000
00000000
00000000
01000000
00001000
00000000
00010000
00000000
00001000
00000000
00000000
01000000
00001000
00000000
,
00010000
00001000
00000100
00001000
00010000
00001000
00000100
00001000
,
00010000
00000000
00001000
00000000
00000000
00100000
00001000
00000000
00001000
00000000
00100000
00000000
00000000
00010000
00100000
00000000
,
00001000
00010000
01000000
00010000
00001000
00010000
01000000
00010000
,
00001000
00000000
00010000
00000000
00000000
00000010
00010000
00000000
00001000
00000000
00010000
00000000
00000000
00000010
00010000
00000000
,
00001000
00010000
00100000
00010000
00001000
00010000
00100000
00010000
,
00001000
00000000
00001000
00000000
00001000
00100000
01000000
10000000
,
00200000
00300000
01000000
00000000
00010000
00100000
00001000
00000000
,
00000010
00000000
00000000
00000000
00000001
00000000
00000000
00000000
00000100
00000000
00000000
00000000
00000010
00000000
00010000
00001000
,
00000000
00000000
00010000
00000000
01000000
10000000
00010000
00000000
,
20000000
00000000
00000000
00000000
01000000
00000000
00000000
00000000
30100000
00000000
01000000
00000000
00001000
00000000
00010000
00001000
,
00000000
00010000
00010000
00000010
00000010
00000100
00000100
00000001
,
00000001
00000000
00000010
00000000
00000010
00000000
00000000
00000000
00001000
00000000
00000000
00000000
00010000
00000000
00001000
00010000
,
00000000
00001000
00001000
01000000
01000000
00100000
00100000
10000000
,
10000000
01000000
01000000
00000000
00200000
00301000
00020000
00030010
,
00001010
00000000
00000000
00001000
00000000
00000001
00000000
00000020
00000000
00000000
00000000
00000230
00000000
00000000
00000300
00000000
,
00001100
00000000
00000000
00001000
00000000
00000001
00000000
00000200
00000000
00000000
00000000
00000320
00000000
00000000
00000030
00000000
,
00001010
00000000
00000000
00001000
00000000
00000001
00000000
00000020
00000000
00000000
00000000
00002030
00000000
00000000
00013000
00000000
,
00021000
00000000
00000000
00000000
00100000
00000000
00000000
00000000
00031000
00000000
00000000
00000000
01000000
00100000
01000000
00000000
,
01100000
00000000
00000000
00100000
00000000
10000000
00000000
02000000
00000000
00000000
00000000
03200000
00000000
00000000
00300000
00000000
,
00110000
00000000
00000000
00010000
00000000
01000000
00000000
00200000
00000000
00000000
00000000
20300000
00000000
00000000
30000000
00000000
,
11000000
00000000
00000000
01000000
00000000
00100000
00000000
00020000
00000000
00000000
00000000
02030000
00000000
00000000
03100000
00000000
,
10000000
00000000
00000000
00000000
10000000
00000000
00000000
00000000
00010000
00000000
00010000
00000000
00100000
00001000
00100000
00000000
,
00001000
00010000
01000000
00010000
00001000
00010000
00100000
00010000
,
00001000
00000000
01000000
00000000
00000000
00010000
01000000
00000000
00001000
00000000
01000000
00000000
00000000
00010000
01000000
00000000
,
00001000
00010000
00100000
00010000
00001000
00010000
01000000
00010000
,
00001000
00000000
00100000
00000000
00000000
00010000
00100000
00000000
00100000
00000000
01000000
00000000
00000000
00010000
00001000
00000000
,
00010000
00001000
00000100
00001000
00010000
00001000
00000010
00001000
,
00010000
00000000
00000010
00000000
00000000
00001000
00000010
00000000
00010000
00000000
00000010
00000000
00000000
00001000
00000010
00000000
,
00010000
00001000
00000010
00001000
00010000
00001000
00000100
00001000
,
00010000
00000000
00001000
00001000
01000000
00100000
10000000
00010000
,
02200000
03300000
00000000
00000000
;

//---------------dance-double - ----------------
#NOTEDATA:;
#CHARTNAME:;
#STEPSTYPE:dance-double;
#DESCRIPTION:;
#CHARTSTYLE:;
#DIFFICULTY:Medium;
#METER:9;
#RADARVALUES:0.363223,0.372216,0.146686,0.228178,0.195581,312.000000,294.000000,18.000000,28.000000,0.000000,0.000000,0.000000,0.000000,0.000000,0.363223,0.372216,0.146686,0.228178,0.195581,312.000000,294.000000,18.000000,28.000000,0.000000,0.000000,0.000000,0.000000,0.000000;
#CREDIT:Embrace;
#NOTES:
00000000
00000000
00000000
00000000
,
00000000
00000000
00000000
00000000
,
00000000
00000000
00000000
00000000
,
00000000
00000000
00000000
00000000
,
00000000
00000000
00000000
00000000
,
00001001
00000000
00000001
00000000
00000100
00000001
00000100
00000000
,
00000010
00001000
00000100
00020000
,
00031000
00000000
00100000
00000000
01000000
10000000
01000000
00000000
,
00200000
00000000
00310000
02000000
,
03000000
00001000
00010000
00001000
00010000
00000100
00000010
00000100
,
00000010
00000000
00000001
00000000
00001000
00000000
00000000
00000000
00000001
00000000
00000000
00000000
00000100
00000000
00000000
00000010
,
00000000
00010000
00001000
00010000
00001000
00100000
01000000
00100000
,
01000000
00000000
10000000
00000000
00100000
00000000
00000000
00000000
10000000
00000000
00000000
00000000
00010000
00000000
00000000
01000000
,
00000000
00001000
00010000
00001000
00010000
00000010
00000100
00000010
,
00000100
00000000
00000001
00000000
00001000
00000000
00000000
00000000
00000100
00000000
00000000
00000000
00000010
00000000
00000000
00000100
,
00000000
00010000
00001000
00010000
00001000
01000000
00100000
01000000
,
00100000
10000000
00010000
00000000
00100000
00000000
01000000
00000000
,
02100000
00000000
00000000
00000000
00000000
00000000
00000000
13000000
00000000
00000000
00000000
00000000
00010000
00000000
00000000
00000000
,
02000000
00000000
00000000
00000000
00000000
00000000
00000000
03100000
00000000
00000000
00000000
00000000
01000000
00000000
00000000
00000000
,
00002000
00000000
00000000
00000000
00000000
00000000
00000000
00013000
00000000
00000000
00000000
00000000
00000100
00000000
00000000
00000000
,
00002000
00003000
00000020
00000030
,
00000200
00000000
00000000
00000000
00000000
00000000
00000000
00000301
00000000
00000000
00000000
00000000
00000010
00000000
00000000
00000000
,
00000200
00000000
00000000
00000000
00000000
00000000
00000000
00010300
00000000
00000000
00000000
00000000
00001000
00000000
00000000
00000000
,
02000000
00000000
00000000
00000000
00000000
00000000
00000000
03100000
00000000
00000000
00000000
00000000
10000000
00000000
00000000
00000000
,
02000000
03000000
00100000
00100000
,
00101000
00000000
00000000
00001000
00000000
00000000
00000000
00010000
00000000
00000000
00000000
00000000
00001000
00000000
00010000
00000000
,
00000100
00000000
00000000
00000010
00000000
00000000
00000000
00000100
00000000
00000000
00000000
00000000
00001000
00000000
00000001
00000000
,
00000100
00000000
00000000
00000010
00000000
00000000
00000000
00010000
00000000
00000000
00000000
00000000
00001000
00000000
00010000
00000000
,
00002000
00103000
00020000
10030000
,
10010000
00000000
10010000
00000000
00000000
00000000
00000000
00010000
00000000
00000000
00000000
00000000
01000000
00000000
00010000
00000000
,
10000000
00000000
00000000
01000000
00000000
00000000
00000000
00100000
00000000
00000000
00000000
00000000
00001000
00000000
00010000
00000000
,
00000010
00000000
00000000
00001000
00000000
00000000
00000000
00000001
00000000
00000000
00000000
00000000
00000010
00000000
00000100
00000000
,
00002000
00000000
00003000
00000000
00000001
00000100
00000001
00000000
,
00001001
00000000
00000000
00001000
00000000
00000000
00000100
00000000
00010000
00000000
00000000
00001000
00000000
00000000
01000000
00000000
,
00010000
00000000
00100000
00000000
00000000
00010000
00000000
00000000
10000000
00000000
00100000
00000000
00000000
01000000
00000000
00000000
,
00100000
00000000
00000000
10000000
00000000
00000000
00010000
00000000
00100000
00000000
00000000
00001000
00000000
00000000
00010000
00000000
,
00000010
00000000
00001000
00000000
00000000
00000001
00000000
00000000
00000010
00000000
00000000
00000000
00000110
00000000
00000000
00000000
,
00000001
00000000
00000000
00000100
00000000
00000000
00000010
00000000
00001000
00000000
00000000
00000001
00000000
00000000
00000010
00000000
,
00000100
00000000
00010000
00000000
00000000
00001000
00000000
00000000
01000000
00000000
00010000
00000000
00000000
10000000
00000000
00000000
,
00100000
00000000
00000000
10000000
00000000
00000000
01000000
00000000
00100000
00000000
00000000
00001000
00000000
00000000
00010000
00000000
,
00001000
00000000
00001000
00000000
00001000
00010000
00000010
00000100
,
00000002
00000003
00001000
00000000
00000100
00000010
00000100
00000000
,
00010000
00000000
00001000
00000000
01000000
00000000
00010000
10000000
,
00100000
00000000
01000000
00000000
00001000
00010000
00001000
00000000
,
00020000
00000000
00000000
00000000
00000000
00000000
00000000
00000000
00030010
00000000
00000000
00000000
00001000
00000000
00000000
00000001
,
00000000
00000100
00000010
00000100
00000010
00010000
00001000
00010000
,
00001000
00000000
00100000
00000000
01000000
00000000
00000000
00000000
10000000
00000000
00000000
00000000
00010000
00000000
00000000
10000000
,
00000000
00100000
01000000
00100000
01000000
00001000
00010000
00001000
,
00010000
00000100
00000010
00000000
00000002
00000000
00001003
00000000
,
00001001
00000000
00020000
00030010
,
00011000
00000000
00002000
00103000
,
00011000
00000000
00020000
00030100
,
00000020
00000001
00000100
00000031
,
00001010
00000000
00020000
00031000
,
00110000
00000000
20000000
30010000
,
10100000
00000000
20000000
31000000
,
02100000
13000000
00101000
00011000
,
00001000
00000000
00000000
01000000
00000000
00000000
00010000
00000000
10000000
00000000
00000000
01000000
00000000
00000000
00100000
00000000
,
00010000
00000000
01000000
00000000
00000000
00001000
00000000
00000000
00010000
00000000
00000100
00000000
00000000
00000010
00000000
00000000
,
00000001
00000000
00000000
00001000
00000000
00000000
00000010
00000000
00000100
00000000
00000000
00000001
00000000
00000000
00001000
00000000
,
00000100
00000000
00010000
00000000
00000000
00001000
00000000
00000000
00010000
00000000
00000000
00000000
00010010
00000000
00000000
00000000
,
00000010
00000000
00000000
00000100
00000000
00000000
00000001
00000000
00000100
00000000
00000000
00000010
00000000
00000000
00010000
00000000
,
00001000
00000000
00100000
00000000
00000000
00010000
00000000
00000000
10000000
00000000
01000000
00000000
00000000
10000000
00000000
00000000
,
00100000
00000000
00000000
01000000
00000000
00000000
00010000
00000000
00100000
00000000
00000000
00001000
00000000
00000000
00010000
00000000
,
00000100
00001000
00000001
00000000
00001000
00000010
00010000
00000000
,
00202000
00303000
00000000
00000000
;

//---------------dance-double - ----------------
#NOTEDATA:;
#CHARTNAME:;
#STEPSTYPE:dance-double;
#DESCRIPTION:;
#CHARTSTYLE:;
#DIFFICULTY:Easy;
#METER:5;
#RADARVALUES:0.216537,0.292455,0.220029,0.171134,0.000000,186.000000,159.000000,27.000000,21.000000,0.000000,0.000000,0.000000,0.000000,0.000000,0.216537,0.292455,0.220029,0.171134,0.000000,186.000000,159.000000,27.000000,21.000000,0.000000,0.000000,0.000000,0.000000,0.000000;
#CREDIT:Embrace;
#NOTES:
00000000
00000000
00000000
00000000
,
00000000
00000000
00000000
00000000
,
00000000
00000000
00000000
00000000
,
00000000
00000000
00000000
00000000
,
00000000
00000000
00000000
00000000
,
00010000
00000000
00001000
00001000
,
00010000
00000000
00000010
00000000
,
00000100
00000000
00000001
00000001
,
00000010
00000000
00000100
00000000
,
00000000
00001000
00000010
00010000
,
00001000
00100000
00000000
01000000
,
00000000
10000000
01000000
10000000
,
00010000
01000000
00000000
00001000
,
00000000
00010000
00001000
00010000
,
00000010
00000100
00000000
00000001
,
00000000
00001000
00000100
00000010
,
00000100
00001000
00000010
00010000
,
00002000
00000000
00003000
00000000
,
02000000
00000000
03000000
00000000
,
00200000
00000000
00300000
00000000
,
10000000
00000000
10000000
00000000
,
02000000
00000000
03000000
00000000
,
00200000
00000000
00300000
00000000
,
00002000
00000000
00003000
00000000
,
00010000
00000000
00000010
00000010
,
00001000
00000000
00000002
00001000
,
00001003
00000000
00000200
00010000
,
00010300
00000000
00002000
01000000
,
01003000
00000000
00010000
00000000
,
01000000
01000000
00000000
00000000
00200000
00000000
10000000
00000000
,
10300000
00000000
02000000
00100000
,
03100000
00000000
00002000
00010000
,
00013000
00000000
00000020
00000030
,
00001001
00000000
00000110
00000000
,
00001000
00000010
00010000
00001000
,
00101000
00000000
00010100
00000000
,
00011000
00001000
01000000
00100000
,
01100000
00000000
10010000
00000000
,
10000000
00100000
01000000
00001000
,
01001000
00000000
00010010
00000000
,
00001010
00001000
00000001
00000010
,
00000110
00000000
00001000
00000001
,
00001000
00000000
00000100
00010000
,
00001000
00000000
01000000
00010000
,
01000000
00000000
00100000
10000000
,
00000000
00010000
00100000
01000000
,
00100000
00001000
00000000
00010000
,
00000000
00000010
00001000
00000100
,
00001000
00000010
00000000
00010000
,
00021000
00000000
00030100
00000000
,
00012000
00000000
01003000
00000000
,
00021000
00000000
00030100
00000000
,
00010000
00000000
00001000
00000000
,
00012000
00000000
00103000
00000000
,
00021000
00000000
00030010
00000000
,
00012000
00000000
00103000
00000000
,
00110000
00000000
00100000
01000000
,
01100000
00000000
10010000
00000000
,
10000000
00010000
01000000
00001000
,
01001000
00000000
00010010
00000000
,
00010000
00000010
00000100
00000001
,
00001001
00000000
00000110
00000000
,
00001000
00000010
00010000
00001000
,
00101000
00000000
00010100
00000000
,
00001000
00001000
01000000
01000000
,
02002000
03003000
00000000
00000000
;
