#TITLE:Hard Landing;
#SUBTITLE:;
#ARTIST:Yamajet;
#TITLETRANSLIT:;
#SUBTITLETRANSLIT:;
#ARTISTTRANSLIT:;
#GENRE:VARIETY;
#CREDIT:MUINELIM;
#BANNER:Hard Landing.png;
#BACKGROUND:Hard Landing-bg.png;
#LYRICSPATH:;
#CDTITLE:;
#MUSIC:Hard Landing.ogg;
#OFFSET:-0.054000;
#SAMPLESTART:33.704857;
#SAMPLELENGTH:15.368572;
#SELECTABLE:YES;
#DISPLAYBPM:140.000000;
#BPMS:0.000000=140.000000
;
#STOPS:
;
#BGCHANGES:;
#KEYSOUNDS:;
#ATTACKS:;

//---------------dance-single - ----------------
#NOTES:
     dance-single:
     :
     Beginner:
     3:
     0.139405,0.193540,0.008132,0.032528,0.000000,120.000000,119.000000,1.000000,4.000000,0.000000,0.000000,0.139405,0.193540,0.008132,0.032528,0.000000,120.000000,119.000000,1.000000,4.000000,0.000000,0.000000:
0000
0000
0000
0000
,
0000
0000
0000
0000
,
1000
0000
1000
0000
,
0001
0000
0001
0000
,
1000
0000
0000
0000
,
0100
0000
0000
0000
,
0010
0000
0000
0000
,
0001
0000
0000
0000
,
1000
0000
0000
0000
,
0100
0000
0000
0000
,
0010
0000
0000
0000
,
0001
0000
0000
0000
,
0100
0000
0100
0000
,
0010
0000
0010
0000
,
0100
0000
0100
0000
,
0010
0000
0010
0000
,
1000
0000
0001
0000
,
1000
0000
0001
0000
,
0200
0000
0000
0000
,
0000
0000
0300
0000
,
0010
0000
1000
0000
,
0010
0000
1000
0000
,
0010
0000
1000
0000
,
0010
0010
0010
0000
,
0100
0000
0001
0000
,
0100
0000
0001
0000
,
0100
0000
0001
0000
,
0100
0100
0100
0000
,
0001
0000
0010
0000
,
0001
0000
0010
0000
,
0001
0000
0010
0000
,
0001
0001
0001
0000
,
1000
0000
0100
0000
,
1000
0000
0100
0000
,
1000
0000
0100
0000
,
1000
1000
1000
0000
,
0001
0000
0000
0000
,
0100
0000
0000
0000
,
0010
0000
0000
0000
,
1000
0000
0000
0000
,
0100
0000
0000
0000
,
0010
0000
0000
0000
,
0001
0000
0000
0000
,
0100
0000
0010
0000
,
0200
0000
0300
0000
,
0010
0000
0010
0000
,
1000
0000
0001
0000
,
1000
0000
0001
0000
,
2000
0000
3000
0000
,
0001
0000
0001
0001
,
0002
0000
0000
0000
,
0000
0000
0003
0000
,
1000
0000
0010
0000
,
1000
0000
0001
0000
,
1000
0000
0010
0000
,
1000
0100
1000
0000
,
0001
0000
0010
0000
,
0001
0000
1000
0000
,
0001
0000
0010
0000
,
0001
0100
0001
0000
,
1000
0000
1000
0000
,
0010
0000
0010
0000
,
0001
0000
0001
0000
,
0100
0100
0100
0000
,
0001
0000
0010
0000
,
1000
0000
0100
0000
,
0001
0000
0010
0000
,
0100
0100
0010
0000
,
1001
0000
0000
0000
;

//---------------dance-single - ----------------
#NOTES:
     dance-single:
     :
     Easy:
     6:
     0.248605,0.426926,0.219562,0.113847,0.000000,214.000000,187.000000,27.000000,14.000000,0.000000,0.000000,0.248605,0.426926,0.219562,0.113847,0.000000,214.000000,187.000000,27.000000,14.000000,0.000000,0.000000:
0000
0000
0000
0000
,
0000
0000
0000
0000
,
1000
0000
1000
0000
,
0001
0000
0001
0000
,
1000
0001
1000
0000
,
0001
1000
0001
0000
,
0100
0010
0100
0000
,
0010
0100
0010
0000
,
0100
0001
0100
0000
,
0001
0010
0001
0000
,
1000
0100
1000
0000
,
0010
1000
0010
0000
,
0110
0000
0100
0000
,
0110
0000
0010
0000
,
1001
0000
1000
0000
,
1001
0000
0001
0000
,
1000
0100
1000
0100
,
0010
0001
0010
0001
,
0200
0000
0000
0000
,
0000
0000
0300
0000
,
0010
1000
0100
0000
,
0100
1000
0010
0000
,
0010
1000
0100
0100
,
0010
0001
1001
0000
,
0010
0001
0100
0000
,
0100
0001
0010
0000
,
0010
0001
0100
0100
,
0010
1000
1001
0000
,
0220
0330
0110
0000
,
0100
0001
1000
0000
,
0010
1000
0001
0000
,
0100
0001
1000
0010
,
0100
0010
1000
0000
,
0010
0100
0001
0000
,
1000
0100
0010
0001
,
0010
0100
1000
0001
,
2002
3003
1000
0000
,
0010
0000
0001
0000
,
0100
0000
1000
0000
,
0010
0100
0010
0000
,
1000
0000
0100
0000
,
0001
0000
0010
0000
,
1000
0000
0100
0020
,
0030
0100
0010
0100
,
2002
0000
0000
3003
,
0001
1000
0100
0000
,
1000
0000
0001
0000
,
0010
0001
1000
0010
,
0220
0000
0000
0330
,
0100
0010
0100
0001
,
2002
0000
0000
0000
,
0000
0000
3003
0000
,
1000
0100
0010
0000
,
0001
0010
0100
0000
,
1000
0010
0001
0010
,
1000
0100
0110
0000
,
0001
0100
0010
0000
,
1000
0010
0100
0000
,
0001
0010
1000
0010
,
0001
0100
0110
0000
,
1001
0010
0100
0000
,
1001
0010
0100
0000
,
1001
0010
0100
0000
,
1001
0010
0100
0000
,
0110
0010
0110
0100
,
0110
0001
0110
1000
,
0110
1001
0110
1001
,
1000
0010
0001
0100
,
2002
0000
0000
0000
,
0000
0000
0000
0000
,
3003
0000
0000
0000
;

//---------------dance-single - ----------------
#NOTES:
     dance-single:
     :
     Medium:
     11:
     0.473975,0.512312,0.333409,0.341541,0.097583,408.000000,367.000000,41.000000,42.000000,0.000000,0.000000,0.473975,0.512312,0.333409,0.341541,0.097583,408.000000,367.000000,41.000000,42.000000,0.000000,0.000000:
0000
0000
0000
0000
,
0000
0000
0000
0000
0000
0000
0010
0100
,
0010
1010
0100
0101
,
0010
0000
0110
0000
0100
0001
0010
0100
,
2000
0000
0000
3000
,
0020
0000
0000
0030
,
0200
0000
0000
0300
,
0002
0000
0000
0003
,
0020
0030
0200
0300
,
2000
3000
0002
0003
,
0200
0300
0020
0030
,
2000
3000
0002
0003
,
1001
1000
0010
0100
,
0001
0100
0010
1000
,
0100
0010
0001
0010
,
0100
1000
0010
0100
,
0001
0010
0001
0000
1000
0100
1000
0000
,
0001
0100
0001
0100
0010
1000
0010
1000
,
0100
0000
0000
0100
0000
0000
0010
0000
0000
0010
0000
0000
0001
0000
0000
0001
,
0000
0000
1000
0000
0000
1000
0000
0000
0020
0000
0000
0000
0130
0000
0010
0000
,
0110
0000
0100
0001
0010
0001
0100
0000
,
0010
1000
0100
1000
0010
0100
0010
0000
,
1010
0000
1000
0100
0010
0100
1000
0000
,
0001
0010
0100
0010
0001
0100
0010
0100
,
0110
0000
0010
1000
0100
1000
0010
0000
,
0100
0001
0010
0001
0100
0010
0100
0000
,
0110
0000
0001
0010
0100
0010
0001
0000
,
1000
0100
0010
0100
1000
0010
0100
0010
,
0220
0330
1000
0001
0010
0001
1000
0000
,
0001
1000
0100
1000
0001
0100
0010
0000
,
0110
0000
0001
1000
0010
1000
0001
0000
,
1000
0001
0100
0001
1000
0010
0100
0010
,
0110
0000
1000
0100
0010
0001
0010
0000
,
0001
0010
0100
1000
0100
0010
0100
0000
,
0110
0000
0001
0100
0010
1000
0010
0100
,
0001
0010
0100
1000
0001
0010
0100
0000
,
1001
0000
0000
1000
0000
0000
0010
0000
0000
0100
0000
0000
0001
0000
0010
0000
,
0100
0000
0000
1000
0000
0000
0001
0000
0000
0100
0000
0000
0010
0000
1000
0000
,
0100
0000
0000
0010
0000
0000
0001
0000
1000
0000
0001
0000
1001
0000
0000
0000
,
1000
0010
0100
0001
1000
0000
0110
0000
,
0001
0000
0000
0010
0000
0000
0100
0000
0000
1000
0000
0000
0010
0000
0100
0000
,
0001
0000
0000
1000
0000
0000
0100
0000
0000
0010
0000
0000
0001
0000
0100
0000
,
0020
0000
0000
2030
0000
0000
3002
0000
0000
0000
0100
0000
0103
0000
0000
0000
,
0000
0001
0010
0100
0010
0001
0100
0010
,
2020
0000
0000
0000
0000
3030
0000
0101
,
0000
0000
0001
0000
0010
0000
0100
0000
1000
0000
0000
1100
0000
0000
0100
0000
,
0010
0000
0001
0000
1000
0000
0100
0000
0010
0000
0000
0011
0000
0000
0001
0000
,
0100
0000
0000
0110
0000
0000
0010
0000
1000
0000
0000
1001
0000
0000
0001
0000
,
0202
0000
0000
0000
0303
0000
1000
2020
,
3030
0000
0000
0000
0110
0000
0000
0000
0100
0000
0001
1000
0001
0000
0100
0000
,
0010
0000
0000
0010
0000
0000
1000
0000
0000
1000
0000
0000
0001
0000
0000
0001
,
0000
0000
0100
0000
0000
0100
0000
0000
0010
0000
0100
0000
0010
0000
1000
0000
,
1001
0000
0001
0100
1000
0100
0001
0000
,
1000
0100
0001
0100
1000
0010
0100
0000
,
0101
0000
0001
0010
1000
0010
0001
0000
,
1000
0010
0001
0010
1000
0100
0010
0001
,
1001
0000
1000
0100
0001
0100
1000
0000
,
0001
0100
1000
0100
0001
0010
0100
0000
,
1100
0000
1000
0010
0001
0010
1000
0000
,
0001
0010
1000
0010
0001
0100
0010
1000
,
2002
3003
0001
0100
1000
0001
0010
0000
,
2002
3003
1000
0010
0001
1000
0100
0000
,
2002
3003
0001
0010
1000
0001
0100
0000
,
2002
3003
1000
0100
0001
1000
0010
0010
,
0220
0330
1000
1000
2020
3030
0001
0001
,
0022
0033
1000
1000
2002
3003
0100
0100
,
0101
1010
1100
0011
,
0001
0000
1000
0000
0100
0000
0010
0000
0001
0100
0001
0000
1000
0000
0000
0000
,
0220
0000
0000
0000
,
0000
0000
0000
0000
,
0330
0000
0000
0000
;

//---------------dance-single - ----------------
#NOTES:
     dance-single:
     :
     Hard:
     15:
     0.627320,0.796929,0.447256,0.487916,0.552971,540.000000,485.000000,55.000000,60.000000,0.000000,0.000000,0.627320,0.796929,0.447256,0.487916,0.552971,540.000000,485.000000,55.000000,60.000000,0.000000,0.000000:
0000
0000
0000
0000
,
0000
0000
0000
0000
0000
0000
0000
0000
0000
0000
0000
0010
0100
0000
0010
0000
,
0110
0000
0000
0100
0001
0000
0100
0000
0101
0000
0000
0100
0010
0000
1000
0000
,
1010
0000
0000
0010
0100
0000
0010
0000
1000
0000
1000
0000
0001
0000
0001
0000
,
2001
0000
0000
3000
,
0020
0000
0000
0030
,
0200
0000
0000
0300
,
0002
0000
0000
0003
,
0020
0030
0200
0300
,
2000
3000
0020
0030
,
0002
0003
0200
0300
,
2000
3000
0002
0003
,
1001
1000
0010
0100
,
0001
0010
0100
1000
,
0001
0100
0010
1000
,
0100
0010
0001
1000
,
0010
0010
0100
0100
0001
0001
1000
1000
,
0100
0010
0100
0000
0010
0001
0010
0000
0100
1000
0100
0000
1000
0001
1000
0001
,
1000
0000
0000
1010
0000
0000
0001
0000
0000
0011
0000
0000
1000
0000
0000
1100
,
0000
0000
0001
0000
0000
0101
0000
0000
1000
0000
0100
0000
0010
0000
0001
0000
,
1001
0000
0000
0000
1000
0000
0010
0000
0100
0001
0100
0020
0000
0000
0000
0000
,
1030
0000
0001
0000
1000
0000
0010
0000
0100
0001
0100
0020
0000
0000
0000
0000
,
1030
0000
0000
0000
1100
0000
0100
0010
0001
0000
0010
0000
0001
0100
0000
0000
,
0010
1000
0010
1000
0001
0100
0001
0100
0010
0000
1000
0000
0001
0000
1000
0000
,
1001
0000
0000
0000
0001
0000
0010
0000
0100
1000
0100
0020
0000
0000
0000
0000
,
0031
0000
1000
0000
0001
0000
0010
0000
0100
1000
0100
0020
0000
0000
0000
0000
,
0031
0000
0000
0000
0101
0000
0100
0010
1000
0000
0010
0000
1000
0100
0000
0000
,
0010
0001
0010
0001
1000
0100
1000
0100
0010
0000
0001
0000
1000
0000
0001
0000
,
2002
0000
3003
0000
1000
0000
0001
0000
0010
0100
0010
0002
0000
0000
0000
0000
,
1003
0000
0010
0000
1000
0000
0001
0000
0010
0100
0010
0002
0000
0000
0000
0000
,
1003
0000
0000
0000
1010
0000
0010
0100
0001
0000
0010
0000
0100
0010
0000
0000
,
0100
1000
0100
1000
0100
0010
0100
0010
0001
0000
0100
0000
0010
0000
1000
0000
,
1001
0000
0000
0000
0001
0000
1000
0000
0010
0100
0010
2000
0000
0000
0000
0000
,
3001
0000
0010
0000
0001
0000
1000
0000
0010
0100
0010
2000
0000
0000
0000
0000
,
3001
0000
0000
0000
0011
0000
0010
0100
1000
0000
0010
0000
0100
0010
0000
0000
,
0100
0001
0100
0001
0100
0010
0100
0010
1000
0010
1000
0020
0000
0000
0130
0001
,
0010
0000
0001
0100
0000
0001
0010
0000
0001
1000
0000
0001
0010
0000
0011
0000
,
0001
0000
1000
0100
0000
1000
0010
0000
1000
0001
0000
1000
0010
0000
1010
0000
,
1000
0000
0001
0010
0000
0100
1000
0000
0010
0100
0010
0200
0000
0000
0301
1000
,
0100
0010
0100
0010
0001
0100
0000
0110
0000
0000
0010
0000
2010
0000
3001
0000
,
0100
0000
0001
0010
0000
0100
0010
0000
1000
0010
0000
0100
0010
0000
0001
0000
,
1000
0000
0100
0010
0000
0100
0001
0000
0100
0010
0000
0100
1000
0000
0010
0000
,
0210
0000
0000
0302
0000
0000
2003
0000
0000
3010
0100
0010
1000
0000
0000
1001
,
0000
0000
0001
0010
0100
0010
0001
0010
0100
1000
0010
0200
0000
0000
0301
0000
,
1020
0000
0000
0000
0000
0000
0000
0230
,
0000
0000
0301
0000
0010
0000
0100
0000
1000
0000
0000
1010
0000
0000
0010
0100
,
0001
0000
0010
0000
0001
0100
0010
0100
0002
0000
0000
2003
0000
0000
3100
0010
,
0002
0000
0000
0203
0000
0000
0310
1000
0002
0000
0000
0023
0000
0000
0130
0000
,
2200
0000
0000
0000
3300
0000
0001
0022
,
0030
0000
0000
0000
2000
0000
3003
0000
1010
0000
0010
0100
0001
0000
0100
0000
,
0110
0000
0000
1010
0000
0000
1100
0000
0000
0101
0000
0000
0011
0000
0000
0101
,
0000
0000
1100
0000
0000
1010
0000
0000
0110
0000
0100
0000
0001
0000
1000
0000
,
1001
0000
0000
0000
0001
0000
0100
0000
1000
0100
0010
0200
0000
0000
0000
0000
,
0301
0000
1000
0000
0001
0000
0100
0000
1000
0100
0010
0200
0000
0000
0000
0000
,
0301
0000
0000
0000
0011
0000
0010
0100
0001
0000
0100
0000
1000
0010
0000
0000
,
0100
0001
0100
0001
0010
0100
0010
0100
1000
0000
0010
0000
0100
0000
0001
0000
,
1001
0000
0000
0000
1000
0000
0100
0000
0001
0100
0010
0200
0000
0000
0000
0000
,
1300
0000
0001
0000
1000
0000
0100
0000
0001
0100
0010
0200
0000
0000
0000
0000
,
1300
0000
0000
0000
1010
0000
0010
0100
1000
0000
0100
0000
0001
0010
0000
0000
,
0100
1000
0100
1000
0010
0100
0010
0100
0001
0000
0010
0000
0100
0000
1000
0000
,
1002
0000
0000
0000
0103
0000
0100
0000
1000
0100
0010
0100
0000
0000
0001
0000
,
2001
0000
0000
0000
3010
0000
0010
0000
0001
0010
0100
0010
0000
0000
1000
0000
,
1200
0000
0000
0000
0310
0000
0010
0000
0001
0000
1000
0000
0010
0100
0001
0000
,
0021
0000
0000
0000
0130
0000
0100
0000
1000
0000
0010
0000
0100
0001
1000
0000
,
1020
0000
0130
0100
0102
0000
0013
0010
,
1200
0000
0310
0010
0021
0000
0130
0100
,
2010
3100
0012
0103
2100
3010
0102
0013
,
0010
0100
1000
0010
0100
0001
1000
0100
0001
0100
1000
0010
0000
0000
0110
0000
,
2002
0000
0000
0000
,
0000
0000
0000
0000
,
3003
0000
0000
0000
;

//---------------dance-double - ----------------
#NOTES:
     dance-double:
     :
     Hard:
     15:
     0.629644,0.768468,0.463520,0.479784,0.552971,542.000000,485.000000,57.000000,59.000000,0.000000,0.000000,0.629644,0.768468,0.463520,0.479784,0.552971,542.000000,485.000000,57.000000,59.000000,0.000000,0.000000:
00000000
00000000
00000000
00000000
,
00000000
00000000
00000000
00000000
00000000
00000000
00000000
00000000
00000000
00000000
00000000
00100000
00001000
00000000
00010000
00000000
,
00011000
00000000
00000000
00000010
00010000
00000000
00001000
00000000
00011000
00000000
00000000
01000000
00001000
00000000
00010000
00000000
,
00011000
00000000
00000000
00000100
00010000
00000000
00001000
00000000
00100000
00000000
00010000
00000000
10000000
00000000
00010000
00000000
,
20010000
00000000
00000000
00000000
,
30200000
00000000
00000000
00000000
,
00320000
00000000
00000000
00000000
,
00032000
00000000
00000000
00000000
,
00003200
00000000
00000302
00000000
,
00000023
00000000
00002030
00000000
,
00023000
00000000
00230000
00000000
,
20300000
00000000
32000000
00000000
,
03100000
00010000
01000000
00100000
,
00010000
00001000
00000100
00000010
,
00001000
00000100
00000010
00000001
,
00000100
00001000
00010000
00100000
,
10000000
01000000
00100000
00010000
01000000
00100000
00010000
00001000
,
00000100
00000010
00000100
00000000
00000001
00000010
00000001
00000000
00001000
00000100
00001000
00000000
00000010
00000100
00000010
00000100
,
00000001
00000000
00000000
00000011
00000000
00000000
00001010
00000000
00000000
00011000
00000000
00000000
01010000
00000000
00000000
11000000
,
00000000
00000000
10100000
00000000
00000000
00110000
00000000
00000000
00011000
00000000
00001000
00000000
00010000
00000000
00001000
00000000
,
00000200
00000000
00000000
00000000
00000301
00000000
00000010
00000000
00000001
00000010
00000100
00002000
00000000
00000000
00000000
00000000
,
00003001
00000000
00001000
00000000
00000001
00000000
00000010
00000000
00000001
00000010
00000100
00002000
00000000
00000000
00000000
00000000
,
00003001
00000000
00000000
00000000
00000101
00000000
00000100
00000010
00000100
00000000
00001000
00000000
00010000
00001000
00000000
00000000
,
00100000
00010000
00100000
00010000
00100000
01000000
00100000
01000000
10000000
00000000
10000000
00000000
00010000
00000000
00100000
00000000
,
02000000
00000000
00000000
00000000
13000000
00000000
00100000
00000000
10000000
00100000
01000000
00020000
00000000
00000000
00000000
00000000
,
10030000
00000000
00010000
00000000
10000000
00000000
00100000
00000000
10000000
00100000
01000000
00020000
00000000
00000000
00000000
00000000
,
10030000
00000000
00000000
00000000
11000000
00000000
01000000
00100000
01000000
00000000
00010000
00000000
00001000
00010000
00000000
00000000
,
00000010
00001000
00000010
00001000
00000010
00000100
00000010
00000100
00000001
00000000
00000001
00000000
00001000
00000000
00000010
00000000
,
00000210
00000000
00000000
00000000
00000301
00000000
00001000
00000000
00000100
00010000
00001000
00200000
00000000
00000000
00000000
00000000
,
00301000
00000000
00010000
00000000
00000010
00000000
00001000
00000000
00000100
00010000
00001000
00200000
00000000
00000000
00000000
00000000
,
00310000
00000000
00000000
00000000
01010000
00000000
01000000
00100000
10000000
00000000
01000000
00000000
00100000
00001000
00000000
00000000
,
00010000
00000100
00010000
00000100
00001000
00000010
00001000
00000010
00010000
00000000
00001000
00000000
00100000
00000000
01000000
00000000
,
02100000
00000000
00000000
00000000
13000000
00000000
00010000
00000000
01000000
00001000
00010000
00000200
00000000
00000000
00000000
00000000
,
00010300
00000000
00001000
00000000
00100000
00000000
00010000
00000000
01000000
00001000
00010000
00000020
00000000
00000000
00000000
00000000
,
00001030
00000000
00000000
00000000
00001100
00000000
00000100
00000010
00000001
00000000
00000100
00000000
00000010
00010000
00000000
00000000
,
00001000
01000000
00001000
01000000
00010000
00100000
00010000
00100000
00001000
00010000
00001000
00020000
00000000
00000000
00030010
00001000
,
00000100
00000000
00000010
00000001
00000000
00000001
00000100
00000000
00000100
00000010
00000000
00000010
00001000
00000000
00001100
00000000
,
00000100
00000000
00010000
00001000
00000000
00001000
00100000
00000000
00100000
01000000
00000000
01000000
10000000
00000000
10100000
00000000
,
00100000
00000000
01000000
00010000
00000000
00100000
00001000
00000000
00010000
00000100
00010000
00000200
00000000
00000000
00001300
00000010
,
00000100
00000010
00000100
00000001
00000010
00000100
00000000
00001100
00000000
00000000
00010000
00000000
00011000
00000000
00001000
00000000
,
00100000
00000000
00010000
01000000
00000000
01000000
00100000
00000000
00100000
10000000
00000000
10000000
01000000
00000000
01010000
00000000
,
00010000
00000000
00001000
00010000
00000000
00010000
00000100
00000000
00000100
00001000
00000000
00001000
00000010
00000000
00000100
00000000
,
00000102
00000000
00000000
00002003
00000000
00000000
00003020
00000000
00000000
00010030
00001000
00010000
00100000
00000000
00000000
10100000
,
00000000
00000000
10000000
01000000
00100000
01000000
10000000
01000000
00100000
00010000
01000000
00200000
00000000
00000000
00310000
00000000
,
00012000
00000000
00000000
00000000
00000000
00000000
00000000
00003020
,
00000000
00000000
00000031
00000000
00000100
00000000
00000010
00000000
00001010
00000000
00000000
00010100
00000000
00000000
00010000
00001000
,
00100000
00000000
00010000
00000000
00100000
01000000
10000000
01000000
00200000
00000000
00000000
00320000
00000000
00000000
01030000
00001000
,
00020000
00000000
00000000
00030200
00000000
00000000
00001300
00000010
00000200
00000000
00000000
00000302
00000000
00000000
00000013
00000000
,
00000220
00000000
00000000
00000000
00000330
00000000
00010000
00022000
,
00030000
00000000
00000000
00000000
02000000
00000000
03003000
00000000
01010000
00000000
00010000
00100000
01000000
00000000
10000000
00000000
,
10100000
00000000
00000000
00110000
00000000
00000000
00011000
00000000
00000000
00001100
00000000
00000000
00000101
00000000
00000000
00000011
,
00000000
00000000
00001010
00000000
00000000
00011000
00000000
00000000
01010000
00000000
01000000
00000000
10000000
00000000
00100000
00000000
,
02100000
00000000
00000000
00000000
03001000
00000000
00010000
00000000
00000100
00001000
00000010
00020000
00000000
00000000
00000000
00000000
,
00031000
00000000
00100000
00000000
00001000
00000000
00010000
00000000
00000100
00001000
00000010
00020000
00000000
00000000
00000000
00000000
,
00031000
00000000
00000000
00000000
00101000
00000000
00100000
00010000
01000000
00000000
10000000
00000000
01000000
00010000
00000000
00000000
,
00100000
01000000
00100000
01000000
00010000
00001000
00010000
00001000
00000010
00000000
00000001
00000000
00001000
00000000
00000100
00000000
,
00000210
00000000
00000000
00000000
00010300
00000000
00001000
00000000
01000000
00010000
00100000
00002000
00000000
00000000
00000000
00000000
,
00013000
00000000
00000010
00000000
00010000
00000000
00001000
00000000
01000000
00010000
00100000
00002000
00000000
00000000
00000000
00000000
,
00013000
00000000
00000000
00000000
00010010
00000000
00000010
00001000
00000100
00000000
00000001
00000000
00000100
00001000
00000000
00000000
,
00000010
00000100
00000010
00000100
00001000
00010000
00001000
00010000
00100000
00000000
10000000
00000000
00010000
00000000
00100000
00000000
,
02100000
00000000
00000000
00000000
13000000
00000000
10000000
00000000
00100000
00010000
00001000
00010000
00000000
00000000
00000010
00000000
,
00000210
00000000
00000000
00000000
00000301
00000000
00000001
00000000
00000010
00001000
00010000
00001000
00000000
00000000
01000000
00000000
,
01200000
00000000
00000000
00000000
10300000
00000000
10000000
00000000
01000000
00000000
00010000
00000000
00001000
00000010
00000100
00000000
,
00000120
00000000
00000000
00000000
00000031
00000000
00000001
00000000
00000100
00000000
00001000
00000000
00010000
00100000
10000000
00000000
,
12000000
00000000
03010000
00001000
00021000
00000000
00031000
00000100
,
00000102
00000000
00000013
00001000
00021000
00000000
00130000
10000000
,
11000000
00100000
00101000
00001000
00010010
00000010
00000101
00000001
,
00001000
00000010
00001000
00000010
00010000
00001000
00010000
00001000
00100000
01000000
10000000
00100000
00000000
00000000
00010000
00000000
,
00022000
00000000
00000000
00000000
,
00000000
00000000
00000000
00000000
,
00033000
00000000
00000000
00000000
;

//---------------dance-double - ----------------
#NOTES:
     dance-double:
     :
     Easy:
     7:
     0.230018,0.284618,0.121979,0.121979,0.000000,198.000000,183.000000,15.000000,15.000000,0.000000,0.000000,0.230018,0.284618,0.121979,0.121979,0.000000,198.000000,183.000000,15.000000,15.000000,0.000000,0.000000:
00000000
00000000
00000000
00000000
,
00000000
00000000
00000000
00000000
,
00001000
00000000
00001000
00000000
,
00010000
00000000
00010000
00000000
,
00001000
00010000
00000100
00000000
,
00010000
00001000
00100000
00000000
,
00001000
00010000
00000010
00000000
,
00010000
00001000
01000000
00000000
,
00001000
00010000
00100000
00000000
,
00010000
00001000
00000100
00000000
,
00001000
00010000
01000000
00000000
,
00010000
00001000
00000010
00000000
,
00000110
00000000
00000100
00000000
,
00011000
00000000
00100000
00000000
,
01100000
00000000
01000000
00000000
,
00011000
00000000
00000010
00000000
,
00000100
00000001
00001000
00000010
,
00010000
00001000
01000000
00020000
,
20000000
00000000
00000000
00000000
,
00000000
00000000
30030000
00000000
,
10000000
01000000
00100000
00000000
,
01000000
00100000
00010000
00000000
,
00100000
00001000
00010000
00000100
,
00001000
00000001
00001001
00000000
,
00000001
00000010
00000100
00000000
,
00000010
00000100
00001000
00000000
,
00000100
00010000
00001000
00100000
,
00010000
10000000
10010000
00000000
,
02200000
03300000
01100000
00000000
,
10000000
01000000
00010000
00000000
,
00001000
00000010
00000001
00000000
,
00000100
00001000
00010000
01000000
,
10000000
00100000
00010000
00000000
,
00001000
00000010
00000001
00000000
,
00000100
00001000
00010000
01000000
,
00010000
00001000
00000010
00000100
,
00000220
00000330
00000001
00000000
,
00000010
00000000
00001000
00000000
,
00010000
00000000
00100000
00000000
,
10000000
00010000
10000000
00000000
,
01000000
00000000
00010000
00000000
,
00001000
00000000
00000010
00000000
,
00000001
00000000
00000100
00000020
,
00000030
00010000
00001000
00010000
,
00022000
00000000
00000000
00033000
,
00001000
00010000
01000000
00000000
,
10000000
00000000
00100000
00000000
,
00010000
00001000
00000100
00000001
,
00002002
00000000
00000000
00003003
,
00001000
00000010
00010000
00001000
,
00022000
00000000
00000000
00000000
,
00000000
00000000
00033000
00000000
,
00010000
00100000
10000000
00000000
,
00100000
10000000
01000000
00000000
,
10000000
01000000
00100000
00010000
,
00100000
00001000
00011000
00000000
,
00001000
00000010
00000001
00000000
,
00000010
00000001
00000100
00000000
,
00000001
00000100
00000010
00001000
,
00000010
00010000
00011000
00000000
,
00010000
00000000
00100000
00000000
,
00001000
00000000
00000010
00000000
,
00010000
00000000
01000000
00000000
,
00001000
00000000
00000100
00000000
,
00010000
00100000
00001000
00000010
,
00010000
01000000
00001000
00000100
,
00000010
00000001
00000100
00001000
,
01000000
00100000
00010000
00001000
,
00022000
00000000
00000000
00000000
,
00000000
00000000
00000000
00000000
,
00033000
00000000
00000000
00000000
;

//---------------dance-double - ----------------
#NOTES:
     dance-double:
     :
     Medium:
     11:
     0.468167,0.512312,0.357805,0.252090,0.089451,403.000000,359.000000,44.000000,31.000000,0.000000,0.000000,0.468167,0.512312,0.357805,0.252090,0.089451,403.000000,359.000000,44.000000,31.000000,0.000000,0.000000:
// measure 0
00000000
00000000
00000000
00000000
,  // measure 1
00000000
00000000
00000000
00000000
00000000
00000000
00001000
00010000
,  // measure 2
00001000
01001000
00010000
00010100
,  // measure 3
00001000
00000000
00011000
00000000
00010000
00000100
00001000
00000001
,  // measure 4
00000201
00000000
00000000
00000000
,  // measure 5
00000320
00000000
00000000
00000000
,  // measure 6
00020030
00000000
00000000
00000000
,  // measure 7
00032000
00000000
00000000
00000000
,  // measure 8
02003000
00000000
03020000
00000000
,  // measure 9
20030000
00000000
30200000
00000000
,  // measure 10
00320000
00000000
00032000
00000000
,  // measure 11
00003020
00000000
00000032
00000000
,  // measure 12
00001003
00000010
00010000
00001000
,  // measure 13
00100000
00010000
01000000
00001000
,  // measure 14
00010000
00000100
00001000
00000010
,  // measure 15
00010000
00001000
01000000
00010000
,  // measure 16
00100000
01000000
10000000
00100000
,  // measure 17
00010000
00001000
00010000
00001000
00010000
00001000
00010000
00001000
,  // measure 18
01000000
00000000
00000000
00001000
00000000
00000000
00010000
00000000
00000000
00000010
00000000
00000000
00010000
00000000
00000000
00001000
,  // measure 19
00000000
00000000
01000000
00000000
00000000
00001000
00000000
00000000
00021000
00000000
00000000
00000000
00030010
00000000
00001000
00000000
,  // measure 20
00001100
00000000
00000100
00000010
00000001
00001000
00000100
00000000
,  // measure 21
00000100
00000010
00000001
00001000
00000100
00000010
00001000
00000000
,  // measure 22
00011000
00000000
00010000
00100000
10000000
01000000
00100000
00000000
,  // measure 23
00100000
00010000
10000000
01000000
00100000
01000000
00100000
00010000
,  // measure 24
01010000
00000000
01000000
00100000
10000000
00010000
01000000
00000000
,  // measure 25
01000000
00100000
10000000
00010000
01000000
00100000
00010000
00000000
,  // measure 26
00011000
00000000
00001000
00000010
00000001
00000100
00000010
00000000
,  // measure 27
00000010
00001000
00000001
00000100
00000010
00000100
00000010
00001000
,  // measure 28
00002002
00003003
00000001
00000100
00001000
00010000
00100000
00000000
,  // measure 29
10000000
01000000
00010000
00001000
00000010
00000001
00000100
00000000
,  // measure 30
00000110
00000000
00000001
00000010
00001000
00010000
01000000
00000000
,  // measure 31
10000000
00100000
00010000
00001000
00000100
00000001
00000010
00000100
,  // measure 32
00000110
00000000
00000001
00001000
00000010
00010000
00100000
00000000
,  // measure 33
10000000
00010000
00100000
00001000
00000010
00000001
00001000
00000000
,  // measure 34
00001001
00000000
00000001
00001000
00000100
00010000
01000000
10000000
,  // measure 35
00010000
01000000
00001000
00000100
00000001
00000010
00000100
00000000
,  // measure 36
00000110
00000000
00000000
00000001
00000000
00000000
00000100
00000000
00000000
00001000
00000000
00000000
00010000
00000000
00001000
00000000
,  // measure 37
00010000
00000000
00000000
00100000
00000000
00000000
10000000
00000000
00000000
01000000
00000000
00000000
00100000
00000000
00010000
00000000
,  // measure 38
00100000
00000000
00000000
00001000
00000000
00000000
00010000
00000000
00000100
00000000
00001000
00000000
00001010
00000000
00000000
00000000
,  // measure 39
00000010
00010000
00001000
00100000
00010000
00000000
01010000
00000000
,  // measure 40
01000000
00000000
00000000
00100000
00000000
00000000
10000000
00000000
00000000
01000000
00000000
00000000
00100000
00000000
00010000
00000000
,  // measure 41
01000000
00000000
00000000
00001000
00000000
00000000
00010000
00000000
00000000
00000100
00000000
00000000
00000010
00000000
00000001
00000000
,  // measure 42
00000100
00000000
00000000
00001000
00000000
00000000
00010000
00000000
00000000
00000000
00011000
00000000
00011000
00000000
00000000
00000000
,  // measure 43
00000000
00010000
00100000
10000000
01000000
00100000
00010000
01000000
,  // measure 44
02002000
00000000
00000000
00000000
00000000
03003000
00000000
00010010
,  // measure 45
00000000
00000000
00010000
00000000
00001000
00000000
00000100
00000000
00000010
00000000
00000000
00000110
00000000
00000000
00000100
00000000
,  // measure 46
00000001
00000000
00000010
00000000
00000100
00000000
00001000
00000000
00000100
00000000
00000000
00010100
00000000
00000000
00010000
00000000
,  // measure 47
00001000
00000000
00000000
01001000
00000000
00000000
01000000
00000000
00100000
00000000
00000000
10100000
00000000
00000000
00010000
00000000
,  // measure 48
02020000
00000000
00000000
00000000
03030000
00000000
00001000
00022000
,  // measure 49
00033000
00000000
00001100
00000000
00000100
00000001
00000010
00001000
,  // measure 50
00010000
00000000
00000000
00100000
00000000
00000000
00010000
00000000
00000000
00001000
00000000
00000000
00000010
00000000
00000000
00001000
,  // measure 51
00000000
00000000
00010000
00000000
00000000
01000000
00000000
00000000
10000000
00000000
00100000
00000000
01000000
00000000
00010000
00000000
,  // measure 52
10010000
00000000
10000000
01000000
00100000
00010000
00100000
00000000
,  // measure 53
00100000
00001000
00010000
00001000
00000010
00000001
00001000
00000000
,  // measure 54
00000110
00000000
00000001
00000100
00000010
00010000
00001000
00000000
,  // measure 55
00001000
00100000
00010000
00100000
01000000
00010000
00001000
00000010
,  // measure 56
00001001
00000000
00000001
00000100
00000010
00001000
00000010
00000000
,  // measure 57
00000010
00010000
00001000
00010000
00100000
10000000
00010000
00000000
,  // measure 58
01100000
00000000
10000000
01000000
00100000
00001000
00010000
00000000
,  // measure 59
00010000
00000010
00001000
00000010
00000100
00001000
00010000
00001000
,  // measure 60
00022000
00033000
00010000
00000000
01000000
00001000
00000100
00000000
,  // measure 61
00022000
00033000
00001000
00000000
00000010
00010000
00100000
00000000
,  // measure 62
00022000
00033000
00010000
00000000
00100000
00001000
00000010
00000000
,  // measure 63
00022000
00033000
00001000
00000000
00000100
00010000
01000000
00000000
,  // measure 64
00011000
00010000
00000100
00000000
00011000
00001000
01000000
00000000
,  // measure 65
00011000
00010000
00000010
00000000
00011000
00001000
00100000
00000000
,  // measure 66
01100000
00011000
00000110
00001001
,  // measure 67
00000001
00000100
00001000
01000000
00010000
10000000
00100000
00010000
,  // measure 68
00022000
00000000
00000000
00000000
,  // measure 69
00000000
00000000
00000000
00000000
,  // measure 70
00033000
00000000
00000000
00000000
;
