#TITLE:HIGH;
#SUBTITLE:;
#ARTIST:RAM;
#TITLETRANSLIT:;
#SUBTITLETRANSLIT:;
#ARTISTTRANSLIT:;
#GENRE:;
#CREDIT:;
#MUSIC:HIGH.ogg;
#BANNER:;
#BACKGROUND:;
#CDTITLE:;
#SAMPLESTART:33.775;
#SAMPLELENGTH:10.674;
#SELECTABLE:YES;
#OFFSET:-0.442;
#BPMS:0.000=180.000
,164.000=90.000
,180.000=180.000
;
#STOPS:;
#BGCHANGES:;
#FGCHANGES:;

//--------------- dance-double - Pandemonium X ----------------
#NOTES:
     dance-double:
     Pandemonium X:
     Easy:
     8:
     0,0,0,0,0:
00000000
00000000
00000000
00000000
,
00000000
00000000
00000000
00000000
,
00000000
00000000
00000000
00000000
,
00000000
00000000
00000000
00000000
,
00000000
00000000
00000000
00000000
,
00010000
00000000
00000000
00000000
00000000
00001000
00000000
00000000
,
00000000
00010000
00000000
00000000
00001000
00000000
00000000
00000000
,
00010000
00000000
00000000
00000000
00000000
00001000
00000000
00010000
,
00000000
00002000
00000000
00000000
00000000
00000000
00000000
00000000
,
00013000
00000000
00000000
00000100
00000000
00001000
00000000
00000100
,
00000000
00000000
00000000
00000000
,
00001010
00000000
00000000
00000001
00000000
00000100
00000000
00000001
,
00000000
00000000
00000000
00000000
,
00001001
00000000
00000000
00001000
00000000
00000100
00000000
00001000
,
00000000
00000000
00000000
00000000
,
00011000
00000000
00000000
00001000
00000000
01000000
00000000
00200000
,
00000000
00000000
00000000
00000000
,
02300000
00000000
00000000
00000000
,
00000000
00000000
00000000
03000000
,
00002000
00000000
00000000
00000000
,
00000000
00000000
00000000
00003000
,
00020000
00000000
00000000
00000000
,
00000000
00000000
00000000
00030000
,
00000020
00000000
00000000
00000000
,
00000130
00001000
00000100
00000000
,
00000001
00000000
00000000
00001000
00000000
00000100
00000000
00001000
,
00000000
00000100
00000000
00010000
00001000
00000000
00010000
00000000
,
00001000
00000000
00000000
01000000
00000000
00100000
00000000
01000000
,
00000000
00010000
00100000
00000000
01000000
00000000
11000000
00000000
,
10000000
00000000
00000000
00010000
00000000
00100000
00000000
00010000
,
00000000
00100000
00000000
00010000
01000000
00000000
00001000
00000000
,
00020000
00000000
00000000
00000000
00000000
00000000
00000000
00002000
,
00000000
00000000
00000000
00000000
,
00033000
00000000
00001100
00000000
00001100
00000000
00000000
00001000
,
00000000
00000010
00000000
00000100
00000001
00000000
00000010
00000000
,
00000100
00000000
00000000
00000010
00000000
00000001
00000000
00001000
,
00000000
00000100
00010000
00000000
00001000
00000000
00011000
00000000
,
00001000
00000000
00000000
01000000
00000000
00100000
00000000
10000000
,
00000000
00010000
00000000
00100000
01000000
00000000
10000000
00000000
,
02000000
00000000
00000000
00000000
00000000
00000000
00000000
03000000
,
00100000
00000000
00001000
00000000
,
00011000
00000000
00000000
00000000
00000000
00000000
00000000
00000000
00000000
00000100
00000000
00000000
00000100
00000000
00000000
00000000
,
00011000
00000000
00000000
00000000
00000000
00000000
00000000
00000000
00000000
01000000
00000000
00000000
01000000
00000000
00000000
00000000
,
00011000
00000000
00000000
00000000
00000000
00000000
00000000
00000000
00000000
00000100
00000000
00000000
00000100
00000000
00000000
00000000
,
00022000
00000000
00000000
00033000
,
00100000
00000000
00000000
00100000
00000000
00000000
00100000
00000000
,
00000000
01000000
10000000
00010000
,
10000000
00000000
00000000
10000000
00000000
00000000
10000000
00000000
,
00000000
00010000
00100000
00010000
00000000
00100000
00010000
00100000
,
00001000
00000000
00000000
00001000
00000000
00000000
00001000
00000000
,
00000000
00020000
00030020
00000230
,
00000301
00000000
00000000
00000001
00000000
00000000
00000001
00000000
,
00002000
00000000
00000000
00000000
,
00003100
00000000
00000000
00010000
00000000
00010000
00000000
00010000
,
00000000
00010000
00000000
00010000
00010000
00000000
00010000
00000000
,
00001000
00000000
00000000
01000000
00000000
01000000
00000000
01000000
,
00000000
01000000
01000000
00100000
01000000
00000000
10010000
00000000
,
00010000
00000000
00000000
00100000
00000000
00100000
00000000
00100000
,
00000000
00100000
00000000
00100000
00100000
00000000
00100000
00000000
,
00001000
00000000
00000000
00010000
00000000
00010000
00000000
00010000
,
00002000
00023000
00030020
00000130
,
00001001
00000000
00000000
00000001
00000000
00000100
00000000
00000010
,
00000000
00001000
00000000
00000100
00010000
00000000
00001000
00000000
,
00011000
00000000
00000000
00001000
00000000
01000000
00000000
00100000
,
00000000
01000000
00010000
00000000
00100000
00000000
11000000
00000000
,
10010000
00000000
00000000
00010000
00000000
00100000
00000000
00001000
,
00000000
00010000
00000000
00000010
00000100
00000000
00000001
00000000
,
00001100
00000000
00000000
00000100
00000000
00010000
00000000
00002000
,
00000000
00000000
00000000
00003000
,
00010000
00000100
00001000
00000010
,
00000001
00000010
00000100
00001010
,
00000010
00001000
00000100
00010000
,
00001000
01000000
01010000
10010000
,
10000000
01000000
00010000
01000000
,
00100000
00010000
00100000
00101000
,
00010000
00000000
00000000
00000100
00000000
00000000
00001000
00000000
,
00000020
00000000
00000000
00000000
,
00000030
00000000
00000000
00000000
;

//--------------- dance-double - Pandemonium X ----------------
#NOTES:
     dance-double:
     Pandemonium X:
     Medium:
     12:
     0,0,0,0,0:
00000000
00000000
00000000
00000000
,
00000000
00000000
00000000
00000000
,
00000000
00000000
00000000
00000000
,
00000000
00000000
00000000
00000000
,
00000000
00000000
00000000
00000000
,
00011000
00000000
00000000
00000000
00000000
00001000
00000000
00000000
,
00000000
00001010
00000000
00000000
00000101
00000000
00000000
00000000
,
00000011
00000000
00000000
00000000
00000000
00000001
00000000
00000001
,
00000000
00000001
00000010
00000100
00001000
00000100
00010000
00001000
,
01000000
00010000
00100000
00010000
00000000
10000000
00000000
00000000
,
00000000
00010000
00000000
00000000
10100000
00000000
00000000
00000000
,
00010000
00100000
00001000
00010000
00000000
00010000
00000000
00010000
,
00000000
00000100
00000100
00001000
00000010
00000000
00001001
00000000
,
00000100
00000001
00000010
00000001
00000000
00001000
00000000
00000001
,
00000000
00001100
00000000
00000000
00001010
00000000
00000000
00000000
,
00000010
00010000
00001000
00010000
00000000
00000010
00000000
00020000
,
00000000
00000000
00000000
00000000
00000000
00000000
00001000
00031000
,
00011000
00000000
00000000
00001000
00000000
01000000
00000000
00100000
,
00000000
01000000
00000000
00010000
00100000
00000000
00001000
00000000
,
00010000
00000000
00000000
00000100
00000000
00001000
00000000
00000010
,
00000000
00000100
00000001
00000010
00000100
00000000
00000100
00000000
,
00001000
00000000
00000000
00000100
00000000
00010000
00000000
00001000
,
00000000
00010000
00000000
00001000
01000000
00000000
00100000
00000000
,
10000000
00000000
00000000
00010000
00000000
00010000
00000000
00010000
,
00110000
00011000
00001010
00000100
,
00001001
00000000
00000001
00000100
00000000
00001000
00000000
00010000
,
00000000
00100000
00000000
01000000
00010000
00000000
10010000
00000000
,
11000000
00000000
10000000
01000000
00000000
00010000
00000000
00001000
,
00000000
00010000
00000100
00001000
00000010
00000000
00000101
00000000
,
00001001
00000000
00000001
00001000
00000000
00000010
00000000
00001000
,
00000000
00010000
00000000
01000000
00100000
00000000
10010000
00000000
,
11000000
10000000
01000000
00100000
00010000
10000000
01000000
00200000
,
00000000
00000000
00000000
00000000
,
00301000
00000000
00011000
00000000
00000100
00001000
00000000
00001010
,
00000000
00000101
00000000
00001000
00000001
00000000
00000001
00000000
,
00001100
00000000
00000000
00000100
00000000
00010000
00000000
00001000
,
00000000
01000000
00010000
01000000
00100000
00000000
10010000
00000000
,
10000000
00000000
00000000
01000000
00000000
00100000
00000000
00010000
,
00000000
00001000
00000000
00000100
00000010
00000000
00000001
00000000
,
00000000
00001000
00000100
00000010
00000001
00001000
00000100
00000020
,
00000000
00000000
00000000
00000000
,
00000130
00000000
00000000
00000000
00000000
00000000
00000000
00000000
00000000
00010100
00000000
00000000
00011000
00000000
00000000
00000000
,
01001000
00000000
00000000
00000000
01000000
00000000
00000000
01000000
00000000
01100000
00000000
00000000
10100000
00000000
11000000
00000000
,
10010000
00000000
00000000
00000000
00010000
00000000
00000000
00010000
00000000
00110000
00000000
00000000
00011000
00000000
00000000
00000000
,
00001100
00001000
00000100
00000010
00000001
00001000
00000100
00000020
00000000
00000000
00000000
00000000
00000000
00000000
00000000
00000000
,
00000130
00000000
00001000
00000100
00000000
00000100
00010000
00000000
,
00000000
00001000
00001000
00001000
00010000
00000000
00010000
00001000
,
01000000
00000000
00100000
01000000
00000000
01000000
00010000
00000000
,
00000000
10000000
01000000
01000000
00000000
10000000
01000000
01000000
,
00100000
00000000
00100000
00001000
00000000
00010000
00000010
00000000
,
00000000
00000100
00000010
00001000
00000010
00000000
00000100
00000000
,
00000001
00000000
00000000
00001000
00000000
00000000
00000100
00000000
,
00010000
00001000
01000000
00100000
01000000
00001000
00010000
00001000
,
01000000
00000000
00000000
00100000
00000000
00100000
00000000
00100000
,
00000000
00100000
00000000
00100000
00100000
00000000
00100000
00000000
,
10010000
00000000
00000000
00010000
00000000
00010000
00000000
00010000
,
00000000
00010000
00100000
00001000
00010000
00000000
00110000
00000000
,
00101000
00000000
00000000
00001000
00000000
00001000
00000000
00001000
,
00000000
00001000
00000000
00001000
00001000
00000000
00011000
00000000
,
00010100
00000000
00000000
00000100
00000000
00000100
00000000
00000200
,
00002300
00003020
00000000
00000230
00000302
00000000
00001003
00000000
,
00001001
00000000
00000001
00000100
00000000
00001000
00000000
00010000
,
00000000
00100000
00000000
01000000
00010000
00000000
10010000
00000000
,
00110000
00000000
10000000
01000000
00000000
00010000
00000000
00001000
,
00000000
00010000
00001000
00000010
00000001
00000000
00001100
00000000
,
00001001
00000000
00000001
00000100
00000000
00001000
00000000
00010000
,
00000000
00100000
00000000
01000000
00010000
00000000
10100000
00000000
,
00000000
10000000
01000000
00100000
00010000
10000000
01000000
00200000
,
00000000
00000000
00000000
00000000
,
01300000
10000000
00100000
01000000
00010000
00100000
00001000
00010000
,
00000000
00011000
00000000
00010000
00000200
00000000
00001300
00000000
,
00000010
00000100
00000001
00001000
00000100
00000010
00000001
00001000
,
00000000
00000100
00010000
00001000
01000000
00000000
01100000
00000000
,
00010000
00100000
01000000
10000000
01000000
10000000
00100000
01000000
,
00000000
00100000
00000000
01000000
00010000
00000000
00101000
00000000
,
00011000
00000000
00000000
00001010
00000000
00000000
00000000
00000101
,
00000000
00000001
00000100
00000010
00010000
00001000
00100000
00001000
;

//--------------- dance-double - Pandemonium X ----------------
#NOTES:
     dance-double:
     Pandemonium X:
     Hard:
     14:
     0,0,0,0,0:
00000000
00000000
00000000
00000000
,
00000000
00000000
00000000
00000000
,
00000000
00000000
00000000
00000000
,
00000000
00000000
00000000
00000000
,
00000000
00000000
00000000
00000000
,
00110000
00000000
00000000
00000000
00000000
00001010
00000000
00000000
,
00000000
00011000
00000000
00000000
00101000
00000000
00000000
00000000
,
00011000
00000000
00000000
00000000
00000000
00010100
00000000
00011000
,
00000000
00001000
01000000
00100000
01000000
00001000
00010000
00001000
,
01000000
01000000
00010000
10000000
00000000
01000000
00000000
00010000
,
00000000
01000000
10000000
00010000
00110000
00000000
00000000
00000000
,
00101000
00000000
00001000
00010000
00000000
00000010
00000000
00000100
,
00000000
00000011
00000010
00000100
00001100
00000000
00011000
00000000
,
00010100
00010000
00000100
00001000
00000000
00000100
00000000
00010000
,
00000000
00011000
00000000
00001000
01001000
00000000
00000000
00000000
,
10010000
00010000
00100000
00010000
00000000
10000000
00000000
00010000
,
00100000
00001000
00010000
00000000
00000100
00001000
00000010
00000000
00000100
00000001
00000010
00000000
00000100
00010000
00001000
00000000
,
00011000
00000000
00001000
01000000
00000000
00100000
00000000
00010000
,
00000000
00100000
00000000
10000000
01000000
00000000
00010000
00000000
,
00001000
00000000
00010000
00000100
00000000
00001000
00000000
00000010
,
00000000
00000001
00000010
00001000
00000001
00000000
00001001
00000000
,
00001100
00000000
00001000
00000100
00000000
00000001
00000000
00000100
,
00000000
00001000
00000000
00000100
00001100
00000000
00011000
00000000
,
00001000
00000000
01000000
00100000
00000000
10000000
00000000
10000000
,
01000000
00100000
00010000
00001000
00000100
00000000
00000011
00000000
,
00000001
00000100
00001000
00000100
00000001
00001000
00000100
00010000
,
00001000
01000000
00100000
10000000
11000000
00000000
01010000
00000000
,
10010000
10000000
00100000
00010000
00100000
01000000
00010000
10000000
,
00010000
00100000
01000000
10000000
11000000
00000000
00110000
00000000
,
01010000
00010000
00100000
00001000
00010000
00000100
00001000
00000010
,
00000100
00001000
00000100
00000001
00001000
00000000
00001001
00000000
,
00000001
00000100
00000100
00000010
00000010
00010000
00010000
00002000
,
00000000
00000000
00000000
00000000
,
00013000
00000000
00101000
00000000
00010000
00100000
00000000
00110000
,
00000000
00001010
00000000
00100000
00110000
00000000
00101000
00000000
,
00010100
00000000
00001000
00000100
00000000
00000001
00000000
00000100
,
00000000
00000010
00000001
00001000
00000100
00000000
00001100
00000000
,
00011000
00000000
00001000
00100000
00000000
00010000
00000000
00100000
,
00000000
10000000
00000000
00100000
00010000
00000000
11000000
00000000
,
10010000
10000000
01000000
00100000
00010000
00001000
00000100
00000010
,
00000001
00000100
00000001
00000000
00001000
00000010
00001000
00000000
00000100
00010000
00000100
00000000
00010000
00001000
00010000
00000000
,
00000010
00000100
00000010
00001000
00000100
00010000
00001000
01000000
00000000
01100000
00000000
00000000
10010000
00000000
00000000
00000000
,
10000000
01000000
00010000
00001000
00000010
00000001
00001000
00001001
00000000
00000110
00000000
00000000
00001001
00000000
00000110
00000000
,
00000001
00000100
00001000
00010000
00100000
01000000
00100000
10000000
00000000
10010000
00000000
00000000
01100000
00000000
00000000
00000000
,
10000000
01000000
01000000
00100000
00100000
00001000
00001000
00020000
00000000
00000000
00000000
00000000
00000000
00000000
00000000
00000000
,
00030100
00000000
00010000
00000100
00000000
00000100
00001000
00000000
,
00000000
00000010
00000010
00000100
00000010
00000000
00000100
00000010
,
00001000
00000000
00000000
00001000
00000000
00000000
00001000
00000000
,
00000000
00000100
00010000
00001000
00000000
00010000
00001000
01000000
,
01100000
00000000
00010000
10000000
00000000
00000000
10000000
00000000
,
00000000
01000000
00200000
00000000
00302000
00000000
00023000
00000000
,
00030010
00000000
00000000
00000010
00000000
00000000
00000010
00000000
,
00001001
00000001
00000100
00001000
00010000
00100000
01000000
10000000
,
00020000
00000000
00000000
00100000
00000000
01000000
00000000
00100000
,
00000000
01000000
00000000
00100000
00130000
00000000
00110000
00000000
,
21000000
00000000
00000000
00100000
00000000
01000000
00000000
00100000
,
00000000
01000000
31000000
10000000
00010000
00000000
10010000
00000000
,
00210000
00000000
00000000
00001000
00000000
00010000
00000000
00001000
,
00000000
00010000
00000000
00001000
00301000
00000000
00011000
00000000
,
00010200
00000000
00000000
00001000
00000000
00010000
00000000
00002300
,
00003020
00000032
00000023
00002030
00003200
00000320
00000032
00000003
,
00000001
00000100
00000001
00000010
00000100
00001000
00000100
00010000
,
00001000
01000000
00100000
10000000
00010000
00000000
10010000
00000000
,
10000000
01000000
00010000
01000000
00100000
00010000
01000000
00001000
,
00010000
00000100
00000100
00001000
00001100
00000000
00000011
00000000
,
00001001
00001000
00000010
00000001
00000010
00000100
00000010
00001000
,
00000100
00010000
00001000
01000000
00010000
00000000
10100000
00000000
,
10010000
10000000
01000000
00100000
00010000
00001000
00000100
00000020
,
00000001
00000100
00000001
00000130
,
00001100
00000100
00010000
00001000
01000000
00100000
10000000
00010000
,
00100000
01000000
00100000
00001000
00010000
00000000
00010100
00000000
,
00001000
00000010
00000100
00000001
00000010
00000100
00000010
00000001
,
00001000
00000100
00000100
00000100
00010100
00000000
00011000
00000000
,
00001000
01000000
00001000
00010000
00000100
00001000
00000010
00000100
,
00000010
00001000
00000100
00010000
00011000
00000000
00110000
00000000
,
10010000
00000000
00000000
00011000
00000000
00010000
00000010
00000100
,
00000001
00000000
00000010
00000100
00000010
00000000
00000100
00001000
00000100
00000000
00010000
00001000
00010000
00001000
00010000
00000010
;
