#VERSION:0.83;
#TITLE:極悪の華;
#SUBTITLE:;
#ARTIST:onoken feat.実咲;
#TITLETRANSLIT:Gokuaku no hana;
#SUBTITLETRANSLIT:;
#ARTISTTRANSLIT:onoken feat. Misaki;
#GENRE:;
#CREDIT:;
#MUSIC:Gokuaku no hana.ogg;
#BANNER:Gokuaku no hana.png;
#BACKGROUND:Gokuaku no hana-bg.png;
#CDTITLE:./CDTitles/pnm Kaimei riddles.png;
#SAMPLESTART:42.998;
#SAMPLELENGTH:15.000;
#SELECTABLE:YES;
#OFFSET:0.313;
#BPMS:0.000=83.500
,12.000=176.000
,250.000=88.000
,264.500=176.000
;
#STOPS:250.000=0.341
,264.500=0.170
,265.000=0.170
,265.500=0.170
;
#TIMESIGNATURES:0.000=4=4,
248.000=3=4,
251.000=4=4
;
#BGCHANGES:0.000=../BGAs/23wa.mp4=1.000=0=0=0=StretchNoLoop====,
99999.000=-nosongbg-=1.000=0=0=0=StretchNoLoop====
;
#FGCHANGES:;

//--------------- dance-single - forcednature ----------------
#NOTEDATA:;
#STEPSTYPE:dance-single;
#DESCRIPTION:forcednature;
#DIFFICULTY:Beginner;
#METER:4;
#RADARVALUES:0,0,0,0,0;
#CREDIT:forcednature;
#NOTES:
0000
0000
0000
0000
,
0000
0000
0000
0000
,
0000
0000
0000
0000
,
1001
0000
0000
0000
,
1000
0000
0000
0000
,
0110
0000
0000
0000
,
0001
0000
0000
0000
,
0100
0000
0010
0000
,
0100
0000
0000
0000
,
0001
0000
1000
0000
,
0001
0000
0000
0000
,
0010
0000
0000
0000
,
0100
0000
0000
0000
,
1000
0000
0000
0000
,
0001
0000
0000
0000
,
0100
0000
0010
0000
,
0100
0000
0000
0000
,
0010
0000
0000
1000
,
0000
0000
0001
0000
,
1000
0000
0100
0000
,
1000
1000
1000
0000
,
0001
0000
0100
0000
,
0001
0001
0001
0000
,
0010
0000
0100
0000
,
0010
0000
0001
0000
,
1000
0000
0010
0000
,
0100
0000
0001
0000
,
0020
0000
0000
0000
,
0100
0000
0030
0000
,
0001
0001
0001
0000
,
1000
0000
0010
0000
,
1000
1000
1000
0000
,
0001
0000
0010
0000
,
0000
0100
0000
0100
,
0000
1000
0000
0001
,
0000
0100
0000
0000
,
0010
0100
0010
0000
,
1000
1000
1000
0000
,
0100
0000
0010
0000
,
0001
0001
0001
0000
,
0100
0000
0010
0000
,
0000
1000
0000
1000
,
0000
0100
0000
0010
,
0000
0001
0001
0000
,
0100
0000
0010
0000
,
1001
0000
0000
0000
,
1000
0000
0000
0000
,
0010
0000
0000
0000
,
0100
0000
0001
0000
,
0100
0000
0000
0000
,
0010
0000
0000
0000
,
1000
0000
0000
0000
,
0001
0000
0000
0000
,
0010
0000
0100
0000
,
0010
0000
0000
0000
,
0001
0000
1000
0000
,
0001
0000
0000
0000
,
0100
0000
0000
0000
,
0010
0000
0000
0000
,
1000
0000
1000
0000
,
0001
0000
0010
0000
,
0200
0000
0000
0000
,
0010
0000
0300
0000
,
0000
1000
0000
0000
0000
0010
0000
0000
,
0000
0100
0000
0000
0000
0001
0000
0000
,
0000
0010
0000
0010
0000
0100
0000
0000
,
0000
1000
0000
0001
0000
0000
0100
0000
,
0100
0100
0000
0001
,
0000
1000
0000
0100
,
0100
0100
0000
0010
,
0000
0001
0000
1000
,
0000
0000
0000
0010
,
0000
0100
0000
0001
,
0000
0001
0000
0010
,
0000
0000
0000
1001
,
0000
0000
0000
1000
,
0000
0010
0000
0100
,
0000
0001
0000
0010
,
0000
0010
0001
0000
,
0001
0100
0000
2002
,
3003
0000
0000
0000
;

//--------------- dance-single - forcednature ----------------
#NOTEDATA:;
#STEPSTYPE:dance-single;
#DESCRIPTION:forcednature;
#DIFFICULTY:Easy;
#METER:9;
#RADARVALUES:0,0,0,0,0;
#CREDIT:forcednature;
#NOTES:
0000
0000
0000
0000
,
0000
0000
0000
0000
,
0000
0000
0000
0000
,
1001
1000
0100
0010
,
0001
0001
0100
0000
,
1001
0001
0100
0010
,
1000
1000
0100
0000
,
0110
0010
0001
0100
,
0001
0001
0010
0100
,
1000
0010
0100
0010
,
1000
0000
0001
1000
0001
0000
0010
0000
,
0200
0000
0000
0300
2000
0000
0000
3000
,
0001
0001
0001
0000
,
0020
0000
0000
0030
0002
0000
0000
0003
,
1000
1000
1000
0000
,
0010
0100
0001
0100
,
0010
0010
1000
0000
,
0001
1000
0000
0001
1000
0000
0001
1000
,
0000
0010
0110
0000
,
0001
0100
0001
1000
,
0100
0010
0110
0000
,
1000
0100
1000
0001
,
0100
0010
0110
0000
,
2000
0000
0000
3000
0002
0000
0000
0003
,
0100
0010
1000
0010
,
0100
0100
0001
0001
,
1000
0010
0100
0010
,
1000
0100
0010
0001
,
0200
0000
0020
0330
,
1001
1001
1001
0000
,
1000
0100
0010
0000
,
1001
1001
1001
0000
,
0001
0100
0010
0000
,
1000
0100
0010
0100
,
1000
1000
0001
0020
,
0030
0001
0100
0010
,
0100
0000
0001
1000
0001
0000
0010
0000
,
0110
0110
0110
0000
,
1000
0001
0100
0000
,
0110
0110
0110
0000
,
0001
0000
1000
0000
0100
0000
0000
0110
,
0000
0000
0001
0000
1000
0000
0000
1001
,
0000
0100
0010
0100
,
0000
0001
0001
0010
,
0001
0000
1000
0000
0100
1000
0100
0000
,
0020
0000
0001
0000
,
0001
0001
0031
0000
,
1000
0100
1000
0010
,
1000
0001
0200
0000
,
0310
1000
0001
1000
,
0010
0010
0100
0000
,
0001
0010
0100
1000
,
0010
0100
1001
0000
,
0001
0010
0100
1000
,
0010
0100
0110
0000
,
1000
0010
0100
0001
,
0010
0100
0110
0000
,
0002
0000
0000
0003
2000
0000
0000
3000
,
0100
0010
0001
0000
,
0100
0100
0001
0100
,
0001
0001
0010
0100
,
1000
0001
1000
0000
0001
1000
0001
0000
,
0100
0000
0100
0000
0100
0000
0000
0000
0020
0030
1000
0000
1000
0000
1000
0000
,
0000
0001
0000
0000
0000
0010
0010
0010
,
0000
0100
0000
0000
0000
1000
0000
0001
,
0000
0100
0000
0001
0000
1000
0000
0010
,
0000
1000
0001
1001
0000
0000
0110
0000
,
0110
0110
0000
0001
,
1000
0100
0000
1001
,
1001
1001
0000
1000
,
0001
0000
0010
0000
0000
0110
0000
0000
,
0100
0000
1000
0000
0000
1001
0000
0000
,
0001
0100
0001
0000
,
1000
1000
0010
0100
,
0010
1000
0001
1001
,
0000
1000
0100
0010
,
0100
1000
0000
0001
,
0010
0001
1000
0010
,
0100
0010
0100
0000
0001
0000
1000
0001
,
1000
0000
0100
0000
0010
0100
0020
0000
,
0030
0000
0000
0000
;

//--------------- dance-single - forcednature ----------------
#NOTEDATA:;
#STEPSTYPE:dance-single;
#DESCRIPTION:forcednature;
#DIFFICULTY:Medium;
#METER:12;
#RADARVALUES:0,0,0,0,0;
#CREDIT:forcednature;
#NOTES:
0000
0000
0000
0000
,
0000
0000
0000
0000
,
0000
0000
0000
0000
,
1001
0000
1000
0100
0000
0110
0000
0000
,
1000
0000
0001
0000
0010
0001
0010
0000
,
0001
1000
0000
1000
0000
0010
0100
0000
,
0110
0000
0010
1000
0000
0101
0000
0001
,
0010
0000
0100
0010
0100
0000
1000
0000
,
0001
0001
0001
0000
0100
0000
0010
0000
,
1000
0100
0010
0000
0001
0100
0010
0000
,
1000
1000
1000
0000
0110
0000
0001
0000
,
0020
0000
0000
0030
0200
0000
0000
0300
,
1000
1000
0010
0000
,
0200
0000
0000
0300
0002
0000
0000
0003
,
0010
0010
0100
0110
,
2000
0000
0001
3000
0002
0000
0100
0003
,
1000
0010
1000
0010
1000
0000
0001
0000
,
0010
0100
0000
0100
1000
0000
1000
0001
,
0000
0100
0010
0100
0010
0000
1001
0000
,
1000
0001
0100
0000
0001
1000
0010
0000
,
1100
0110
0022
0033
,
0001
1000
0100
0000
1000
0001
0010
0000
,
0101
0000
0110
0000
1010
0000
0001
1000
,
0002
0000
0010
0003
0020
0000
0100
0030
,
0200
2300
3002
0203
,
0310
1000
0010
1000
0100
0010
0001
0000
,
0100
0010
0100
0010
1000
0001
0010
0000
,
0001
0100
0001
0100
0010
1000
0010
1000
,
0200
0000
0010
0010
0020
0000
0330
0000
,
1001
0000
0110
0000
1001
0000
0001
0100
,
0010
1000
0010
0100
0001
0000
0010
0000
,
1001
0000
0110
0000
1001
0000
1000
0100
,
0010
0001
0010
0100
2000
0000
0010
0000
,
3100
0010
0001
0000
0100
0001
0010
0000
,
0100
1010
0100
0011
,
1000
0010
0100
0000
0010
1000
0100
0000
,
0010
0001
1000
0010
0100
0000
0001
1000
,
1100
0000
0011
0000
1100
0000
0001
0100
,
0010
1000
0100
0010
0001
0000
1000
0001
,
0101
0000
1010
0000
0101
0000
1000
0100
,
0010
0001
0100
0010
1000
0000
0100
0110
,
0000
0010
0001
1000
0010
0000
0100
0110
,
0000
0010
1000
0001
0010
0100
0010
0000
,
0001
1000
0100
1000
0001
0010
0011
0000
,
0001
0100
0010
0100
0001
1000
0010
1000
,
0200
0010
0010
1000
,
1000
0000
0010
0300
0010
0001
0000
0001
,
0100
0000
0010
1000
0100
0000
0010
0001
,
0100
0100
0001
1000
0000
1010
0000
0001
,
0010
0001
0100
0001
1000
0100
1000
0000
,
0010
0010
0010
0000
0100
0001
1000
0000
,
0100
0010
0100
1000
0001
0010
0001
0000
,
1000
1000
0010
0100
0001
0000
1001
0000
,
0001
0100
1000
0000
0100
0001
0010
0000
,
0101
0110
2020
3030
,
1000
0100
0001
0000
0100
1000
0010
0000
,
1100
0000
0110
0000
0011
0000
1000
0010
,
0100
0000
0010
1000
0100
0000
0010
0001
,
0100
0011
0100
1010
,
0001
0010
0001
0010
0100
1000
0100
1000
,
0010
0100
0001
1000
0100
0010
0001
1000
,
0010
0100
0010
0100
0001
1000
0001
1000
,
0100
0000
0100
0000
0100
0000
0100
0000
0020
0030
0001
0000
0001
0000
0001
0000
,
0100
0010
1000
0001
0000
0010
0010
0010
,
0100
0000
1000
0000
0001
0000
0200
0000
0000
0300
0000
0000
0010
0000
1000
0000
,
0001
0010
0110
0100
1001
0000
0001
0100
,
0010
1001
0110
1001
0000
0000
1100
0000
,
1100
0000
1100
0000
0001
0010
0100
1000
,
0100
0010
0001
0000
1000
0000
0101
0000
,
1010
0000
0101
0000
1000
0010
0100
0001
,
0010
0100
1000
0000
0010
0110
0000
0100
,
0001
1000
0100
0000
0010
0110
0000
0100
,
1000
0001
0100
0010
0100
0000
0001
1000
,
0010
1000
0001
0010
0100
0000
1000
0100
,
1000
0010
0100
0001
0010
0000
0100
1000
,
0001
0000
0100
0001
1000
0000
0010
0100
,
0001
0010
0100
1000
0010
0000
0100
0001
,
1000
0001
0010
0001
0100
0000
0010
0010
,
0010
1000
0001
0000
0010
0010
0010
0001
,
1000
0000
0100
0100
0100
0010
2002
0000
,
3003
0000
0000
0000
;

//--------------- dance-single - forcednature ----------------
#NOTEDATA:;
#STEPSTYPE:dance-single;
#DESCRIPTION:forcednature;
#DIFFICULTY:Hard;
#METER:16;
#RADARVALUES:0,0,0,0,0;
#CREDIT:forcednature;
#NOTES:
0000
0000
0000
0000
,
0000
0000
0000
0000
,
0000
0000
0000
0000
,
1001
0000
0001
0100
0001
2000
0000
3010
,
0100
0100
0001
0000
1000
0010
1010
0000
,
1000
1000
0001
1000
0000
0100
1100
0000
,
1010
0000
0000
0000
0001
0000
0102
0000
0000
0000
0023
0000
0000
0000
0031
1000
,
0001
0100
0010
0100
0001
1000
0010
1000
,
0001
0010
0001
0010
0100
0000
1000
0000
0001
0000
0100
0000
0010
0000
1000
0010
,
1000
0001
0010
0100
0001
0100
1000
0001
,
0100
0010
0100
0010
0100
0000
0010
0000
0110
0000
0000
0000
1001
0000
0000
0000
,
0002
0000
0203
0000
0320
0000
1030
0100
,
0010
0001
0010
0001
1000
0000
0010
0100
,
0001
2000
0000
3100
0020
0000
0031
0100
,
0010
1000
0010
1000
0001
0000
1001
0000
,
2100
0000
0001
0000
3020
0000
1030
0001
,
0010
0010
0010
0001
0100
0000
0010
1000
,
1100
1100
0000
0001
0011
0000
0101
0101
,
0000
1000
0010
0110
0110
0000
1001
0000
,
1000
0100
1100
0000
0001
0010
0011
0000
,
0001
0100
0000
0000
0010
1000
0000
0000
0001
0000
1000
0001
1000
0000
0000
0000
,
0001
0010
0011
0001
1000
0100
1100
1000
,
0010
0100
0000
0000
0001
1000
0000
0000
0010
0100
0010
0100
0010
0000
1000
0000
,
0001
0010
0001
0100
0001
0010
0001
0100
,
1000
0100
0002
0000
1003
0010
0002
0000
,
0013
0010
1000
0010
1000
1000
0100
1000
,
0001
0100
0001
0000
0010
0000
0001
0000
1000
0100
1000
0000
0010
0000
1000
0000
,
0100
0010
0100
0010
0100
0010
0100
0010
0001
1000
0001
1000
0001
1000
0001
1000
,
0020
0000
0000
0000
0130
0001
1000
0010
0200
0000
0000
0000
0300
0000
0000
0000
,
0001
0010
0100
0000
1000
0100
0010
0000
0012
0000
0000
0000
1003
0000
0001
0000
,
0100
0100
0010
1000
1001
0000
0001
0010
,
0001
0100
0010
0000
1000
0010
0100
0000
0102
0000
0000
0000
1003
0000
0001
0000
,
0010
0010
0001
0100
0110
0010
1001
0000
,
0001
0100
0100
0010
0010
1000
1000
0001
,
1000
0010
1000
0000
0020
0000
0000
0000
0130
0001
0100
0000
0002
0000
0000
0000
,
0013
0100
1000
0100
0001
0100
1000
0001
,
0010
0001
0010
0000
0100
0010
0100
0000
1000
0000
0100
0010
0001
0000
0100
0000
,
0010
1000
0001
0000
0100
0001
1000
0000
2010
0000
0000
0000
3001
0000
0100
0000
,
0010
0010
1000
0001
0011
0000
1000
0100
,
0010
0001
1000
0000
0100
1000
0001
0000
0012
0000
0000
0000
1003
0000
0010
0000
,
0100
0000
0100
0000
0001
0000
1000
0000
0100
1000
0100
0000
0010
0000
0012
0000
,
0000
0000
0103
0000
1000
0000
0100
0001
0100
0000
0001
0000
1000
0000
2010
0000
,
0000
0000
3100
0000
0001
0000
0100
1000
0100
0000
1000
0000
1001
0000
0000
0000
,
0001
0000
0001
0000
0100
0000
0001
0000
1000
0000
1000
0000
0100
1000
0100
0000
,
0010
0001
0010
0001
0010
0100
0010
0100
0010
0000
0001
1000
0010
0000
0100
0001
,
2000
0000
0010
0000
0001
0000
3010
1000
,
0001
0100
0001
0100
0001
0000
1000
0000
0100
0000
0110
0000
0000
0000
1001
0000
,
0001
0000
0010
0000
0001
0000
0100
0000
0010
0100
0010
0000
1000
0010
1000
0000
,
0001
1000
0100
1000
0001
0000
0011
0000
0000
0000
1100
0000
0000
0000
1000
0001
,
0100
0100
0010
1000
0001
1000
0010
0100
,
0001
1000
0010
1000
0001
0000
0010
0000
0100
0000
0100
0000
1000
0000
0001
0010
,
0001
0000
0001
0000
1000
0000
0010
0100
0001
0000
0100
0010
1000
0000
0001
0000
,
1000
0100
1000
0100
0010
0000
0001
0000
0100
0000
0010
0000
0110
0000
0000
0000
,
0001
0100
0101
0000
1000
0010
1010
0000
,
1000
0100
0000
0000
0010
0001
0000
0000
1000
0000
0001
1000
0001
0000
0000
0000
,
1000
0010
1010
1000
0001
0100
0101
0001
,
0010
0100
0000
0000
1000
0001
0000
0000
0010
0100
0010
0100
0010
0000
0001
0000
,
1000
0010
1000
0100
1000
0010
1000
0100
,
0001
0100
2000
0000
3001
0010
2000
0000
,
3010
0010
0001
0010
0001
0001
0100
0001
,
1000
0100
1000
0000
0010
0000
1000
0000
0001
0100
0001
0000
0010
0000
0001
0000
,
0100
0010
0100
0010
0100
0010
0100
0010
1000
0001
1000
0001
1000
0001
1000
0001
,
0020
0000
0000
0000
0130
1000
0001
0010
0200
0300
1000
0000
1000
0000
1000
0000
,
0001
0100
0010
0100
0001
1000
0010
0000
1010
0000
0001
0000
0001
0000
0010
0000
,
0001
1000
0100
1000
0001
0010
0200
0000
0000
0300
0000
0000
1000
0010
1000
0001
,
0010
0001
0100
0000
0110
0000
0010
0000
1001
0000
0000
0001
0100
0001
1000
0100
,
0100
0010
0110
0000
1001
0000
0110
0000
0000
0000
0000
0000
0001
0100
0010
0000
,
1010
0000
0000
0000
1000
0100
0010
0000
0011
0000
0000
0000
0001
0000
0100
0000
,
1000
0000
0100
0000
0001
0000
0010
0100
1000
0000
0001
0000
0100
0010
1000
0000
,
0100
0010
0001
0000
1001
0000
0000
0000
1000
0000
0010
0000
0100
0000
0100
0000
,
0001
0000
1000
0000
0010
0100
0001
0000
1000
0000
1200
0000
0000
0000
0301
0000
,
0100
0000
1000
0001
0010
0000
0010
0000
0001
0000
0201
0000
0000
0000
1300
0000
,
0100
0000
0001
1000
0010
0000
0100
0000
1001
0000
0000
0000
1000
0000
1000
0000
,
0010
0000
0010
0000
0100
0000
0100
0000
0001
1000
0001
0000
0010
0100
0010
0100
,
1000
0100
1000
0100
0010
0000
0001
1000
0010
0000
0100
0001
1000
0000
0100
0000
,
1000
0000
0010
0000
1000
0000
0100
0000
0001
0000
0100
0000
0010
0001
1000
0001
,
0010
0000
0100
0000
1000
0000
0001
0000
0100
0000
0010
1000
0010
0000
0100
0000
,
0001
0000
0010
0001
0010
0000
0100
0000
1000
0000
0010
0000
1000
0100
0010
0100
,
1000
0000
0010
0000
1010
0000
0000
0000
0001
0100
0010
0100
0001
0000
0010
0000
,
0011
0000
0000
0000
0100
0001
1000
0010
0100
0000
0010
0000
2002
0000
0000
0000
,
3003
0000
0000
0000
;

//--------------- dance-double - forcednature ----------------
#NOTEDATA:;
#STEPSTYPE:dance-double;
#DESCRIPTION:forcednature;
#DIFFICULTY:Easy;
#METER:9;
#RADARVALUES:0,0,0,0,0;
#CREDIT:forcednature;
#NOTES:
00000000
00000000
00000000
00000000
,
00000000
00000000
00000000
00000000
,
00000000
00000000
00000000
00000000
,
00011000
00001000
00010000
00100000
,
10000000
10000000
00010000
00000000
,
10010000
10000000
01000000
00010000
,
00001000
00001000
00000010
00000000
,
00000110
00000100
00010000
00000010
,
00001000
00001000
00000001
00000100
,
00001000
00010000
01000000
10000000
,
00100000
00000000
01000000
00100000
01000000
00000000
00010000
00000000
,
00200000
00000000
00000000
00300000
00002000
00000000
00000000
00003000
,
00010000
00010000
00010000
00000000
,
00000020
00000000
00000000
00000030
00002000
00000000
00000000
00003000
,
00000001
00000001
00000001
00000000
,
00000010
00000100
00010000
00001000
,
00100000
00100000
00010000
00000000
,
10000000
00010000
00000000
10000000
00010000
00000000
10000000
00010000
,
00000000
00100000
01100000
00000000
,
00010000
01000000
00001000
00010000
,
00000010
00001000
00001010
00000000
,
00001000
00000100
00010000
00001000
,
00100000
00010000
00110000
00000000
,
20000000
00000000
00000000
30000000
00020000
00000000
00000000
00030000
,
00100000
00001000
00010000
00000100
,
00001000
00001000
00000001
00000001
,
00000100
00001000
00010000
00001000
,
00010000
00100000
10000000
00010000
,
02000000
00000000
00200000
03300000
,
10010000
10010000
10010000
00000000
,
10000000
01000000
00010000
00000000
,
00011000
00011000
00011000
00000000
,
00001000
00000010
00000001
00000000
,
00001000
00000010
00010000
00001000
,
00010000
00010000
00000100
00002000
,
00003000
00000010
00001000
00000010
,
00000100
00000000
00000001
00001000
00000001
00000000
00000010
00000000
,
00000110
00000110
00000110
00000000
,
00001000
00000100
00010000
00000000
,
00011000
00011000
00011000
00000000
,
01000000
00000000
00010000
00000000
00100000
00000000
00000000
01100000
,
00000000
00000000
01000000
00000000
10000000
00000000
00000000
10010000
,
00000000
00010000
00100000
00001000
,
00000000
00010000
00010000
00000010
,
00001000
00000000
00000010
00000000
00000100
00000001
00000100
00000000
,
00000020
00000000
00001000
00000000
,
00001000
00001000
00001030
00000000
,
00010000
00001000
01000000
00010000
,
01000000
00001000
00020000
00000000
,
00130000
10000000
00010000
10000000
,
00100000
00100000
01000000
00000000
,
00010000
00100000
00001000
00010000
,
00000100
00001000
00001001
00000000
,
00000001
00000100
00001000
00010000
,
00100000
01000000
01100000
00000000
,
10000000
01000000
00010000
00001000
,
00000010
00000100
00000110
00000000
,
00000002
00000000
00000000
00000003
00002000
00000000
00000000
00003000
,
00000010
00010000
00001000
00000000
,
01000000
01000000
00010000
00100000
,
00010000
00010000
10000000
00100000
,
10000000
00010000
10000000
00000000
00010000
10000000
00010000
00000000
,
00200000
00000000
00000000
00000000
00301000
00001000
00001000
00001000
,
00000000
00010000
00000000
00000000
00000000
00000100
00000100
00000100
,
00000000
00000010
00000000
00000000
00000000
00000001
00000000
00000100
,
00000000
00001000
00000000
00010000
00000000
01000000
00000000
10000000
,
00000000
00100000
00100000
00100000
00000000
00000000
10010000
00000000
,
10010000
10010000
00000000
00010000
,
01000000
00001000
00000000
00011000
,
00011000
00011000
00000000
00010000
,
00000100
00000000
00001000
00000000
00000000
00000110
00000000
00000000
,
00000010
00000000
00000001
00000000
00000000
00001001
00000000
00000000
,
00001000
00000010
00010000
00000000
,
00001000
00001000
00100000
00010000
,
01000000
00010000
00100000
01100000
,
00000000
10000000
01000000
00010000
,
00001000
00100000
00000000
00001000
,
00010000
00000100
00010000
00000010
,
00001000
00000010
00001000
00000000
00000001
00000000
00000100
00000001
,
00000100
00000000
00001000
00000000
00010000
00001000
00020000
00000000
,
00030000
00000000
00000000
00000000
;

//--------------- dance-double - forcednature ----------------
#NOTEDATA:;
#STEPSTYPE:dance-double;
#DESCRIPTION:forcednature;
#DIFFICULTY:Medium;
#METER:12;
#RADARVALUES:0,0,0,0,0;
#CREDIT:forcednature;
#NOTES:
00000000
00000000
00000000
00000000
,
00000000
00000000
00000000
00000000
,
00000000
00000000
00000000
00000000
,
00011000
00000000
00010000
00100000
00000000
01100000
00000000
00000000
,
10000000
00000000
00010000
00000000
00100000
00010000
00100000
00000000
,
00001000
00001000
00000000
00010000
00000000
00000100
00001000
00000000
,
00000110
00000000
00000001
00000100
00000000
00001010
00000000
00000001
,
00000010
00000000
00000100
00001000
00000100
00000000
00010000
00000000
,
00001000
00001000
00001000
00000000
01000000
00000000
00010000
00000000
,
10000000
01000000
00010000
00000000
00001000
00010000
01000000
00000000
,
00100000
00100000
00100000
00000000
00011000
00000000
00000100
00000000
,
00002000
00000000
00000000
00003000
00000020
00000000
00000000
00000030
,
00000100
00000100
00000001
00000000
,
00002000
00000000
00000000
00003000
00000200
00000000
00000000
00000300
,
00010000
00010000
00001000
00011000
,
02000000
00000000
00010000
03000000
00020000
00000000
10000000
00030000
,
00100000
00010000
00100000
00010000
00100000
00000000
00001000
00000000
,
00010000
00000100
00000000
00000100
00001000
00000000
00001000
00000010
,
00000000
00000100
00000001
00000100
00000010
00000000
00001001
00000000
,
00000001
00000100
00001000
00000000
00010000
00100000
10000000
00000000
,
10010000
01100000
20020000
30030000
,
10000000
01000000
00010000
00000000
00001000
00000010
00000001
00000000
,
00001001
00000000
00000110
00000000
00001001
00000000
00001000
00000100
,
00020000
00000000
00001000
00030000
00002000
00000000
00100000
00003000
,
00200000
00320000
20030000
30200000
,
10300000
01000000
10000000
01000000
00100000
00001000
00010000
00000000
,
00000100
00001000
00000100
00001000
00000001
00000100
00000010
00000000
,
00010000
00001000
00010000
00001000
00100000
00010000
00100000
00010000
,
20000000
00000000
00100000
00100000
00200000
00000000
30300000
00000000
,
10010000
00000000
01100000
00000000
10010000
00000000
10000000
01000000
,
00010000
00001000
00100000
00001000
00010000
00000000
00000100
00000000
,
00001001
00000000
00000110
00000000
00001001
00000000
00000001
00000100
,
00001000
00010000
00000010
00001000
00000002
00000000
00000010
00000000
,
00000103
00000001
00000100
00000000
00001000
00010000
00000010
00000000
,
00001000
00010100
00100000
00010100
,
01000000
00010000
00100000
00000000
00001000
00010000
00100000
00000000
,
01000000
00010000
00100000
00001000
00010000
00000000
00100000
00000000
,
10010000
00000000
01100000
00000000
10010000
00000000
10000000
01000000
,
00010000
00001000
00100000
00001000
00010000
00000000
00000100
00000000
,
00001001
00000000
00000110
00000000
00001001
00000000
00000001
00000100
,
00001000
00010000
00000010
00001000
00000001
00000000
00000010
00002000
,
00000000
00013000
00001000
00010000
01000000
00000000
00100000
00002000
,
00000000
00013000
00001000
00010000
00100000
10000000
00010000
00000000
,
00100000
01000000
00010000
00001000
00000010
00000100
00000110
00000000
,
00000010
00000001
00000100
00000001
00000010
00001000
00010000
00000000
,
00012000
00100000
00100000
00010000
,
00010000
00000000
01000000
00003000
01000000
00001000
00000000
00001000
,
00100000
00000000
00010000
10000000
01000000
00000000
00010000
00000000
,
00001000
00001000
00000010
00000001
00000000
00001100
00000000
00000001
,
00000100
00001000
00000100
00000001
00000100
00001000
00010000
00000000
,
00100000
00100000
00100000
00000000
01000000
00010000
10000000
00000000
,
01000000
00010000
00001000
00010000
01000000
00100000
00001000
00000000
,
00010000
00010000
00000100
00001000
00000010
00000000
00001001
00000000
,
00000001
00000100
00001000
00000000
00010000
01000000
10000000
00000000
,
11000000
01100000
00220000
00330000
,
10000000
01000000
00010000
00000000
00001000
00000100
00000001
00000000
,
00000101
00000000
00000110
00000000
00001010
00000000
00000001
00000010
,
00001000
00000000
00010000
00001000
00000010
00000000
00001000
00010000
,
01000000
00110000
01000000
10100000
,
10000000
01000000
10000000
01000000
00010000
00001000
00010000
00001000
,
00000010
00000001
00000100
00000001
00000010
00001000
00010000
00000000
,
00100000
01000000
00100000
01000000
00010000
10000000
01000000
00010000
,
00002000
00000000
00100000
00100000
00103000
00000100
00000100
00000100
,
00001000
00000010
00000100
00000001
00000000
00000100
00000100
00000100
,
00001000
00000000
00000000
00000000
00000000
00000000
00010000
00000000
00000000
00000000
00000000
00000000
00100000
00000000
00000000
00000000
00000000
00000000
22000000
00000000
03000000
00000000
00000000
00000000
00000000
00000000
00000000
30000000
00000000
00000000
00000000
00000000
00000000
00000000
00000000
00000000
01000000
00000000
00000000
00000000
00000000
00000000
00010000
00000000
00000000
00000000
00000000
00000000
,
00001000
00010000
00010000
00000010
00000110
00000000
00000001
00000100
,
00001000
00001010
00011000
01010000
00000000
00000000
01100000
00000000
,
01100000
00000000
01100000
00000000
10000000
00010000
00100000
00001000
,
00010000
00000100
00001000
00000000
00000010
00000000
00000110
00000000
,
00000110
00000000
00000110
00000000
00000001
00001000
00000010
00010000
,
00001000
01000000
00010000
00000000
00100000
02000000
00000000
03010000
,
00001000
00010000
00001000
00000000
00000010
00000200
00000000
00010300
,
00000010
00001000
00000010
00010000
00001000
00000000
00000010
00000001
,
00000100
00000001
00000010
00001000
00010000
00000000
00100000
10000000
,
01000000
10000000
00100000
00010000
00001000
00000000
00010000
00100000
,
10000000
00000000
00100000
00010000
00001000
00000000
00010000
00000100
,
00001000
00000010
00010000
00001000
00000010
00000000
00000001
00000100
,
00000001
00000010
00001000
00010000
00001000
00000000
01000000
01000000
,
01000000
00001000
00010000
00000000
00000100
00000100
00000100
00010000
,
00001000
00000000
01000000
00001000
00010000
00000010
00002020
00000000
,
00003030
00000000
00000000
00000000
;

//--------------- dance-double - forcednature ----------------
#NOTEDATA:;
#STEPSTYPE:dance-double;
#DESCRIPTION:forcednature;
#DIFFICULTY:Hard;
#METER:16;
#RADARVALUES:0,0,0,0,0;
#CREDIT:forcednature;
#NOTES:
00000000
00000000
00000000
00000000
,
00000000
00000000
00000000
00000000
,
00000000
00000000
00000000
00000000
,
00011000
00000000
00010000
00001000
00010000
00200000
00000000
10300000
,
00010000
00010000
01000000
00000000
00010000
00100000
01100000
00000000
,
10000000
10000000
00010000
10000000
00000000
01000000
00010000
00000000
,
00011000
00000000
00000000
00000000
00001000
00000000
00000020
00000000
00000000
00000000
00000032
00000000
00000000
00000003
00001000
00000001
,
00001000
00000010
00000100
00000010
00001000
00010000
01000000
00100000
,
10000000
00010000
10000000
00010000
10000000
00000000
01000000
00000000
00010000
00000000
00001000
00000000
00100000
00000000
00010000
00100000
,
00001000
00010000
00100000
00010000
00001000
00000010
00000100
00001000
,
00000001
00000010
00000100
00000010
00000001
00000000
00001000
00000000
00000010
00000000
00000000
00000000
00001001
00000000
00000000
00000000
,
00000002
00000000
00000203
00000000
00002300
00000000
00013000
00100000
,
01000000
00010000
01000000
00010000
10000000
00000000
01000000
00010000
,
00001000
00020000
00000000
00031000
00000020
00000000
00000031
00001000
,
00000010
00000100
00001000
00010000
00001000
00000000
00011000
00000000
,
00200000
00000000
00010000
00000000
02300000
00000000
13000000
00010000
,
00100000
00100000
00100000
01000000
00010000
00000000
00001000
00000010
,
00000110
00000110
00000000
00001100
00010100
00000000
00011000
00011000
,
00000000
00101000
00110000
01010000
01100000
00000000
10010000
00000000
,
10000000
01000000
00020000
00000000
00031000
00000010
00000002
00000000
,
00000103
00000010
00000000
00000000
00001000
00000001
00000000
00000000
00000010
00000100
00000010
00000100
00000010
00000000
00000000
00000000
,
00000001
00000100
00000010
00001000
00010000
01000000
00100000
10000000
,
00010000
00100000
00000000
00000000
01000000
10000000
00000000
00000000
00100000
01000000
00100000
01000000
00100000
00000000
10000000
00000000
,
01000000
00000000
00010000
00001000
00000100
00000000
00001000
00010000
,
00200000
00302000
00003020
00020030
,
00130000
00100000
10000000
00100000
10000000
10000000
01000000
00010000
,
00001000
00010000
00001000
00000000
00010000
00000100
00001000
00000000
00000100
00000010
00000100
00000000
00000010
00000000
00000001
00000000
,
00001000
00000010
00001000
00000010
00001000
00000010
00001000
00000010
00010000
00001000
00010000
00001000
00010000
00001000
00010000
00001000
,
00200000
00000000
00000000
00000000
00310000
10000000
01000000
00100000
00020000
00000000
00000000
00000000
00030000
00000000
00000000
00000000
,
01100000
00000000
00011000
00000000
00000110
00000000
00001000
00000001
,
00000100
00000001
00000100
00000000
00000010
00001000
00000010
00000000
00001001
00000000
00000000
00000000
00000001
00000000
00000010
00000000
,
00000110
00000000
00011000
00000000
01100000
00000000
00010000
10000000
,
01000000
10000000
01000000
00000000
00100000
00010000
00100000
00000000
01000000
00000000
00100000
00000000
10010000
00000000
00000000
00000000
,
10000000
01000000
01000000
00010000
00010000
00001000
00001000
00000010
,
00000100
00001000
00000100
00000000
00000010
00000000
00000001
00000000
00000100
00000001
00000100
00000000
00002000
00000000
00000000
00000000
,
00013000
00100000
10000000
00100000
00010000
00001000
00010000
01000000
,
00100000
00010000
00100000
00000000
01000000
10000000
01000000
00000000
00010000
00000000
00001000
00010000
00001000
00000000
00000010
00000000
,
00001001
00000000
00011000
00000000
10010000
00000000
00010000
10000000
,
01000000
00100000
00010000
00000000
00100000
00001000
00010000
00000000
00011000
00000000
00000000
00000000
01000000
00000000
00010000
00000000
,
10010000
00000000
00011000
00000000
00001001
00000000
00001000
00000001
,
00000100
00000010
00001000
00000000
00000010
00010000
00001000
00000000
00000010
00000000
00000100
00000000
00001000
00000000
00002001
00000000
,
00000000
00003001
00000100
00001000
00010000
01000000
10000000
10020000
,
00000000
10030000
01000000
00010000
00001000
00000010
00000110
00000000
,
00000100
00000100
00010000
00000010
00000100
00000001
00001001
00000000
,
00010000
00001000
00010000
00001000
00100000
00010000
00100000
00010000
00100000
00000000
01000000
10000000
00100000
00000000
01000000
00010000
,
20000000
00000000
01000000
00000000
00010000
00000000
30100000
10000000
,
01000000
00010000
00001000
00000010
00000100
00000110
00000000
00001001
,
00000000
00000000
00000001
00000000
00000100
00000000
00001000
00000000
00010000
00001000
00010000
00000000
00100000
00000000
10000000
00000000
,
00010000
01000000
00100000
01000000
00010000
00000000
00110000
00000000
00000000
00000000
00011000
00000000
00000000
00000000
00000100
00001000
,
00000010
00000010
00000100
00000001
00000010
00001000
00010000
00001000
,
00100000
00010000
01000000
00010000
00100000
00000000
01000000
00000000
00010000
00000000
00010000
00000000
00001000
00000000
00010000
00000100
,
00001000
00000000
00001000
00000000
00000010
00000000
00000100
00000001
00000010
00000000
00000100
00001000
00000010
00000000
00000100
00000000
,
00001000
00010000
00001000
00010000
00000100
00000000
00001000
00000000
00000010
00000000
00000100
00000000
00000110
00000000
00000000
00000000
,
00000001
00000100
00002000
00000000
00013000
00100000
20000000
00000000
,
31000000
00100000
00000000
00000000
00010000
10000000
00000000
00000000
00100000
01000000
00100000
01000000
00100000
00000000
00000000
00000000
,
10000000
01000000
00100000
00010000
00001000
00000100
00000010
00000001
,
00001000
00000010
00000000
00000000
00000100
00000001
00000000
00000000
00000010
00000100
00000010
00000100
00000010
00000000
00000001
00000000
,
00000100
00000000
00001000
00010000
01000000
00000000
00010000
00001000
,
00000020
00020030
00230000
00302000
,
00003010
00000010
00000001
00000010
00000001
00000001
00000100
00001000
,
00010000
00001000
00010000
00000000
00001000
01000000
00010000
00000000
01000000
00100000
01000000
00000000
00100000
00000000
10000000
00000000
,
00010000
00100000
00010000
00100000
00010000
00100000
00010000
00100000
00001000
00010000
00001000
00010000
00001000
00010000
00001000
00010000
,
00000020
00000000
00000000
00000000
00001030
00000001
00000100
00000010
00002000
00003000
00000001
00000000
00000001
00000000
00000001
00000000
,
00000100
00001000
00010000
00001000
00010000
00100000
10000000
00000000
01010000
00000000
10000000
00000000
10000000
00000000
10000000
00000000
,
01000000
00010000
00001000
00010000
00001000
00000010
00000002
00000000
00000000
00000003
00000000
00000000
00000100
00000001
00000100
00001000
,
00010000
00001000
00100000
00000000
01100000
00000000
01000000
00000000
10010000
00000000
00000000
10000000
01000000
00100000
01000000
00010000
,
00001000
00000000
00110000
00000000
00011000
00000000
00001100
00000000
00000000
00000000
00000000
00000000
00010000
00001000
00100000
00000000
,
00110000
00000000
00000000
00000000
00001000
00010000
00000010
00000000
00001010
00000000
00000000
00000000
00000001
00000000
00000100
00000000
,
00001000
00000000
00010000
00000000
00000010
00000000
00001000
00000010
00010000
00000000
00001000
00000000
01000000
00001000
00010000
00000000
,
00000100
00010000
00001000
00000000
00011000
00000000
00000000
00000000
00010000
00000000
00100000
00000000
10000000
00000000
10000000
00000000
,
00010000
00000000
01000000
00000000
00010000
00100000
00001000
00000000
01000000
00000000
10020000
00000000
00000000
00000000
10030000
00000000
,
01000000
00010000
00001000
00000100
00000001
00002001
00000000
00003001
,
00000100
00001000
00010000
00100000
01100000
00000000
01000000
01000000
,
00001000
00000000
00100000
00000000
01000000
00000000
10000000
00000000
10010000
00000000
00000000
00000000
00001000
00010000
00001000
00010000
,
00000010
00001000
00000010
00001000
00000010
00000000
00000100
00000001
00000010
00000000
00000100
00001000
00000001
00000000
00000100
00000000
,
00001000
00000000
00010000
00000000
00000010
00000000
00001000
00000000
00000010
00000000
00010000
00000000
00001000
00100000
00010000
00100000
,
00001000
00010000
01000000
00100000
00001000
00010000
00100000
10000000
,
01000000
00000000
10000000
00010000
00100000
00000000
01000000
00000000
00010000
00000000
00001000
00000000
00100000
00010000
01000000
00010000
,
00100000
00000000
00001000
00000000
00011000
00000000
00000000
00000000
00000010
00001000
00000100
00001000
00000010
00000000
00010000
00000000
,
00011000
00000000
00000000
00000000
00100000
00001000
00010000
00000100
00001000
00000000
00000010
00000000
00002002
00000000
00000000
00000000
,
00003003
00000000
00000000
00000000
;
