#TITLE:GoGo NEO DRIVER!;
#SUBTITLE:;
#ARTIST:KSM ;
#TITLETRANSLIT:;
#SUBTITLETRANSLIT:;
#ARTISTTRANSLIT:;
#GENRE:;
#CREDIT:;
#MUSIC:gogo neo driver.ogg;
#BANNER:gogo neo driver bn.png;
#BACKGROUND:gogo neo driver bg.png;
#CDTITLE:;
#SAMPLESTART:95.532;
#SAMPLELENGTH:10.000;
#SELECTABLE:YES;
#OFFSET:-0.004;
#BPMS:0.000=141.000
,188.000=70.500
,197.000=141.000
;
#STOPS:188.000=0.851;
#BGCHANGES:32.000=gogo neo driver.avi=1.000=0=0=1===CrossFade_Fastest==,
281.250=gogo neo driver.png=1.000=0=0=1,
99999.000=-nosongbg-=1.000=0=0=0=StretchNoLoop====
;
#FGCHANGES:;

//--------------- dance-single - KAYSTAR ----------------
#NOTES:
     dance-single:
     KAYSTAR:
     Beginner:
     3:
     0,0,0,0,0:
0000
0000
0000
0000
,
0000
0000
0000
0000
,
0000
0000
0000
0000
,
0000
0000
0000
0000
,
2000
0000
0000
0000
,
3000
0000
0100
0000
,
0002
0000
0000
0000
,
0000
0003
0100
0000
,
1000
0000
1000
0000
,
1000
0000
0000
0000
,
0010
0000
0010
0000
,
0010
0000
0000
0000
,
0100
0000
0100
0000
,
0100
0000
0000
0000
,
0001
0000
0001
0000
,
0000
0000
1001
0000
,
0001
0000
0001
0000
,
0000
0010
0010
0000
,
0100
0000
0100
0000
,
0000
1000
1000
0000
,
0010
0000
0010
0000
,
0000
0100
0100
0000
,
0001
0000
0001
0000
,
0000
1000
1000
0000
,
0100
0000
1000
0000
,
0000
0001
0001
0000
,
0100
0000
0001
0000
,
0000
1000
1000
0000
,
0010
0000
1000
0000
,
0000
0100
0100
0000
,
0010
0000
0001
0000
,
0000
0010
0010
0000
,
0001
0000
0001
0000
,
1000
1000
0000
0000
,
0010
0000
0100
0000
,
0002
0000
0003
0000
,
1000
0000
1000
0000
,
0001
0001
0000
0000
,
0010
0000
0100
0000
,
2000
0000
3000
0000
,
1000
0000
1000
0000
,
0000
0010
0010
0000
,
0100
0000
0100
0000
,
0000
0001
0001
0000
,
0010
0000
0010
0000
,
0000
0100
0100
0000
,
1000
0000
1000
0000
,
0001
0200
0000
0000
,
0300
0000
1001
0000
,
0000
0002
0003
0000
,
0000
0020
0030
0000
,
0000
0200
0300
2000
,
3000
0002
0000
0000
,
0000
0003
0001
0001
,
0000
0100
0000
0010
,
0010
0010
0000
1000
,
1000
1000
0000
0100
,
0000
0000
1000
1000
,
0000
0100
0000
0010
,
0000
0001
0001
0001
,
0000
0100
0000
0200
,
0000
0300
0000
0020
,
0030
1000
1000
1000
,
0000
0001
0001
0001
,
0000
0010
0010
0010
,
0000
0001
0000
0100
,
0000
0010
0000
1000
,
0000
0200
0300
0020
,
0030
0002
0000
0003
,
0000
0000
0000
0000
0000
0000
0000
0000
1001
0000
0000
0000
1000
0000
0000
1000
,
0000
0000
0100
0000
0000
2000
0000
0000
0000
0000
0000
0000
0000
0000
0000
0000
,
0000
0000
0000
0000
,
0000
3000
0000
0000
;

//--------------- dance-single - KAYSTAR ----------------
#NOTES:
     dance-single:
     KAYSTAR:
     Easy:
     7:
     0,0,0,0,0:
0000
0000
0000
0000
,
0000
0000
0000
0000
,
0000
0000
0000
0000
,
0000
0000
0000
0000
,
2000
0001
0000
0100
,
0000
3001
1000
1000
,
0002
1000
0000
0100
,
0000
1003
0000
0000
,
0002
0010
0000
0100
,
0000
0013
0001
1000
,
2000
0010
0000
3100
,
1000
0100
0010
0001
,
0200
1000
0000
0010
,
0000
0301
1000
0100
,
0020
1000
0000
0100
,
0000
0031
1001
0000
,
1000
0010
0100
0100
,
0000
0001
0010
0100
,
1000
0010
0100
0100
,
0000
0001
0010
0100
,
1000
0001
0010
0010
,
0000
0100
1000
0010
,
0100
0001
0010
0010
,
0000
0100
1000
0010
,
1000
0000
0001
0001
,
0000
0010
0001
0100
,
1000
0100
0001
0001
,
0000
0010
0100
1000
,
0001
0000
1000
1000
,
0000
0010
1000
0100
,
0001
0000
0000
0000
0100
0000
0000
0000
1000
0000
0000
1000
0000
0000
1000
0000
,
0000
0010
0100
0001
,
1000
1000
0001
0001
,
0100
0100
0001
0000
0000
0000
1001
0000
,
1000
0010
1000
0100
,
0010
0002
2000
3003
,
1000
1000
0001
0001
,
0100
0100
0001
0000
0000
0000
1001
0000
,
1000
0010
0001
0010
,
1000
0200
0020
0330
,
0001
1000
0100
0100
,
0000
1000
1000
0000
0010
0000
0100
0000
,
0001
1000
0100
0100
,
0000
1000
1000
0000
0010
0000
0100
0000
,
0001
1000
0010
0010
,
0000
0100
0100
0000
0001
0000
0010
0000
,
0100
1000
0010
0010
,
0000
2000
0100
0001
,
3100
0000
0010
0001
0200
0000
0020
0000
,
0330
1000
1000
1000
,
1000
0001
0001
0001
,
0001
1000
0010
0100
,
0001
0020
0000
0000
,
0000
0130
1001
1000
,
0010
0000
1000
0000
0100
0000
1000
0001
,
1000
0000
0001
0000
0010
0000
0001
1000
,
0001
0100
0010
1000
,
0100
0010
1001
0001
,
0010
0000
0001
0000
0100
0000
0010
1000
,
0010
0000
1000
0000
0100
0000
1000
0001
,
1000
0020
0000
0200
,
0330
0001
0010
2002
,
3003
1000
0100
0001
,
0100
1000
0010
0001
,
0010
0000
1000
0000
0100
0000
1000
0001
,
1000
0001
0010
1000
,
0010
0001
0100
1000
,
0100
0001
0001
0010
,
0010
0002
0000
2000
,
3003
0000
0000
0000
0000
0000
0000
0000
0110
0000
0000
0000
1000
0000
0000
0001
,
0000
0000
0100
0000
0000
2002
0000
0000
0000
0000
0000
0000
0000
0000
0000
0000
,
0000
0000
0000
0000
,
0000
3003
0000
0000
;

//--------------- dance-single - KAYSTAR ----------------
#NOTES:
     dance-single:
     KAYSTAR:
     Medium:
     11:
     0,0,0,0,0:
0000
0000
0000
0000
,
0000
0000
0000
0000
,
0000
0000
0000
0000
,
0000
0000
0000
0000
,
1000
0010
0100
0001
0010
0000
1000
0010
,
0001
0100
0010
0000
1000
0001
1000
0000
,
0001
0100
0010
1000
0100
0000
0001
0100
,
1000
0010
0100
0000
0001
0000
0001
0000
,
1000
0100
0010
0001
0100
0001
1000
0010
,
0100
0001
0010
0001
1000
0100
0001
0100
,
1000
0010
0100
0001
0010
0001
1000
0100
,
1000
0010
0100
0001
0010
0100
1000
0000
,
0001
0100
0010
1000
0100
1000
0001
0010
,
0100
1000
0010
1000
0001
0100
1000
0100
,
0001
0010
0100
1000
0001
0100
0010
1000
,
0200
0000
0310
0000
,
0001
0000
0000
0100
0000
0100
0001
0000
1000
0000
0000
0100
0000
0000
1000
0000
,
0000
0000
0001
0000
0001
0000
0010
0000
1000
0000
0000
0010
0000
0000
0001
0000
,
1000
0000
0000
0100
0000
0100
1000
0000
0001
0000
0000
0100
0000
0000
0001
0000
,
0000
0000
1000
0000
1000
0000
0010
0000
0001
0000
0000
0010
0000
0000
1000
0000
,
0001
0000
0000
1000
0000
1000
0010
0000
0100
0000
0000
0001
0000
0000
0100
0000
,
0000
1000
0100
0001
0010
0100
1000
0000
,
1000
0000
0000
0001
0000
0001
0010
0000
0100
0000
0000
1000
0000
0000
0100
0000
,
0000
0001
0100
1000
0010
0100
0001
0000
,
0001
0000
0000
1000
0000
1000
0010
0000
1000
0000
0100
0000
0010
0000
0001
0000
,
0000
0000
0100
0001
0100
0000
0000
0000
0001
0000
1000
0000
0100
0000
0000
0000
,
0010
0000
1000
0000
0010
0000
0001
0000
0100
0000
0000
0010
0000
0000
0010
0000
,
0000
1000
0010
0001
0010
1000
0100
0000
,
1000
0000
0000
0001
0000
0001
0010
0000
0001
0000
0100
0000
0010
0000
1000
0000
,
0000
1001
1001
0000
1000
0001
0100
0000
,
0010
0000
0001
0000
0010
0000
1000
0000
0100
0000
0000
0010
0000
0000
0010
0000
,
0000
0001
0010
1000
0010
0001
0100
0000
,
0002
0000
2003
0000
3100
1000
0001
0000
,
0200
1000
1300
0000
0100
0000
0001
0000
,
0010
1000
0010
0000
0100
0001
0100
0000
,
2000
0010
0002
3003
,
2000
0000
3002
0000
0103
0001
1000
0000
,
0200
0001
0301
0000
0100
0000
1000
0000
,
0010
0001
0010
0000
0100
1000
0100
0000
,
0002
0010
2000
3003
,
1000
0000
0000
0100
0000
0100
1000
0000
0010
0000
0000
0100
0000
0000
0001
0000
,
0000
1001
1001
0000
0001
0100
1000
0100
,
0001
0000
0000
0100
0000
0100
0001
0000
0010
0000
0000
0100
0000
0000
1000
0000
,
0000
1001
1001
0000
1000
0100
0001
0100
,
1000
0000
0000
0001
0000
0001
0100
0000
0010
0000
1000
0000
0100
0000
0010
0000
,
0000
1000
0010
0100
0010
0001
1000
1000
,
0001
0000
0000
0100
0000
0100
0010
0000
1000
0000
0000
0100
0000
0000
1001
0000
,
0000
0000
0000
1000
0010
0100
0001
0000
,
1000
0000
0000
0100
0000
0000
1000
0000
0001
0010
0000
0001
0000
0010
0001
0000
0200
0000
0000
0000
0000
0000
0000
0000
2000
3000
0000
0000
0000
0000
0000
0000
,
0000
0301
0001
0001
,
0001
1000
1000
1000
,
1000
0000
0100
1000
0010
0100
0001
0010
,
0100
1000
0020
0000
0000
0000
0000
0000
,
0000
0000
0130
0000
1001
1000
0100
0001
,
0100
1000
0010
0100
0001
0000
0010
0010
,
0001
0100
0020
0000
1030
0000
0010
1000
,
0100
0000
0001
0000
0200
0000
0000
0000
0310
0000
0000
0000
0001
1000
0001
0000
,
1000
0100
1000
0010
1001
0000
0001
0100
,
0010
0000
1000
0001
0000
0000
1000
0001
0000
0000
0000
0000
1000
0000
0010
0000
,
0001
0000
0010
0100
0000
0000
0010
0100
0000
0000
0000
0000
0001
0000
0010
0000
,
0100
0000
1000
0001
1000
0000
0010
0000
0100
0000
0001
0000
0010
0000
1000
0000
,
0010
0001
1000
0100
0010
0001
0200
0000
,
0310
0000
0100
0010
0000
0000
1000
0010
1000
0000
0000
0000
0100
0000
0001
0000
,
0100
0000
0010
0000
0001
0000
1000
0001
1000
0000
0000
0000
0010
0000
0001
0000
,
0010
0000
0100
0000
0001
0000
1000
0000
1000
0000
0000
0000
0001
1000
0001
0000
,
1001
0000
1000
0100
0010
0001
0100
1000
,
0100
0001
1000
0010
0100
0001
1000
0010
,
0001
0010
1000
1000
0100
0100
0010
0010
,
0001
0001
2000
0000
0000
0000
3001
0000
,
0000
0000
0000
0000
0000
0000
1000
0001
1000
0000
0000
0000
0010
0100
0000
0100
,
0001
0000
0001
1000
0000
2002
0000
0000
0000
0000
0000
0000
0000
0000
0000
0000
,
0000
0000
0000
0000
,
0000
3003
0000
0000
;

//--------------- dance-single - KAYSTAR ----------------
#NOTES:
     dance-single:
     KAYSTAR:
     Hard:
     14:
     0,0,0,0,0:
0000
0000
0000
0000
,
0000
0000
0000
0000
,
0000
0000
0000
0000
,
0000
0000
0000
0000
,
1000
0100
0010
0001
0100
1000
0100
0001
,
1000
0100
0010
0001
1000
0010
0001
0010
,
1000
0100
0010
0001
0100
1000
0100
0001
,
0010
0100
1000
0010
0100
0000
1001
0000
,
1000
0100
0001
0100
1000
0010
0100
0001
,
0100
1000
0100
0001
0010
1000
0010
0100
,
1000
0010
0001
0010
1000
0100
0010
0001
,
0000
0000
1000
0001
0200
0000
0301
1000
0200
0000
0310
0100
1000
0000
0000
0000
,
0001
0100
1000
0100
0001
0010
0100
1000
,
0100
0001
0100
1000
0010
0001
0010
0100
,
0001
0010
1000
0010
0001
1000
0100
0001
,
0000
0100
1000
0000
1001
0000
0000
0000
,
1000
0000
0010
1000
0000
1000
0100
0000
0001
0000
0000
0100
0000
0000
1000
0000
,
0000
0000
0110
0000
1001
0000
0000
0000
1000
0000
1000
0100
0000
0000
1000
0000
,
0001
0000
0010
0001
0000
0001
0100
0000
1000
0000
0000
0100
0000
0000
0001
0000
,
0000
0000
0110
0000
1001
0000
0000
0000
0001
0000
0001
0100
0000
0000
0010
0000
,
1000
0000
0100
1000
0000
1000
0010
0000
0001
0000
0000
0010
0000
0000
1000
0000
,
0000
0000
0200
0000
0001
0000
0000
0010
0000
0000
1300
0000
1100
0000
0000
0000
,
0001
0000
0100
0001
0000
0001
0010
0000
1000
0000
0000
0010
0000
0000
0001
0000
,
0000
0000
0200
0000
1000
0000
0000
0010
0000
0000
0301
0000
0101
0000
0000
0000
,
1000
0000
0010
0100
0000
0100
0001
0000
1000
0000
0100
0010
0000
1000
0010
0000
,
0000
0000
0001
1000
0001
0000
0100
0010
0000
0010
1000
0000
0100
0000
0000
0000
,
1000
0100
1000
0000
0001
0000
0100
0000
0010
0000
0001
0010
0000
0100
0010
0000
,
0000
1000
0100
0001
1000
0010
0001
0000
,
0001
0000
0100
0010
0000
0010
1000
0000
0001
0000
0010
0100
0000
0001
0100
0000
,
0000
0010
0001
1000
0000
0100
1000
0001
0000
0100
0010
1000
0000
0100
0000
0000
,
1000
0000
0010
0100
0000
0100
0001
0000
1000
0000
0000
0100
0000
0000
1001
0000
,
0000
0001
0100
1000
0001
0010
1000
0000
,
1000
0000
0100
0010
0000
0010
0100
0000
0001
0000
0000
0100
0000
0100
1000
0000
,
0001
0000
0010
1000
0020
0000
0000
0000
0100
0000
0000
0000
0031
0000
0010
0000
,
0001
0000
1000
0010
0000
0010
0100
0000
1000
0000
0100
0001
0000
0001
1000
0000
,
0200
0001
2000
3300
,
0001
0000
0100
0010
0000
0010
0100
0000
1000
0000
0000
0100
0000
0100
0001
0000
,
1000
0000
0010
0001
0020
0000
0000
0000
0100
0000
0000
0000
1030
0000
0010
0000
,
1000
0000
0100
1000
0000
1000
0001
0000
0010
0000
1000
0010
0000
0010
0001
0000
,
0100
1000
0100
0001
1001
0000
0000
0000
,
1000
0000
0100
1000
0000
1000
0010
0000
0001
0000
0000
0010
0000
0000
1000
0000
,
0000
0000
0000
0000
0000
0000
1010
0000
0000
0000
0000
0000
0101
0000
0000
0000
0000
0000
0000
0000
0000
0000
0000
0000
0001
0000
0010
0000
0001
0000
0010
0000
0000
0001
0000
0000
0000
0000
0000
1000
0000
0000
0100
0000
0000
0010
0000
0000
,
0001
0000
0100
0001
0000
0001
0010
0000
1000
0000
0000
0010
0000
0000
0001
0000
,
0000
0000
0011
0000
1100
0000
0000
0000
0200
0000
1300
0001
0200
0000
0301
1000
,
0100
0000
1000
0010
0000
0010
0001
0000
0010
0000
0000
1000
0000
0000
0100
0000
,
0000
0000
0000
0000
0000
0000
0110
0000
0000
0000
0000
0000
1001
0000
0000
0000
0000
0000
0000
0000
0000
0000
0000
0000
1000
0000
0010
0000
1000
0000
0010
0000
0000
1000
0000
0000
0000
0000
0000
0001
0000
0000
0010
0000
0000
0100
0000
0000
,
1000
0001
0010
1000
0010
0001
0100
0010
,
1000
0000
0200
0001
0010
1000
0001
0000
,
0010
0000
0000
1000
0000
0000
1300
0000
0001
0100
0000
0001
0000
0001
0100
0000
0020
0000
0000
0000
0000
0000
0000
0000
0002
0003
0000
0000
0000
0000
0000
0000
,
0000
1030
0100
0010
,
0001
1001
1000
0010
,
0100
0000
0001
0010
1000
0010
0001
0100
,
1000
0100
0020
0000
0000
0001
0000
0100
,
0000
0000
0000
0000
0000
0000
1030
0000
0000
0000
0000
0000
1010
0000
0000
0000
0000
0000
0001
0000
0100
0000
0001
0000
0100
0000
0000
0000
0000
0000
0000
0000
0000
0000
0000
0000
0010
0000
0000
1000
0000
0000
0010
0000
0000
0100
0000
0000
,
0000
0100
0001
0000
1000
0100
1000
0001
0000
0001
0010
0000
0001
0000
0100
0000
,
1000
0000
0100
0000
0001
0100
0001
1000
0000
1000
0010
0000
1000
0000
0100
0000
,
0001
0000
0000
0000
0000
0000
0100
0000
0000
0000
0000
0000
1000
0000
0000
0100
0000
0000
1000
0000
0000
0001
0000
0000
0000
0000
0000
0001
0000
0000
0010
0000
0000
0000
0000
0000
0001
0000
1000
0000
0001
0000
1000
0000
0000
0010
0000
0000
,
0000
0100
0001
0000
1000
0100
1000
0000
1001
0000
0000
0000
0001
0010
0001
0100
,
0010
0000
1000
0001
0200
0000
0301
1000
0100
0000
0000
0000
0001
0100
1000
0001
,
1000
0000
0001
1000
0020
0000
1030
0001
0010
0000
0000
0000
1000
0010
0001
1000
,
0001
0000
0100
0000
1000
0100
0000
0100
0001
0000
0010
0000
2002
0000
0000
0000
,
3003
0000
0000
0000
1000
0010
1000
0100
0000
0100
0010
0000
2000
0000
0000
0000
,
3001
0000
0100
1000
0000
0010
0100
0001
0100
0000
0000
0000
1000
0100
0010
1000
,
0010
0100
0001
0100
0010
0000
0001
0010
1000
0000
0000
0000
0001
0010
0001
1000
,
0100
0000
0000
0010
0000
0000
1000
0000
0000
0010
0000
0000
0200
0000
0000
0000
0000
0000
1000
0000
0000
0000
0000
0000
1300
0000
0000
0000
0000
0000
0000
0000
0000
0000
0000
0000
0001
0000
1000
0000
0001
0000
1000
0000
0000
0010
0000
0000
,
0000
0100
0001
1000
0200
0000
0001
0000
0320
0000
1000
0000
0130
0000
0000
0000
,
1001
0000
2000
0010
3002
0100
1003
0010
,
0001
0010
0200
1000
0320
0001
0130
0001
,
0010
0000
0100
0000
1000
0001
1000
0001
1000
0001
1000
0100
0001
0000
0000
0000
,
0000
0000
0000
0000
0000
0000
1000
0010
0001
0000
0000
0000
0100
0010
0000
0010
,
1000
0000
1000
0100
0000
2002
0000
0000
0000
0000
0000
0000
0000
0000
0000
0000
,
0000
0000
0000
0000
,
0000
3003
0000
0000
;

//--------------- dance-double - KAYSTAR ----------------
#NOTES:
     dance-double:
     KAYSTAR:
     Easy:
     7:
     0,0,0,0,0:
00000000
00000000
00000000
00000000
,
00000000
00000000
00000000
00000000
,
00000000
00000000
00000000
00000000
,
00000000
00000000
00000000
00000000
,
20000000
00010000
00000000
01000000
,
00000000
30010000
01000000
00001000
,
00020000
00001000
00000000
00001000
,
00000000
00031000
00000000
00000000
,
00000001
00001000
00000200
00010000
,
00000000
00001300
00000100
00010000
,
00001000
02000000
00000000
00001000
,
00000000
03010000
10000000
10010000
,
10000000
01000000
00200000
00010000
,
00000000
00301000
00100000
00001000
,
00010000
00000010
00001000
00000001
,
00000000
00000000
00001001
00000000
,
00000001
00001000
00000100
00000100
,
00000000
00010000
01000000
10000000
,
00000000
00010000
01000000
01000000
,
00000000
00001000
00000100
00000001
,
00001000
00000000
00000100
00000100
,
00000000
00010000
00001000
00100000
,
00000000
00010000
01000000
01000000
,
00000000
00001000
00010000
00000000
,
00011000
00000000
00001000
00000010
,
00000100
00000000
00010000
00001000
,
00010000
00000000
00100000
01000000
,
00001000
00010000
00000100
00000000
,
00001000
00000000
00000001
00000100
,
00001000
00000000
00010000
00001000
,
00100000
00000000
00000000
00000000
00000000
00000000
00000000
00000000
00010000
00000000
00000000
10000000
00000000
00000000
02000000
00000000
,
00000000
00100000
03100000
10010000
,
10000000
00100000
01000000
00010000
,
00100000
00001000
00000000
00000000
,
00010000
01000000
10000000
00000000
,
00010000
00100000
00002000
00000000
,
00013000
00000000
00000010
00001000
,
00000100
00010000
00000000
00000000
,
00001000
00000100
00000001
00000000
,
00001000
00000000
00001001
00000000
,
00000001
00001000
00000010
00010000
,
00000000
00100000
10000000
01000000
,
10000000
00010000
00100000
00001000
,
00000000
00000010
00000001
00000001
,
00000100
00000000
00000010
00010000
,
00001000
00200000
00010000
00001000
,
00310000
01000000
00002000
00020000
,
00033000
00000000
00000000
00001000
00010000
00000010
00001000
00000000
,
00000001
00000010
00000200
00000000
00001000
00000000
00020300
00000000
,
00032000
02000000
03003000
00000000
,
00000000
00022000
00033000
00000000
,
00000000
00010000
00000100
00010000
,
00001000
02000000
00000000
00000000
,
00000000
03010000
20010000
01000000
,
30010000
10000000
00100000
00010000
,
00001000
00011000
00000000
00001000
,
00000010
00000002
00001000
00000100
,
00001003
00000110
00001002
00000010
,
00001003
00000001
00000100
00001000
,
00010000
00011000
00010000
01000000
,
10000000
20000000
00000000
00020000
,
00000000
30030000
10000000
01000000
,
00010000
00001000
00010000
00100000
,
10000000
00010000
01000000
00001000
,
00010000
00000100
00000010
00000001
,
00001001
00000000
00000001
00000100
,
00001000
00010000
00001000
00000010
,
00000001
00002000
00000000
00003100
,
00010000
00200000
00000000
01300000
,
00000000
00000000
00000000
00000000
00000000
00000000
00000000
00000000
10010000
00000000
00000000
00000000
10000000
00000000
00000000
00010000
,
00000000
00000000
00100000
00000000
00000000
00002000
00000000
00000000
00000000
00000000
00000000
00000000
00000000
00000000
00000000
00000000
,
00000000
00000000
00000000
00000000
,
00000000
00003000
00000000
00000000
;

//--------------- dance-double - KAYSTAR ----------------
#NOTES:
     dance-double:
     KAYSTAR:
     Medium:
     11:
     0,0,0,0,0:
00000000
00000000
00000000
00000000
,
00000000
00000000
00000000
00000000
,
00000000
00000000
00000000
00000000
,
00000000
00000000
00000000
00000000
,
10000000
01000000
00100000
00001000
,
00010000
00000010
00000100
00001001
,
00000001
00000010
00000100
00010000
,
00001000
01000000
00100000
10010000
,
10000000
01000000
10000000
00010000
00100000
00000000
00001000
00010000
,
00001000
01000000
00010000
00000000
10000000
01000000
00100000
00001000
,
00010000
00000010
00000100
00000010
00001000
00000000
00000100
00010000
,
00002000
00100000
00000000
00103000
00001000
00010000
00010100
00000000
,
00000001
00000100
00000001
00001000
00000010
00000000
00010000
00001000
,
00010000
00000100
00001000
00000000
00000001
00000100
00000010
00010000
,
00001000
00001000
00100000
00100000
00010000
00010000
10000000
10000000
,
00000000
01000000
00020000
00000000
00031000
00000000
00000000
00000000
,
00021000
00030010
00012000
00103000
,
00010000
00000000
10000000
00000000
10010000
00000000
00000000
00000000
10000000
00000000
00000000
01000000
00000000
00000000
00010000
00000000
,
00002000
00103000
00021000
00030010
,
00001000
00000000
00000001
00000000
00001001
00000000
00000000
00000000
00000001
00000000
00000000
00000100
00000000
00000000
00001000
00000000
,
00020000
01000000
00032000
00000100
,
00013000
00000000
00100000
00000000
01000000
00000000
00000000
00010000
00000000
00000000
00100000
00000000
00001000
00000000
00000000
00000000
,
00020000
01000000
00032000
00000100
,
00013000
00000000
00001000
00000000
00000010
00000000
00000000
00000100
00000000
00000000
00010000
00000000
00001000
00000000
00000000
00000000
,
00010000
01000000
10000000
00000000
00100000
10000000
00010000
00100000
,
00000000
00001000
00011000
00000000
00000010
00001000
00000001
00000000
,
00001000
00000000
00000100
00000000
00000001
00000000
00000100
00000000
00001000
00000000
00000000
00000010
00000000
00000000
00010000
00000000
,
00000000
00001000
00010000
00100000
10000000
01000000
00100000
00000000
,
00001000
00000010
00000001
00000000
00000100
00000001
00001000
00000100
,
00000000
00010000
00011000
00000000
00100000
00010000
10000000
00000000
,
00010000
00000000
01000000
00000000
10000000
00000000
01000000
00000000
00010000
00000000
00000000
00100000
00000000
00000000
00001000
00000000
,
00000000
00010000
00001000
00000010
00000001
00000100
00001000
00000000
,
00000110
00000000
00000000
00000000
00000010
00000000
00001000
00000000
00000100
00000000
00000000
00010000
00000000
00000000
00001000
00000000
,
00100000
00010000
01000000
00000000
00100000
00000000
10000000
01000000
,
00010000
00000000
00000000
01000000
00000000
00000000
00100000
00000000
00100000
00000000
00000000
00001000
00000000
00000000
00010000
00000000
,
00000010
00000100
00000001
00000100
00002000
00000000
00000000
00000000
,
00013000
00000000
00000000
00001000
00000000
00000000
00000010
00000000
00000001
00000000
00000000
00000100
00000000
00000000
00001000
00000000
,
00010000
00000000
00100000
00000000
00100000
00000000
00000000
00000000
10000000
00000000
00000000
10000000
00000000
00000000
01000000
00000000
,
00010000
00000000
00000000
00001000
00000000
00000000
00000010
00000000
00000100
00000000
00000000
00010000
00000000
00000000
00000010
00000000
,
00002000
00000001
00003100
00000000
,
00012000
00103000
00020000
10030000
,
00010000
00000000
01000000
00000000
01001000
00000000
00000000
00000000
00001000
00000000
00010000
00001000
00000000
00001000
00000000
00000000
,
00020000
00030010
00002000
00003001
,
00001000
00000100
00010100
00000000
00002000
00010000
00000000
00013000
,
00011000
00101000
00010100
00011000
,
00001000
00000100
00000001
00000000
00000010
00000000
00000100
00000000
,
00010100
00011000
00010010
00011000
,
02001000
00000000
03100000
10000000
01000000
00100000
00020000
00000000
,
00031000
00000000
00000000
00010000
00000000
00000000
01000000
00000000
00100000
00000000
00000000
00100000
00000000
00000000
10000000
00000000
02000000
00000000
00000000
00000000
00000000
00000000
00000000
00000000
00010000
00000000
00000000
00000000
00000000
00000000
00000000
00000000
,
13000000
10010000
10000000
00010000
,
01000000
01001000
00001000
00010000
,
00000100
00000000
00001001
00000001
00000010
00000001
00000100
00000010
,
00010000
00001000
00200000
00000000
00000000
10000000
00000000
01000000
,
00000000
00310000
00000000
00000000
00011000
00001000
00100000
00001000
,
00010000
00000010
00001000
00000100
00000001
00000000
00000100
00010000
,
00001000
00000000
00100000
00000000
00100000
00000000
00000000
00010000
00000000
00000000
00010000
00000000
01000000
00000000
00001000
00000000
,
00010000
00000000
00000010
00000000
00001000
00000000
00000000
00001000
00000000
00000000
00000100
00000000
00000010
00000000
00000001
00000000
,
00000100
00001000
00000100
00000001
00001001
00000000
00001000
00000000
,
00000100
00010000
00010000
00001000
00001000
00000000
00100000
01000000
,
00100000
00001000
00001000
00010000
00010000
00000000
00000010
00000100
,
00000010
00000000
00000000
00000000
00001000
00000001
00000000
00001000
00000001
00000000
00000100
00000000
00000010
00000000
00010000
00000000
,
00001000
00100000
01000000
00000000
10000000
01000000
00020000
00000000
,
01030000
00100000
00010000
01000000
00001000
00000000
00010000
00001000
,
00000010
00000001
00000100
00000010
00000010
00000000
00001000
00000100
,
00010000
01000000
10000000
00100000
00100000
00000000
10000000
00010000
,
10010000
20000000
32000000
03020000
,
00031000
00002000
00003200
00000302
,
00001003
00000100
00010000
00001000
00010000
00001000
01000000
00001000
,
00010000
00001000
00000010
00000001
00000100
00001000
00020000
00000000
,
00000000
00000000
00000000
00000000
00000000
00000000
00031000
00010000
00001000
00000000
00000000
00000000
00100000
00010000
00000000
00010000
,
01000000
00000000
01000000
00002000
00000000
00020000
00000000
00000000
00000000
00000000
00000000
00000000
00000000
00000000
00000000
00000000
,
00000000
00000000
00000000
00000000
,
00000000
00033000
00000000
00000000
;

//--------------- dance-double - KAYSTAR ----------------
#NOTES:
     dance-double:
     KAYSTAR:
     Hard:
     14:
     0,0,0,0,0:
00000000
00000000
00000000
00000000
,
00000000
00000000
00000000
00000000
,
00000000
00000000
00000000
00000000
,
00000000
00000000
00000000
00000000
,
10000000
01000000
00010000
01000000
00100000
00000000
00010000
01000000
,
00001000
00010000
00000100
00000000
00001000
00000010
00000001
00000010
,
00001000
00000001
00000010
00000100
00001000
00000000
00000100
00010000
,
00001000
01000000
00010000
00000000
10010000
00000000
01100000
00000000
,
10000000
01000000
00010000
01000000
10000000
00100000
01000000
00001000
,
00010000
00000100
00000010
00000001
00001000
00000010
00000001
00000010
,
00001000
00000001
00000010
00000100
00010000
00001000
01000000
00000000
,
00200000
00000000
10300000
00010000
00200000
00000000
00310000
10000000
00200000
00000000
01300000
00010000
10000000
00000000
00000000
00000000
,
01000000
00100000
10000000
00100000
00010000
01000000
00001000
00010000
,
00000010
00000100
00000001
00000010
00000001
00000100
00001000
00000100
,
00000001
00001000
00000100
00010000
00001000
00100000
00010000
10000000
,
00020000
00230000
20300000
30020000
00031000
00000000
00000000
00000000
,
00010000
00000000
00000000
01000000
00000000
01000000
00100000
00000000
00001000
00000000
00000000
00010000
00000000
00000000
00000010
00000000
,
00000000
00000000
00000100
00000000
00000110
00000000
00000000
00000000
00000001
00000000
00001000
00000100
00000000
00000000
00010000
00000000
,
00001000
00000000
00000000
00000010
00000000
00000010
00000100
00000000
00010000
00000000
00000000
00001000
00000000
00000000
01000000
00000000
,
00000000
00000000
00100000
00000000
01100000
00000000
00000000
00000000
10000000
00000000
00010000
01000000
00000000
00000000
00001000
00000000
,
00010000
00000000
00000100
00001000
00000000
00001000
00000100
00000000
00001000
00000000
00000000
00000001
00000000
00000000
00000100
00000000
,
00000000
00001000
00000100
00000001
00000010
00001000
00010000
00000000
,
00001000
00000000
01000000
00010000
00000000
00010000
01000000
00000000
00010000
00000000
00000000
10000000
00000000
00000000
01000000
00000000
,
00000000
00010000
01000000
10000000
00100000
00010000
00001000
00000000
,
00011000
00000000
00000000
00001000
00000000
00001000
00000010
00000000
00000100
00000000
00001000
00000001
00000000
00001000
00000001
00000000
,
00000100
00000000
00001000
00010000
00001000
00000000
00000100
00000000
00000001
00000000
00000010
00000000
00000100
00000000
00000000
00000000
,
00010000
00001000
00010000
00000000
00001000
00100000
00010000
00000000
10000000
00000000
00010000
01000000
00000000
00010000
01000000
00000000
,
00000000
10000000
01000000
00010000
00100000
00001000
00010000
00000000
,
00011000
00000000
00000000
00010000
00000000
00010000
01000000
00000000
00100000
00000000
00010000
10000000
00000000
00010000
10000000
00000000
,
00000000
01000000
00100000
01000000
00000000
10000000
00010000
10000000
00000000
00000000
00100000
01000000
00000000
00001000
00000000
00000000
,
00010000
00000000
00001000
00010000
00001000
00000000
00000010
00000000
00000001
00000000
00000000
00000100
00000000
00000000
00000110
00000000
,
00000000
00000001
00000010
00001000
00010000
01000000
10000000
00000000
,
00010000
00000000
10000000
00010000
00000000
00010000
00100000
00000000
01000000
00000000
00000000
00010000
00000000
00000000
00001000
00000000
,
00010000
00000000
00000010
00001000
00000020
00000000
00000000
00000000
00000001
00000000
00000000
00000000
00000130
00000000
00000001
00000000
,
00001000
00000000
00000100
00010000
00000000
00000000
00001000
00000000
01000000
00000000
00001000
00010000
00000000
00010000
00001000
00000000
,
00200000
00000000
00000000
00000000
10000000
00000000
00000000
00000000
01300000
00000000
10000000
00010000
00000000
10000000
00010000
00000000
,
00100000
00000000
00001000
00010000
00000000
00010000
00000010
00000000
00001000
00000000
00000100
00010000
00000000
00010000
00001000
00000000
,
01000000
00000000
00100000
10000000
00200000
00000000
00000000
00000000
00010000
00000000
00000000
00000000
01300000
00000000
00100000
00000000
,
10000000
00000000
01000000
00010000
00000000
00010000
00001000
00000000
00100000
00000000
00001000
00010000
00000000
00010000
00000010
00000000
,
00002000
00003020
00000032
00002003
00013000
00000000
00000000
00000000
,
00011000
00000000
00001000
00100000
00000000
00100000
01000000
00000000
00010000
00000000
00000000
00001000
00000000
00000000
02000000
00000000
,
00000000
00000000
10000000
00000000
03100000
00000000
00000000
00000000
10000000
01000000
00100000
00010000
00000000
00100000
00001000
00010000
,
00000100
00000000
00001000
00000010
00000000
00000010
00000100
00000000
00001000
00000000
00000000
00010000
00000000
00000000
00000200
00000000
,
00000000
00000001
00000310
00000000
00000100
00010000
00001000
01000000
,
10010000
00000000
10000000
00100000
00000000
01000000
00100000
00000000
00010000
00000000
00000000
00001000
00000000
00000000
00200000
00000000
,
00000000
00000000
10000000
00000000
01000000
00000000
01300000
00000000
10000000
00100000
01000000
00010000
00000000
01000000
00001000
00010000
,
00000010
00010000
00001000
00000010
00000100
00010000
00001000
00022000
,
00000000
00003000
00000000
00000000
00000000
00000000
00000000
00000000
00000000
00000000
00000000
00000000
00000000
00000000
00000000
00000000
00000000
00000000
00000000
00000000
00000000
00000000
00000000
00000000
00100000
00000000
00000000
00000000
00000000
00000000
00000000
00000000
00001000
00000000
00000000
00000000
00000000
00000000
00000000
00000000
00030010
00000000
00000000
00000000
00000000
00000000
00000000
00000000
00002000
00000000
00000000
00000000
00000000
00000000
00000000
00000000
00000000
00000000
00000000
00000000
00000000
00000000
00000000
00000000
,
00003001
00000000
00000000
00000010
00000000
00000000
00000001
00000000
00001000
00000100
00000000
00000100
00000000
00010000
00001000
00000000
02000000
00000000
00000000
00000000
00000000
00000000
00000000
00000000
20000000
00000000
30000000
00000000
00000000
00000000
00000000
00000000
,
00000000
03001000
00010000
01000000
,
10000000
10010000
00010000
00000100
,
00000001
00000000
00001000
00000100
00000001
00000100
00001000
00000010
,
00010000
00001000
00102000
00000000
00000000
00003200
00000000
00000302
,
00000000
00000000
00000013
00000000
00001001
00000000
00001000
00000100
00000001
00000000
00000000
00000000
00000100
00000000
00000100
00010000
,
00000000
00010000
00001000
00000000
00100000
00000000
00100000
00010000
00000000
00010000
01000000
00000000
10000000
00000000
00010000
00000000
,
00100000
00000000
01000000
00000000
00001000
00000000
00001000
00010000
00000000
00010000
00000100
00000000
00000001
00000000
00001000
00000000
,
00000010
00000000
00000100
00000000
00010000
00000000
00001000
01000000
00000000
01000000
00100000
00000000
10000000
01000000
00100000
00010000
,
00000000
00100000
00001000
00000000
00000010
00000000
00000001
00000000
00001001
00000000
00000000
00000000
00001000
00000000
00010000
00000000
,
00100000
00000000
00010000
10000000
02000000
00000000
13000000
00010000
01000000
00000000
00000000
00000000
00010000
00000000
00001000
00000000
,
00000010
00000000
00001000
00000001
00000200
00000000
00000301
00001000
00000100
00000000
00000000
00000000
00001000
00000000
00010000
00000000
,
00100000
00000000
00010000
00000000
01000000
00100000
00000000
00100000
10000000
00000000
01000000
00000000
00010000
00000000
00001000
00000000
,
00000010
00000000
00000001
00000000
00001001
00000000
00000000
00010000
00000000
00010000
00001000
00000000
02000000
00000000
00000000
00000000
,
13000000
00000000
01000000
00100000
00000000
10000000
01000000
00100000
00010000
00000000
00000000
00000000
00001000
00000100
00001000
00000001
,
00000010
00000001
00001000
00000000
00000010
00000000
00010000
00001000
00100000
00010000
00000000
00000000
10000000
00100000
10000000
00010000
,
01000000
00010000
10000000
00000000
01000000
00000000
00010000
00000000
00001000
00000000
00000000
00000000
00100000
00010000
00100000
00000000
,
00001000
00000010
00000002
00000100
00002003
00000010
00003100
00000000
,
00011000
00000000
20010000
00100000
30020000
01000000
00130000
00001000
,
00000010
00000001
00001001
00000001
00001000
00001000
00010000
00010000
,
10000000
10000000
01000000
10000000
00100000
00010000
00022000
00000000
,
00033000
00000000
00000000
00000000
00000000
00000000
00010000
01000000
10000000
00000000
00000000
00000000
00010000
01000000
00000000
00001000
,
00010000
00000000
00000010
00001000
00000000
00002002
00000000
00000000
00000000
00000000
00000000
00000000
00000000
00000000
00000000
00000000
,
00000000
00000000
00000000
00000000
,
00000000
00003003
00000000
00000000
;
